osu file format v4

[General]
AudioFilename: Devil_May_Cry_-_DMC.mp3
AudioLeadIn: 0
AudioHash: 30d4278378294c0b735811658f6b8c5c
PreviewTime: -1
Countdown: 1
SampleSet: Soft

[Metadata]
Title:D.M.C.
Artist:Rungran
Creator:Piku184
Version:Normal

[Difficulty]
HPDrainRate:4
CircleSize:5
OverallDifficulty:5
SliderMultiplier: 1.1
SliderTickRate: 2

[Events]
//Background and Video events
0,-100000,"30555967_e720c4122d_b.jpg"
//Break Periods
2,35700,58276
//Storyboard Layer 0 (Background)
//Storyboard Layer 1 (Failing)
//Storyboard Layer 2 (Passing)
//Storyboard Layer 3 (Foreground)
//Storyboard Sound Samples
//Background Colour Transformations
3,100,0,0,0

[TimingPoints]
4812,666.518551433015,4,2,0,100

[HitObjects]
32,32,4812,1,0
96,96,5478,1,0
160,160,6145,1,0
224,224,6811,1,0
288,288,7478,1,0
416,352,8477,1,0
480,352,8811,1,0
480,32,10144,5,0
416,96,10810,1,0
352,160,11477,1,0
288,224,12143,1,0
224,288,12810,1,0
96,352,13810,1,0
32,352,14143,1,0
32,32,15476,5,0
96,96,16142,1,0
160,160,16809,1,0
224,224,17475,1,0
288,288,18142,1,0
416,352,19142,1,0
480,352,19475,1,0
480,32,20141,5,0
448,64,20475,1,0
416,96,20808,1,0
352,160,21474,1,0
288,224,22141,1,0
224,288,22808,1,0
160,352,23474,1,0
96,224,24474,1,0
96,192,24807,1,0
96,96,25474,1,0
352,192,26140,6,0,B|352:192|224:288|160:160|192:160,2,110
352,192,28806,6,0,B|352:192|224:288|192:192|224:160,2,110
192,128,31472,2,0,B|192:128|192:224,1,110
256,128,32805,2,0,B|256:128|256:256,1,110
320,128,34138,2,0,B|320:128|320:224,1,110
320,320,35471,1,0
32,32,59466,5,0
96,96,60133,1,0
160,160,60799,1,0
224,224,61466,1,0
288,288,62132,1,0
416,352,63132,1,0
480,352,63465,1,0
480,32,64132,5,0
448,64,64465,1,0
416,96,64798,1,0
352,160,65465,1,0
288,224,66131,1,0
224,288,66798,1,0
160,352,67464,1,0
64,224,68464,1,0
64,192,68797,1,0
32,32,70130,5,0
96,96,70797,1,0
160,160,71463,1,0
224,224,72130,1,0
288,288,72796,1,0
416,352,73796,1,0
480,352,74129,1,0
480,32,74796,5,0
448,64,75129,1,0
416,96,75462,1,0
352,160,76129,1,0
288,224,76796,1,0
224,288,77462,1,0
160,352,78129,1,0
64,224,79128,1,0
64,192,79462,1,0
352,192,80795,6,0,B|352:192|256:256|192:160|224:160|256:160,2,110
352,192,83461,6,0,B|352:192|288:224|256:192,2,110
256,192,86127,12,0,88793
