osu file format v9

[General]
AudioFilename: Ookubo Rumi - Te o Gyu Shite ne.mp3
AudioLeadIn: 2000
PreviewTime: 1157
Countdown: 0
SampleSet: Soft
StackLeniency: 0.7
Mode: 0
LetterboxInBreaks: 0

[Editor]
DistanceSpacing: 1.2
BeatDivisor: 4
GridSize: 8

[Metadata]
Title:Te wo Gyu Shite ne (TV Size)
Artist:Rumi Ookubo
Creator:kioukiou
Version:Normal
Source:Acchi Kocchi
Tags:spboxer3 AoiX

[Difficulty]
HPDrainRate:3
CircleSize:4
OverallDifficulty:5
ApproachRate:5
SliderMultiplier:1.2
SliderTickRate:2

[Events]
//Background and Video events
0,0,"BG.jpg"
Video,-400,"Video.avi"
//Break Periods
//Storyboard Layer 0 (Background)
//Storyboard Layer 1 (Fail)
//Storyboard Layer 2 (Pass)
//Storyboard Layer 3 (Foreground)
//Storyboard Sound Samples
//Background Colour Transformations
3,100,163,162,255

[TimingPoints]
1157,472.44094488189,4,2,1,70,1,0
16275,-100,4,2,1,80,0,0
31393,-142.857142857143,4,2,1,70,0,0
44621,-142.857142857143,4,2,1,50,0,0
47456,472.44094488189,4,2,1,70,1,0
49345,-100,4,2,1,80,0,0
82416,-100,4,2,1,35,0,0
84542,-100,4,2,1,25,0,0
85251,-100,4,2,1,20,0,0
85959,-100,4,2,1,15,0,0
86668,-100,4,2,1,10,0,0
87141,-100,4,2,1,5,0,0

[Colours]
Combo1 : 255,128,0
Combo2 : 5,240,5
Combo3 : 255,128,255
Combo4 : 255,47,47
Combo5 : 0,255,255

[HitObjects]
96,64,1157,1,4
184,104,1629,2,0,B|248:88|319:108,1,120,2|0
392,64,2574,1,2
448,152,3046,2,0,B|480:280,1,120,0|2
384,256,3991,2,0,B|384:336,2,60,0|0|2
288,256,4936,6,0,B|230:225|169:259,2,120,0|2|0
288,160,6353,1,2
288,64,6826,1,0
208,112,7298,1,2
208,112,7534,1,0
112,112,8007,1,8
112,112,8243,1,8
48,192,8716,6,0,B|192:192,1,120,0|2
216,280,9660,1,0
280,352,10133,2,0,B|408:352,1,120,2|0
464,280,11078,1,2
400,208,11550,2,0,B|400:128,2,60,0|0|2
304,232,12495,6,0,B|200:304,1,120,0|2
112,272,13440,2,0,B|216:200,1,120,0|2
216,104,14385,5,2
360,104,14857,1,2
216,24,15330,1,2
288,24,15566,1,8
360,24,15802,1,8
360,176,16275,6,0,B|376:248|360:296,1,120,4|8
224,336,17219,1,0
112,224,17692,2,0,B|8:312,1,120,8|0
112,224,18637,2,0,B|87:89,1,120,8|0
112,224,19582,2,0,B|240:270,1,120,8|0
240,112,20527,6,0,B|304:80|376:80,1,120,8|0
440,192,21471,1,8
440,192,21944,2,0,B|464:288,2,90,2|2|2
296,192,23125,1,8
224,192,23361,1,8
104,272,23834,6,0,B|64:224|0:208,1,120,4|8
64,80,24779,1,0
208,48,25251,1,8
64,80,25723,1,0
200,128,26196,1,8
64,80,26668,1,0
152,192,27141,1,8
296,216,27613,6,0,B|368:224|416:280,1,120,0|8
400,120,28558,2,0,B|328:112|280:56,1,120,0|8
189,166,29503,2,0,B|261:174|309:230,1,120,2|2
293,70,30448,2,0,B|221:62|173:6,1,120,2|2
104,80,31393,6,0,B|48:144|32:232,1,167.999995994568,4|0
64,328,32810,1,8
120,240,33282,2,0,B|128:184|160:152,2,83.999997997284,0|8|0
216,272,34700,6,0,B|280:328|384:312,1,167.999995994568,8|8
440,240,36117,1,0
408,144,36590,2,0,B|344:88|240:104,1,167.999995994568,8|8
192,184,38007,2,0,B|144:200,2,41.999998998642,0|8|8
256,264,38952,5,4
346,316,39424,1,8
398,225,39897,1,0
307,173,40369,1,8
192,176,40842,5,4
88,236,41314,1,8
28,132,41786,1,0
132,72,42259,1,8
264,72,42731,5,4
381,140,43204,1,8
313,257,43676,1,0
196,189,44149,1,8
48,192,44621,5,4
310,171,47456,6,0,B|366:185|366:281|366:377|254:377|142:377|142:281|142:179|207:169,1,480,0|4
64,128,49818,5,8
176,32,50290,1,0
320,32,50763,1,8
448,128,51235,1,0
312,176,51707,6,0,B|248:136|184:184,1,120,8|0
256,304,52652,1,8
256,304,53125,6,0,B|256:376,2,60,0|0|8
120,264,54070,2,0,B|80:208|128:144,1,120,0|8
192,160,54778,1,0
192,160,55251,1,0
264,160,55487,2,0,B|304:104|256:40,2,120,8|0|8
264,304,56904,5,4
408,304,57377,2,0,B|480:304,1,60,8|0
408,176,58085,2,0,B|336:176,1,60,0|8
408,48,58794,2,0,B|472:48,2,60,0|0|8
336,48,59503,1,0
192,48,59975,1,0
192,192,60448,1,0
260,172,60684,6,0,B|340:148,1,60,0|2
389,154,61156,2,0,B|469:178,1,60,0|2
448,248,61629,2,0,B|390:230,1,60,0|2
318,230,62101,2,0,B|260:247,1,60,0|2
112,232,62810,1,2
24,344,63282,1,2
168,344,63755,5,0
240,344,63991,1,8
312,344,64227,1,0
312,200,64700,5,0
384,200,64936,1,8
456,200,65172,1,0
256,56,65881,5,8
120,112,66353,2,0,B|80:160|16:184,1,120,0|8
72,320,67298,2,0,B|136:320,1,60,0|0
184,272,67770,2,0,B|248:272,1,60,8|0
296,320,68243,6,0,B|424:320,1,120,4|8
416,176,69188,1,0
272,176,69660,1,8
272,32,70133,6,0,B|192:32,1,60,4|0
212,103,70605,2,0,B|140:103,1,60,0|4
24,32,71314,1,0
24,104,71550,1,0
24,176,71786,1,0
24,248,72022,6,0,B|24:368,1,120,4|8
144,312,72967,2,0,B|144:192,1,120,0|8
256,128,73912,2,0,B|256:264,1,120,4|8
368,184,74857,2,0,B|368:64,1,120,0|8
496,48,75802,5,4
496,192,76274,1,8
496,336,76747,1,0
424,320,76983,1,0
352,336,77219,2,0,B|224:304|104:344,1,240,8|8
40,216,78637,1,0
24,144,78873,1,0
8,72,79109,1,8
152,40,79581,5,4
256,144,80054,1,8
360,40,80526,1,0
256,144,80999,2,0,B|256:280,1,120,8|0
480,192,82416,5,0
336,192,82889,1,0
336,192,83125,1,0
256,192,83833,12,0,87141
