osu file format v9

[General]
AudioFilename: Ookubo Rumi - Te o Gyu Shite ne.mp3
AudioLeadIn: 1000
PreviewTime: 47574
Countdown: 0
SampleSet: Soft
StackLeniency: 0.7
Mode: 0
LetterboxInBreaks: 0

[Editor]
DistanceSpacing: 1.2
BeatDivisor: 4
GridSize: 4

[Metadata]
Title:Te wo Gyu Shite ne (TV Size)
Artist:Rumi Ookubo
Creator:Nymph
Version:Hard
Source:Acchi Kocchi
Tags:ending wcx19911123 place to place Miniwa Tsumiki Otonashi Io Katase Mayoi Inui Sakaki Haruno Hime Houbunsha Manga Time Kirara

[Difficulty]
HPDrainRate:6
CircleSize:4
OverallDifficulty:7
ApproachRate:8
SliderMultiplier:1.6
SliderTickRate:1

[Events]
//Background and Video events
0,0,"OAO.jpg"
Video,0,"Video.avi"
//Break Periods
2,44821,46706
//Storyboard Layer 0 (Background)
//Storyboard Layer 1 (Fail)
//Storyboard Layer 2 (Pass)
//Storyboard Layer 3 (Foreground)
//Storyboard Sound Samples
//Background Colour Transformations
3,100,163,162,255

[TimingPoints]
1157,472.44094488189,4,2,2,40,1,0
1275,-100,4,2,1,30,0,0
8007,-100,4,2,2,40,0,0
8716,-100,4,2,1,30,0,0
14385,-100,4,2,1,45,0,0
14857,-100,4,2,1,35,0,0
16275,-100,4,2,2,40,0,0
16393,-100,4,2,1,40,0,0
23125,-100,4,2,2,40,0,0
23952,-100,4,2,1,40,0,0
31393,-133.333333333333,4,2,2,40,0,0
38952,-100,4,2,2,40,0,0
47456,472.44094488189,4,2,1,40,1,0
49109,-100,4,2,1,50,0,0
49345,-100,4,2,2,50,0,1
49463,-100,4,2,2,50,0,0
49581,-100,4,2,1,50,0,0
56904,-100,4,2,2,50,0,0
57022,-100,4,2,1,50,0,0
64463,-100,4,2,2,50,0,0
64581,-100,4,2,1,50,0,0
68243,-100,4,2,2,50,0,0
68361,-100,4,2,1,50,0,0
70841,-100,4,2,2,50,0,0
70959,-100,4,2,1,50,0,0
72022,-100,4,2,2,50,0,0
72141,-100,4,2,1,50,0,0
73912,-100,4,2,2,50,0,0
74030,-100,4,2,1,50,0,0
75802,-100,4,2,2,50,0,0
75920,-100,4,2,1,50,0,0
77692,-100,4,2,2,50,0,0
77810,-100,4,2,1,50,0,0
79581,-100,4,2,2,50,0,0
79700,-100,4,2,1,50,0,0
81471,-133.333333333333,4,2,1,25,0,0
81707,-133.333333333333,4,2,1,5,0,0
82416,-133.333333333333,4,2,1,20,0,0
82889,-133.333333333333,4,2,1,5,0,0
83007,-133.333333333333,4,2,1,20,0,0
83833,-133.333333333333,4,2,1,10,0,0
87613,-133.333333333333,4,2,1,5,0,0

[Colours]
Combo1 : 166,77,255
Combo2 : 0,128,255
Combo3 : 255,147,255
Combo4 : 128,255,128
SliderBorder : 255,255,255

[HitObjects]
220,88,1157,2,0,B|180:108|172:152,1,80,4|0
104,92,1629,1,8
44,156,1865,2,0,B|44:240,1,80,0|0
120,316,2338,2,0,B|120:232,1,80,0|8
196,192,2810,1,0
312,280,3046,2,0,B|324:337|383:371,2,120,0|0|0
348,200,3991,2,0,B|392:196|424:228,1,80,0|0
480,288,4463,2,0,B|492:328|472:368,2,80,8|0|0
500,204,5172,6,0,B|488:164|508:124,2,80,0|8|0
416,232,5881,2,0,B|380:260|336:256,1,80,0|0
316,172,6353,2,0,B|277:168|241:196,1,80,8|0
116,208,6826,2,0,B|56:236|-4:212,2,120,0|0|0
80,348,7771,1,0
152,296,8007,1,8
152,296,8243,1,8
348,344,8716,6,0,B|392:352|424:324,1,80,0|0
412,236,9188,2,0,B|454:220|467:180,1,80,8|0
412,112,9660,2,0,B|440:77|432:36,2,80,0|0|8
344,56,10369,1,0
260,88,10605,2,0,B|184:56|104:88,1,160,0|8
28,280,11314,2,0,B|104:312|184:280,1,160,0|0
208,196,12023,1,8
268,260,12259,1,0
244,344,12495,1,0
408,344,12731,6,0,B|488:344,2,80,0|8|0
484,240,13440,2,0,B|484:160,2,80,0|0|8
400,208,14149,1,0
400,120,14385,5,2
124,32,14857,1,2
48,312,15330,1,2
124,264,15566,1,0
124,264,15802,1,4
336,332,16275,6,0,B|416:332,1,80,4|0
388,248,16747,2,0,B|468:248,1,80,8|0
428,136,17219,2,0,B|348:136,1,80,2|0
376,52,17691,2,0,B|296:52,1,80,8|0
164,88,18164,2,0,B|108:108|44:88,2,120,2|0|0
252,97,19109,1,2
271,184,19346,1,0
194,229,19582,1,8
127,169,19818,1,0
40,320,20054,6,0,B|80:336|120:320,1,80,2|0
216,352,20527,2,0,B|256:336|296:352,1,80,8|0
393,320,20999,2,0,B|432:336|472:320,2,80,2|0|8
436,244,21708,1,0
492,176,21944,2,0,B|436:152|376:176,2,120,2|0|0
460,32,22889,1,2
392,88,23125,1,8
392,88,23361,1,8
56,48,23834,6,0,B|44:88|56:128,1,80,4|0
148,212,24306,2,0,B|160:172|148:132,1,80,8|0
56,212,24779,2,0,B|44:252|56:292,1,80,2|0
148,376,25251,2,0,B|160:336|148:296,1,80,8|0
324,352,25723,2,0,B|380:332|444:352,2,120,2|0|0
236,343,26668,1,2
217,256,26905,1,0
294,211,27141,1,8
361,271,27377,1,0
480,168,27613,6,0,B|496:128|480:88,1,80,2|0
420,24,28086,2,0,B|381:8|341:24,1,80,8|0
280,88,28558,2,0,B|264:126|280:166,2,80,2|0|8
360,128,29267,1,0
360,216,29503,5,2
104,344,29975,1,8
32,64,30448,1,2
108,24,30684,1,0
196,24,30920,1,2
436,120,31393,6,0,B|456:180|436:240,1,119.999996423721,4|8
416,308,32101,2,0,B|356:328|296:308,1,119.999996423721,0|0
256,248,32810,1,8
213,308,33046,2,0,B|156:328|96:308,1,119.999996423721,0|0
32,200,33755,2,0,B|89:180|149:200,1,119.999996423721,8|0
224,200,34464,1,0
224,200,34700,1,8
316,124,34936,6,0,B|373:104|433:124,1,119.999996423721,0|0
464,192,35645,1,8
433,259,35881,2,0,B|373:280|316:260,1,119.999996423721,0|0
256,220,36590,1,8
244,340,36826,2,0,B|183:360|126:340,1,119.999996423721,0|0
60,312,37534,1,8
20,252,37771,1,0
72,136,38007,2,0,B|72:68,2,59.9999982118607,0|0|8
256,36,38952,6,0,B|244:76|256:116,1,80,4|0
256,204,39424,1,8
256,204,39660,1,0
364,76,39897,2,0,B|376:116|364:156,1,80,2|0
364,244,40369,1,8
364,244,40605,1,0
472,116,40842,6,0,B|460:156|472:196,1,80,4|0
472,284,41314,1,8
472,284,41550,1,0
296,336,41786,2,0,B|256:352|216:336,1,80,2|0
132,316,42259,2,0,B|92:300|52:316,1,80,8|0
35,173,42731,6,0,B|12:181|-4:162|-11:139|5:123,1,80,4|0
138,48,43204,2,0,B|130:25|149:9|172:2|187:18,1,80,8|0
263,151,43676,2,0,B|286:143|302:162|309:185|292:200,1,80,2|0
160,276,44149,2,0,B|168:299|149:315|126:322|110:305,1,80,8|0
149,162,44621,1,4
256,192,47456,12,4,48873
276,136,49109,37,0
180,136,49345,2,0,B|88:136,1,80,4|0
44,68,49818,1,8
8,208,50054,2,0,B|64:268|64:356,1,160,2|0
136,304,50763,1,8
212,348,50999,2,0,B|292:376|368:348,1,160,2|0
432,288,51707,1,8
500,168,51944,2,0,B|419:139|343:167,1,160,2|0
268,212,52652,1,8
248,296,52889,1,0
80,336,53125,6,0,B|40:316|32:272,2,80,2|0|8
112,256,53833,1,2
191,232,54070,2,0,B|184:192|144:172,1,80,2|0
60,148,54542,1,8
128,92,54778,2,0,B|135:51|175:31,1,80,2|2
256,68,55251,1,0
337,31,55487,2,0,B|377:51|384:92,1,80,8|2
404,176,55959,1,2
480,224,56196,2,0,B|480:308,2,80,2|8|2
480,80,56904,5,4
416,20,57141,1,2
416,20,57259,1,0
416,20,57377,1,8
336,56,57613,2,0,B|256:80|176:56,1,160,2|0
64,144,58322,5,8
144,180,58558,2,0,B|224:204|304:180,1,160,2|0
448,268,59267,1,8
368,304,59503,2,0,B|288:328|208:304,1,160,2|0
152,240,60211,2,0,B|120:268|120:312,1,80,8|0
35,212,60684,5,2
48,67,60920,1,2
167,150,61156,1,8
8,136,61393,1,2
167,150,61629,5,2
240,277,61865,1,2
367,203,62101,1,8
294,76,62337,1,2
164,12,62574,6,0,B|120:24|104:64,1,80,2|0
39,152,63046,2,0,B|24:192|39:232,1,80,8|0
104,322,63518,2,0,B|120:360|164:372,2,80,2|0|8
185,286,64227,1,0
220,152,64463,5,4
252,232,64700,1,2
252,232,64818,1,0
252,232,64936,1,8
280,316,65172,2,0,B|360:340|440:316,1,160,2|0
512,212,65881,5,8
380,28,66353,1,2
156,28,66826,1,8
60,236,67298,2,0,B|56:276|80:312,1,80,2|2
160,348,67770,1,8
236,304,68007,1,0
292,236,68243,6,0,B|372:236,1,80,4|0
340,316,68715,2,0,B|420:316,1,80,8|0
504,220,69188,2,0,B|504:140,1,80,2|0
424,60,69660,2,0,B|424:140,1,80,8|0
360,272,70133,1,2
360,272,70369,1,2
300,336,70605,1,8
300,336,70841,2,0,B|224:360|140:336,1,160,4|0
24,280,71550,1,8
24,192,71786,1,0
24,104,72022,5,4
192,12,72495,1,8
256,192,72967,1,2
320,12,73440,1,8
444,156,73912,1,4
256,192,74385,1,8
408,312,74857,2,0,B|340:364|256:352,1,160,2|8
168,352,75566,1,0
168,352,75802,6,0,B|88:319|57:240,1,160,4|8
136,84,76747,2,0,B|112:48|72:40,2,80,2|2|8
376,84,77692,2,0,B|400:48|440:40,1,80,4|0
472,120,78164,2,0,B|448:156|408:164,1,80,8|0
472,224,78637,1,2
472,224,78873,1,2
472,224,79109,1,8
332,328,79581,6,0,B|256:356|176:328,1,160,4|8
176,152,80526,2,0,B|256:123|332:151,1,160,2|8
460,260,81471,6,0,B|464:284|452:304|436:304|428:292,1,59.9999982118607,2|0
332,312,82416,2,0,B|280:340|216:340,1,119.999996423721,2|0
144,340,83125,1,2
256,192,83833,12,0,87613
