osu file format v9

[General]
AudioFilename: Here in the Moment.mp3
AudioLeadIn: 2000
PreviewTime: 63346
Countdown: 0
SampleSet: Soft
StackLeniency: 0.4
Mode: 0
LetterboxInBreaks: 0

[Editor]
Bookmarks: 13766,15330,63330
DistanceSpacing: 1
BeatDivisor: 4
GridSize: 8

[Metadata]
Title:Here in the Moment
Artist:Ruby Tuesday
Creator:MoonFragrance
Version:Normal
Source:DJMAX
Tags:Portable Clazziquai Edition TECHNIKA Kkuem LEAH Hwain Jin Bossanova

[Difficulty]
HPDrainRate:3
CircleSize:4
OverallDifficulty:3
ApproachRate:5
SliderMultiplier:1.4
SliderTickRate:1

[Events]
//Background and Video events
0,0,"800px-Here_in_the_Moment_TechnikaEyecatch2.jpg"
Video,-3920,"[video]here in the moment.flv"
//Break Periods
//Storyboard Layer 0 (Background)
//Storyboard Layer 1 (Fail)
//Storyboard Layer 2 (Pass)
//Storyboard Layer 3 (Foreground)
//Storyboard Sound Samples
//Background Colour Transformations
3,100,163,162,255

[TimingPoints]
738,521.739130434783,4,2,1,45,1,0
13129,-100,4,1,1,60,0,0
15216,-100,4,2,1,80,0,0
28651,-100,4,1,1,80,0,0
29824,-100,4,2,1,80,0,0
45998,-100,4,1,1,80,0,0
46390,-100,4,2,1,80,0,0
63346,-100,4,2,1,90,0,1
80041,-100,4,2,1,90,0,0
80042,-100,4,2,1,90,0,1
90476,-100,4,2,1,90,0,0
90477,-100,4,2,1,90,0,1
90478,-100,4,2,1,90,0,0
90998,-100,4,1,1,5,0,0

[Colours]
Combo1 : 255,184,64
Combo2 : 255,255,128
Combo3 : 255,128,64
Combo4 : 255,128,128

[HitObjects]
144,104,738,2,0,B|64:192|144:296,1,210,2|0
200,336,1781,1,0
208,264,2042,2,0,B|216:192,1,70,0|2
368,104,2824,6,0,B|448:192|368:296,1,210,2|0
312,336,3867,1,0
304,264,4128,2,0,B|296:192,1,70,0|2
256,64,4911,5,2
176,336,5955,1,0
320,336,6477,1,2
384,216,6998,6,0,B|432:156|384:88,1,140,2|8
320,120,7781,1,0
192,120,8303,1,0
128,87,8564,2,0,B|80:156|128:216,1,140,8|2
256,280,9607,5,8
384,216,10129,1,2
256,152,10651,1,8
128,216,11172,1,4
152,80,11694,6,0,B|216:56,1,70,8|0
360,80,12477,2,0,B|296:56,1,70,0|8
192,144,13259,2,8,B|160:224|256:304|352:224|320:144,1,280,8|12
256,24,14824,1,12
136,96,15346,6,0,B|96:160|128:232,4,140,4|8|0|8|0
204,72,17694,1,2
256,124,17955,2,0,B|256:268,1,140,8|2
308,312,18738,1,0
376,288,18998,2,0,B|416:224|384:152,2,140,8|2|8
256,216,20564,2,0,B|216:280|248:352,2,140,2|8|2
384,64,22651,5,2
384,64,22911,1,2
384,64,23172,2,0,B|424:136|384:200,1,140,8|2
128,64,24738,5,2
128,64,24998,1,2
128,64,25259,2,0,B|88:136|128:200,1,140,8|4
192,320,26303,5,8
256,192,26824,1,0
320,320,27346,1,8
385,197,27868,2,0,B|424:136|384:64,1,140,0|8
256,128,28911,1,12
127,64,29433,2,0,B|88:136|126:197,1,140,12|4
256,328,30998,5,2
392,192,32042,1,0
256,56,33085,1,2
120,192,34129,6,0,B|72:256|120:320,1,140,4|8
192,328,34911,1,0
256,296,35172,2,0,B|256:136,1,140,0|8
312,112,35955,1,0
383,127,36216,2,0,B|431:191|383:255,2,140,0|8|0
256,192,37781,1,8
128,256,38303,6,0,B|79:191|128:127,2,140,0|8|0
192,288,39607,1,2
256,256,39868,1,8
384,256,40390,6,0,B|432:191|383:127,2,140,0|8|0
320,288,41694,1,2
256,256,41955,1,8
184,136,42477,6,0,B|144:104|144:48|184:16,1,140,0|8
327,15,43520,2,0,B|368:48|368:104|328:136,1,140,0|8
184,216,44564,5,0
160,280,44824,1,2
184,344,45085,1,8
328,344,45607,1,0
352,280,45867,1,2
328,216,46129,1,12
256,96,46651,6,0,B|196:48|128:96,3,140,4|8|0|8
64,224,48738,2,0,B|132:272|192:224,1,140,2|8
256,96,49781,6,0,B|316:47|384:96,1,140,2|8
448,224,50824,2,0,B|379:272|319:224,3,140,2|8|2|8
256,96,52911,6,0,B|256:24,2,70,0|2|8
192,224,53955,1,0
256,256,54216,1,2
320,224,54477,1,8
256,96,54998,5,6
112,96,55520,1,8
52,132,55781,1,0
112,168,56042,2,0,B|112:312,1,140,0|8
256,308,57085,1,2
400,308,57607,1,8
460,272,57868,1,0
400,236,58129,2,0,B|400:92,1,140,2|8
256,192,59172,12,2,61259
208,120,62824,5,0
208,192,63085,1,2
208,264,63346,2,0,B|208:352|120:352,3,140,4|8|0|8
56,328,65172,1,2
24,264,65433,2,0,B|24:120,3,140,2|8|0|8
96,120,67259,1,2
144,64,67520,6,0,B|172:16|228:16|256:64,1,140,2|8
256,136,68303,1,0
256,208,68564,2,0,B|256:352,2,140,0|8|0
256,64,70129,5,8
192,184,70651,1,0
256,208,70911,1,2
320,184,71172,2,0,B|348:136|404:136|432:184,1,140,8|4
384,320,72216,5,8
256,264,72738,1,0
256,192,72998,1,2
256,120,73259,1,8
128,64,73781,5,0
72,192,74303,2,0,B|100:240|156:240|184:192,1,140,8|0
220,132,75085,1,2
292,132,75346,1,8
327,192,75607,1,2
327,192,75868,6,0,B|355:240|411:240|440:192,2,140,0|8|0
292,56,77433,1,8
221,56,77694,1,2
152,56,77955,2,0,B|103:84|103:140|152:168,1,140,0|8
240,280,78998,2,0,B|288:251|288:195|240:167,1,140,0|8
104,168,80042,5,4
64,224,80303,1,2
104,280,80564,1,8
232,224,81085,2,0,B|400:224,1,140,2|8
428,96,82129,5,0
372,56,82390,1,2
316,96,82651,1,8
316,235,83172,2,0,B|288:276|224:276|195:236,1,140,2|8
196,96,84216,5,4
140,56,84477,1,2
84,96,84738,1,8
84,236,85259,2,0,B|112:276|176:276|204:236,1,140,2|8
256,112,86303,6,0,B|256:40,2,70,0|2|8
256,256,87346,2,0,B|256:328,2,70,0|2|8
140,180,88390,6,0,B|92:116|148:20|220:36,1,210,4|8
291,35,89433,2,0,B|364:20|420:116|372:180,1,210,4|8
372,179,90477,1,6
256,192,92564,12,0,98824
