osu file format v9

[General]
AudioFilename: Here in the Moment.mp3
AudioLeadIn: 2000
PreviewTime: 63346
Countdown: 0
SampleSet: Soft
StackLeniency: 0.4
Mode: 0
LetterboxInBreaks: 0

[Editor]
Bookmarks: 13766,15330,63330
DistanceSpacing: 1
BeatDivisor: 6
GridSize: 8

[Metadata]
Title:Here in the Moment
Artist:Ruby Tuesday
Creator:MoonFragrance
Version:Maximum
Source:DJMAX
Tags:Portable Clazziquai Edition TECHNIKA Kkuem LEAH Hwain Jin Bossanova

[Difficulty]
HPDrainRate:8
CircleSize:4
OverallDifficulty:7
ApproachRate:7
SliderMultiplier:2.2
SliderTickRate:1

[Events]
//Background and Video events
0,0,"800px-Here_in_the_Moment_TechnikaEyecatch2.jpg"
Video,-3920,"[video]here in the moment.flv"
//Break Periods
//Storyboard Layer 0 (Background)
//Storyboard Layer 1 (Fail)
//Storyboard Layer 2 (Pass)
//Storyboard Layer 3 (Foreground)
//Storyboard Sound Samples
//Background Colour Transformations
3,100,163,162,255

[TimingPoints]
738,521.739130434783,4,2,1,45,1,0
13129,-100,4,1,1,60,0,0
15216,-100,4,2,1,80,0,0
29042,-100,4,1,1,80,0,0
29824,-133.333333333333,4,2,1,80,0,0
30868,-133.333333333333,4,2,1,5,0,0
30998,-133.333333333333,4,2,1,80,0,0
31911,-133.333333333333,4,2,1,5,0,0
32042,-133.333333333333,4,2,1,80,0,0
32955,-133.333333333333,4,2,1,5,0,0
33085,-133.333333333333,4,2,1,80,0,0
33998,-133.333333333333,4,2,1,5,0,0
34129,-100,4,2,1,80,0,0
45738,-100,4,1,1,80,0,0
45868,-100,4,2,1,80,0,0
46129,-100,4,1,1,80,0,0
46259,-100,4,2,1,80,0,0
46520,-100,4,2,1,80,0,0
62042,-100,4,2,2,80,0,0
63346,-100,4,2,1,90,0,1
80041,-100,4,2,1,90,0,0
80042,-100,4,2,1,90,0,1
90476,-100,4,2,1,90,0,0
90477,-100,4,2,1,90,0,1
90478,-100,4,2,1,90,0,0
90738,-133.333333333333,4,2,1,20,0,0
94390,-100,4,1,1,5,0,0

[Colours]
Combo1 : 255,184,64
Combo2 : 255,255,128
Combo3 : 255,128,64
Combo4 : 255,128,128

[HitObjects]
144,136,738,2,0,B|168:0|344:0|368:136,1,330,2|0
256,152,1781,1,0
256,152,1911,1,0
256,152,2042,2,0,B|256:264,2,110,2|0|2
336,72,2824,6,0,B|448:120|448:280|336:344,1,330,2|0
292,240,3868,2,0,B|324:192,2,55
220,240,4259,2,0,B|188:192,2,55,0|0|2
169,340,4911,6,0,B|64:280|64:120|176:72,1,330,2|0
280,112,5955,2,0,B|348:152|348:248|280:296,1,220,0|2
64,248,6998,5,2
64,136,7259,1,0
64,136,7390,1,0
64,136,7520,2,0,B|64:72|128:56,2,110,8|0|0
160,192,8303,1,2
64,248,8564,2,0,B|64:312|136:320,2,110,8|0|0
160,192,9346,5,0
160,192,9477,1,0
160,192,9607,1,8
256,144,9868,1,0
352,192,10129,1,2
256,248,10390,2,0,B|256:360,2,110,0|8|0
160,192,11172,5,4
200,88,11433,1,0
200,88,11564,1,0
200,88,11694,1,8
312,88,11955,1,0
352,192,12216,1,0
256,248,12477,2,0,B|256:360,2,110,0|8|0
160,192,13259,6,8,B|120:120,2,73.3333333333333
352,192,13781,2,8,B|392:120,2,73.3333333333333
328,320,14303,6,0,B|292:364|216:364|184:320,1,165,12|4
184,320,14824,1,12
184,320,15085,1,8
104,240,15346,6,0,B|40:152,2,110,4|2|8
168,80,16129,1,0
168,80,16259,2,0,B|200:185,2,110,2|0|2
168,80,16912,1,8
344,80,17172,2,0,B|312:185,1,110,2|0
256,280,17694,6,0,B|256:316,3,36.6666666666667,2|0|0|8
200,184,18216,1,2
200,184,18346,1,0
312,184,18607,1,0
312,184,18738,2,0,B|368:184|408:232,2,110,2|8|2
200,184,19520,6,0,B|144:184|104:136,2,110,0|2|8
256,88,20303,1,0
256,88,20433,2,0,B|312:88|352:136,2,110,2|0|2
256,88,21085,1,8
152,120,21346,1,8
128,168,21477,1,8
128,216,21607,5,0
240,320,21868,1,2
240,320,21998,2,8,B|296:288|296:224,2,110,0|0|2
271,64,22781,2,0,B|216:96|216:152,1,110
216,152,23172,1,8
216,152,23433,1,2
168,312,23694,6,0,B|104:296|96:224,1,110,0|2
112,184,24085,2,0,B|112:64,1,110,0|2
400,200,24607,2,0,B|400:320,1,110,2|2
256,240,25129,1,2
256,240,25259,2,8,B|256:104,1,110
184,48,25781,5,4
152,152,26042,1,2
152,152,26172,1,0
152,152,26303,2,0,B|152:264,1,110,8|0
152,262,26694,1,0
256,296,26955,1,0
256,296,27085,2,0,B|256:184,1,110,2|8
360,152,27607,2,0,B|360:264,1,110,0|0
336,368,28129,5,0
336,368,28259,1,0
336,368,28390,1,8
256,296,28651,1,0
176,368,28911,2,0,B|128:344,1,55,0|12
168,240,29303,1,8
168,240,29433,2,0,B|140:188|168:136,1,110,12|4
256,40,29955,5,4
416,40,30346,2,0,B|484:80|484:168|416:208,1,206.249993853271,2|0
96,40,31390,2,0,B|28:80|28:168|96:208,1,206.249993853271,2|0
320,95,32433,2,0,B|388:135|388:223|320:264,1,206.249993853271,2|0
191,95,33477,2,0,B|123:135|123:223|192:264,1,206.249993853271,2|4
256,176,34390,5,0
256,176,34520,1,2
256,176,34651,2,0,B|256:56,1,110,8|0
152,88,35172,1,2
152,88,35303,2,0,B|112:144|48:136,1,110,0|2
58,136,35694,1,8
58,247,35955,2,0,B|112:240|152:296,1,110,0|2
256,336,36477,5,0
256,336,36607,1,2
256,336,36738,2,0,B|256:216,1,110,8|0
328,144,37259,1,0
328,144,37390,2,0,B|256:72|184:144,2,165,2|8|2
328,144,38303,5,0
328,256,38564,1,2
304,300,38694,1,2
256,312,38824,2,0,B|136:312,1,110,8|0
146,312,39216,1,0
72,248,39477,1,0
72,248,39607,2,0,B|32:208|32:144,1,110,2|8
88,28,40129,2,0,B|128:68|128:128,1,110,2|0
160,232,40651,5,2
184,276,40781,1,2
232,288,40911,2,0,B|352:288,1,110,8|0
342,288,41303,1,0
384,184,41564,1,0
384,184,41694,2,0,B|274:184,2,110,2|8|2
256,72,42477,5,0
144,72,42738,1,2
100,96,42868,1,0
88,144,42998,2,0,B|88:264,1,110,8|2
88,254,43390,1,0
184,304,43651,1,0
184,304,43781,2,0,B|184:184,1,110,2|8
184,194,44172,1,2
280,144,44433,5,0
280,144,44564,2,0,B|328:192|376:192,2,110,0|2|8
184,88,45346,1,2
72,88,45607,5,8
72,88,45738,1,12
32,192,45998,1,8
32,192,46129,1,12
72,296,46390,1,8
184,296,46651,6,0,B|260:352|336:296,1,165,4|0
336,296,47172,1,8
296,192,47433,1,0
256,88,47694,2,0,B|333:32|409:88,1,165,2|0
409,88,48216,1,8
448,192,48477,1,0
488,296,48738,6,0,B|412:352|336:296,1,165,2|0
336,296,49259,1,8
296,192,49520,1,0
256,88,49781,2,0,B|179:32|103:88,1,165,2|0
103,88,50303,1,8
72,192,50564,1,2
104,296,50824,6,0,B|136:352|208:352,1,110,0|0
248,143,51346,2,0,B|216:192|224:248,1,110,8|0
304,320,51868,2,0,B|336:271|328:215,1,110,0|0
160,112,52390,2,0,B|128:161|136:217,2,110,8|0|0
256,56,53172,5,2
256,56,53303,1,0
256,56,53433,1,8
360,96,53694,1,2
360,96,53824,1,0
360,96,53955,1,0
256,136,54216,2,0,B|256:172,3,36.6666666666667,2|0|0|8
152,160,54738,1,0
48,184,54998,6,0,B|24:272|72:344,1,165,4|0
70,342,55520,1,8
176,304,55781,1,0
176,304,56042,2,0,B|256:272|336:304,1,165
336,304,56564,1,8
440,336,56824,1,0
440,336,57085,6,0,B|487:266|463:178,1,165,2|0
463,178,57607,1,8
360,144,57868,1,0
360,144,58129,2,0,B|376:232|336:304,1,165,2|0
336,304,58651,1,8
256,232,58911,1,0
256,232,59172,1,2
256,192,59433,12,2,61259
188,288,62824,5,8
188,288,62955,1,8
324,288,63216,1,8
324,288,63346,1,4
288,160,63607,6,0,B|288:32,1,110,0|8
224,50,63998,2,0,B|224:160,1,110,2|0
204,224,64390,2,0,B|256:240|256:240|308:224,1,110,0|0
309,223,64781,1,2
309,223,64911,1,8
408,136,65172,1,2
304,48,65433,5,2
304,48,65564,1,0
304,48,65694,2,0,B|256:76|256:76|208:48,1,110,2|8
177,107,66085,2,0,B|222:132|222:132|222:201,1,110,2|0
289,191,66477,2,0,B|289:132|289:132|334:107,1,110,2|0
334,107,66868,1,0
334,107,66998,1,8
424,200,67259,1,2
384,328,67520,5,2
384,328,67651,1,0
384,328,67781,2,0,B|328:328|328:328|288:284,1,110,2|8
292,220,68172,2,0,B|292:212|292:212|292:196|256:176|220:196|220:208|220:208|220:220,1,110,2|0
220,288,68564,2,0,B|184:328|184:328|128:328,1,110,2|0
128,328,68955,1,0
128,328,69085,1,8
16,264,69346,1,0
16,128,69607,5,0
128,56,69868,2,0,B|184:56|184:56|220:96,1,110,2|8
291,96,70259,2,0,B|327:56|327:56|384:56,2,110,2|2|2
264,160,70911,1,0
264,160,71042,1,2
264,160,71172,2,0,B|264:280,1,110,8|8
144,336,71694,5,4
144,336,71824,1,0
144,336,71955,2,0,B|112:284|144:232,1,110,2|8
368,232,72477,2,0,B|400:284|368:336,1,110,2|0
256,264,72998,1,0
256,264,73129,1,0
256,264,73259,2,0,B|256:144,1,110,8|0
204,32,73781,6,0,B|149:33|109:80,1,110,0|2
317,97,74303,2,0,B|373:97|412:49,1,110,8|2
184,136,74824,1,0
184,136,74955,1,0
184,136,75085,2,0,B|152:192|184:240,1,110,0|8
312,280,75607,5,2
312,280,75738,1,2
312,280,75868,2,0,B|392:248|392:144|312:112,2,220,0|8|0
200,192,77172,1,2
200,192,77303,1,0
200,192,77433,2,0,B|90:192,2,110,8|2|0
256,312,78216,5,0
392,312,78477,2,0,B|448:280|448:224,1,110,8|0
320,112,78998,2,0,B|320:222,1,110,2|0
200,272,79520,2,0,B|200:162,1,110,8|8
88,40,80042,5,4
256,24,80303,1,2
424,40,80564,2,0,B|456:88|424:144,1,110,8|0
424,144,80955,1,2
256,128,81216,1,2
88,144,81477,1,2
87,144,81608,2,0,B|55:199|87:247,1,110,8|0
216,352,82129,5,0
256,192,82390,1,2
296,352,82651,2,0,B|328:312|320:248,1,110,8|2
320,248,83042,1,0
256,96,83303,1,2
192,248,83564,1,2
192,247,83695,2,0,B|184:312|216:352,1,110,8|8
216,352,84085,1,8
216,352,84216,1,4
256,192,84477,5,0
256,192,84607,1,2
256,192,84738,1,8
256,192,84868,2,0,B|256:72,2,110,0|2|2
296,352,85651,1,2
296,352,85781,1,8
352,232,86042,5,2
360,228,86129,1,0
368,224,86216,1,0
376,220,86303,2,0,B|504:160,2,110,0|2|8
256,144,87085,1,2
160,232,87346,5,2
152,228,87433,1,0
144,224,87520,1,0
136,220,87607,2,0,B|8:160,2,110,2|8|8
216,320,88390,6,0,B|200:360|160:360,2,55,4|2|0
224,256,88781,2,0,B|224:128,1,110
224,146,89172,1,8
296,320,89433,6,0,B|312:360|352:360,2,55,4|2|0
288,256,89824,2,0,B|288:128,1,110,0|8
288,146,90215,1,8
256,40,90477,5,4
256,192,90738,12,4,92564
222,192,93607,6,0,B|182:176,2,41.2499987706542,0|0|2
290,192,93998,2,0,B|330:176,2,41.2499987706542,0|0|2
256,192,94390,12,0,98824
