osu file format v5

[General]
AudioFilename: Ruby Tuesday - Good Bye (Extended Version).mp3
AudioLeadIn: 0
PreviewTime: -1
Countdown: 0
SampleSet: Normal
StackLeniency: 0.7
Mode: 0
LetterboxInBreaks: 1
SkinPreference:Default

[Editor]
DistanceSpacing: 1
BeatDivisor: 4
GridSize: 32

[Metadata]
Title:Good Bye (Extended Version)
Artist:Ruby Tuesday
Creator:orioncomet
Version:Hard
Source:DJMAX Portable 2 Extended Disk
Tags:djmax

[Difficulty]
HPDrainRate:6
CircleSize:5
OverallDifficulty:8
SliderMultiplier:1.3
SliderTickRate:2

[Events]
//Background and Video events
0,0,"DJMAX_WALL_079.jpg"
//Break Periods
2,92572,107064
2,152131,158240
//Storyboard Layer 0 (Background)
//Storyboard Layer 1 (Fail)
//Storyboard Layer 2 (Pass)
//Storyboard Layer 3 (Foreground)
//Storyboard Sound Samples
//Background Colour Transformations
3,100,255,0,0

[TimingPoints]
7235,441.176470588235,4,1,0,50,1,0
63705,-100,4,1,0,50,0,1
77712,-100,4,1,0,50,0,0
77823,-100,4,1,0,50,0,1
93365,-100,4,1,0,50,0,0
123705,-100,4,1,0,50,0,1
137712,-100,4,1,0,50,0,0
137823,-100,4,1,0,50,0,1
152593,-100,4,1,0,50,0,0
180617,-100,4,2,0,100,0,0
185801,-100,4,2,0,100,0,0

[Colours]
Combo1 : 69,200,250
Combo2 : 255,255,255
Combo3 : 255,143,32
Combo4 : 0,187,0
Combo5 : 182,108,255

[HitObjects]
32,64,7234,1,0
96,64,7455,1,0
160,64,7676,2,0,C|224:64,1,32.5
160,64,8007,2,0,C|160:128,1,32.5
160,192,8448,1,0
256,192,8779,1,0
448,32,9220,5,0
352,32,9551,1,0
352,96,9771,2,0,C|352:160,1,32.5
352,224,10212,1,0
448,288,10543,1,0
320,288,10985,5,0
256,224,11315,1,0
256,160,11536,2,0,C|320:160,1,32.5
384,160,11977,1,0
480,160,12308,2,8,C|480:64,1,65
416,96,12749,2,0,C|320:96,1,65
288,96,13190,2,8,C|288:192,1,65
288,224,13632,2,8,C|192:224,1,65
160,192,14073,1,0
128,128,14293,5,4
192,96,14514,1,0
256,96,14735,2,0,C|256:32,1,32.5
256,96,15065,2,0,C|320:96,1,32.5
384,96,15507,1,0
384,192,15837,1,0
256,192,16279,5,0
256,96,16610,1,0
192,96,16830,2,0,C|128:96,1,32.5
64,96,17271,1,0
64,192,17602,1,0
64,320,18043,5,0
128,256,18374,1,0
128,192,18595,2,0,C|128:128,1,32.5
128,64,19036,1,0
224,64,19367,1,0
288,64,19587,5,0
352,64,19808,1,0
416,64,20029,2,0,C|480:64,1,32.5
416,64,20360,2,0,C|416:128,1,32.5
416,192,20801,1,0
320,192,21132,1,0
256,192,21352,1,4
0,320,21793,5,0
128,320,22235,2,0,C|224:320,1,65
192,192,22896,1,0
64,192,23337,1,0
64,64,23779,1,0
192,64,24220,1,0
128,160,24661,5,0
128,32,25102,2,0,C|128:128,3,65
128,160,25984,1,0
128,224,26205,1,0
128,288,26426,1,0
192,288,26646,1,0
256,288,26867,2,0,C|256:128,1,130
192,128,27529,5,8
224,64,27749,1,8
288,64,27970,1,8
320,128,28190,1,8
384,32,28852,5,0
384,160,29293,2,0,C|384:256,1,65
384,96,29955,1,0
256,96,30396,1,0
256,224,30837,1,0
128,224,31279,1,0
256,224,31720,2,0,C|256:64,1,130
192,96,32382,1,0
128,96,32602,1,0
64,96,32823,1,0
32,320,33485,5,4
480,320,34587,6,8,C|384:320,1,65,8|8
352,320,35029,2,8,C|256:320,1,65
256,64,35911,5,0
384,64,36352,1,0
384,64,36573,1,0
256,64,37014,1,0
128,64,37455,1,0
64,192,37896,1,0
128,320,38337,1,0
64,192,38779,1,0
256,192,39220,12,0,40102
192,320,40543,5,0
192,192,40984,1,0
192,192,41205,1,0
192,64,41646,2,0,C|288:64,4,65,0|0|0|0|4
128,192,42970,5,0
128,320,43411,2,0,C|224:320,1,65
320,320,44073,1,0
320,192,44514,2,0,C|160:192,1,130
64,192,45396,1,0
192,192,45837,1,0
320,192,46279,2,4,B|320:96,1,65
384,128,46720,2,0,B|480:128,1,65
448,192,47161,2,0,B|448:288,1,65
448,320,47602,1,0
256,352,48264,5,0
256,224,48705,1,0
256,160,48926,1,0
384,160,49367,2,0,B|480:160,1,65
448,160,49808,2,0,B|448:64,1,65,0|0
448,96,50249,2,0,B|352:96,1,65,0|0
224,128,50911,5,0
288,128,51132,1,2
288,256,51573,2,0,B|192:256,1,65
223,256,52014,2,0,B|224:160,1,65
223,191,52455,2,0,B|320:192,1,65
168,80,52896,5,0
168,80,53117,1,2
288,128,53558,1,0
288,192,53779,1,0
224,192,53999,1,2
160,192,54220,1,2
32,128,54661,1,0
32,64,54882,2,2,C|96:64,2,32.5
32,128,55323,5,0
160,128,55764,1,0
224,160,55984,1,0
352,160,56426,2,0,B|352:256,1,65
352,224,56867,2,0,B|256:224,1,65
288,224,57308,2,0,B|192:224,1,65
96,192,57970,5,0
96,128,58190,1,0
224,128,58632,2,0,C|432:216,1,195
512,128,59734,1,0
480,192,59955,1,0
384,288,60396,1,0
320,288,60617,2,0,B|0:352|512:192|160:256,1,325
96,256,61940,1,0
256,192,62382,12,8,63264
224,192,63705,5,8
224,96,64036,1,0
128,96,64367,2,0,C|128:192,1,65
480,352,65470,5,8
384,352,65801,1,0
384,256,66132,2,0,C|384:160,1,65
128,64,67014,5,0
128,128,67234,1,8
192,128,67455,2,0,C|256:128,1,32.5
320,128,67896,1,0
320,192,68117,1,8
320,256,68337,2,0,C|256:256,1,32.5
320,256,68779,1,0
320,320,68999,1,8
224,288,69330,1,0
320,288,69661,1,0
384,288,69882,1,8
384,288,70102,6,8,C|384:224,5,32.5
384,192,71095,5,0
288,192,71426,2,0,B|192:192,1,65
224,256,71867,2,0,B|224:352,1,65
96,288,72529,5,8
96,192,72859,1,0
160,96,73190,1,0
160,160,73411,1,0
352,96,73852,5,8
352,160,74073,1,8
352,288,74514,2,0,C|256:288,7,65
288,160,76499,1,0
416,160,76940,1,0
416,160,77382,1,0
480,32,77823,5,8
416,96,78154,1,0
352,160,78484,1,0
352,160,78705,1,0
64,352,79587,5,8
128,288,79918,1,0
192,224,80249,1,0
192,224,80470,1,0
32,32,81132,5,0
96,32,81352,1,8
96,96,81573,1,0
96,96,81683,1,0
192,96,82014,1,0
192,160,82234,1,8
192,224,82455,1,0
160,224,82565,1,0
64,224,82896,5,0
64,288,83117,1,8
160,288,83448,1,0
256,288,83779,1,0
256,288,83999,1,8
320,288,84220,6,8,C|320:224,5,32.5
320,192,85212,5,0
224,192,85543,1,0
160,192,85764,1,0
352,352,86646,5,8
256,352,86977,1,0
160,352,87308,1,0
192,320,87529,1,0
192,192,87970,5,8
192,128,88190,1,8
96,192,88632,2,0,C|96:288,1,65
96,192,89073,2,0,C|192:192,1,65
96,192,89514,2,0,C|96:96,1,65
96,192,89955,2,0,C|0:192,1,65
96,192,90617,5,8
224,192,91058,1,0
352,192,91499,5,0
288,192,91720,2,4,C|320:256|352:192|384:256,1,195
160,224,107823,6,8,C|192:256,1,32.5
160,224,108154,2,8,C|128:256,1,32.5,8|8
128,320,108485,2,8,C|192:320,8,32.5,8|8|8|8|8|8|8|8|8
64,320,109587,1,8
320,320,110470,6,8,C|256:320,16,32.5
256,192,112676,5,8
256,64,113117,1,8
384,64,114220,2,10,C|448:64,1,32.5
384,64,114440,2,10,C|384:128,1,32.5
384,64,114882,5,4
32,64,116426,1,0
64,64,116536,1,0
96,64,116646,1,4
448,320,118190,2,0,C|448:256,1,32.5
448,320,118411,6,0,C|384:320,12,32.5
320,288,120176,6,4,B|64:384|320:96|64:96,1,390
352,184,121940,6,4,C|248:144|192:280|80:128,1,455
64,64,123705,5,2
160,64,124036,1,0
256,64,124367,1,0
256,64,124587,1,0
256,352,125470,1,2
256,256,125801,1,0
256,160,126132,1,0
256,160,126352,1,0
64,160,127014,5,0
96,224,127235,1,2
64,288,127455,1,8
96,288,127565,1,8
192,320,127896,1,0
256,320,128117,1,2
320,320,128337,1,8
320,288,128448,1,8
416,320,128779,1,0
480,320,128999,1,0
480,224,129330,1,0
384,224,129661,1,0
320,224,129882,1,0
256,224,130102,6,2,L|288:256,6,32.5
160,224,131095,5,0
64,224,131426,2,0,C|64:160,2,32.5
256,64,132529,1,2
320,128,132860,1,0
384,192,133190,1,0
384,192,133411,1,0
384,320,133852,1,2
384,320,134073,1,2
256,320,134514,6,0,B|160:320,1,65
128,320,134955,2,0,B|128:224,1,65
128,192,135396,2,0,B|224:192,1,65
192,128,135837,2,0,B|96:128,1,65
128,64,136279,2,0,B|32:64,1,65
64,128,136720,2,0,B|64:224,1,65
464,40,137823,5,2
448,128,138154,1,0
352,128,138485,1,0
288,128,138705,1,0
40,136,139587,5,2
136,136,139918,1,0
136,232,140249,1,0
136,296,140470,1,0
328,296,141132,5,0
328,232,141352,1,2
328,168,141573,1,0
328,136,141683,1,8
232,136,142014,1,0
232,200,142235,1,2
232,264,142455,1,0
232,296,142565,1,8
328,296,142896,1,0
392,296,143117,1,2
392,200,143448,1,0
392,104,143779,1,0
392,40,143999,1,2
320,32,144220,6,0,C|256:32,6,32.5
320,96,145102,6,4,C|384:96,2,32.5
320,160,145543,1,0
320,224,145764,1,0
64,224,146646,1,2
160,224,146977,1,0
160,128,147308,1,0
160,128,147529,1,0
288,64,147970,5,2
352,64,148190,1,2
352,192,148632,2,0,C|352:288,1,65
352,192,149073,2,0,C|352:96,1,65
352,192,149514,2,0,C|448:192,1,65
352,192,149955,2,0,C|256:192,1,65
352,192,150396,2,0,C|352:288,1,65,0|4
192,64,151499,1,0
192,64,151720,2,4,C|288:64,1,65
32,192,158999,6,8,C|96:192,1,32.5
128,192,159330,1,0
224,192,159661,1,0
320,192,159992,2,8,C|384:192,1,32.5
416,192,160323,1,0
480,192,160543,1,0
480,128,160764,5,8
384,128,161095,1,0
384,224,161426,1,0
384,320,161757,2,8,C|384:384,1,32.5
320,352,162087,1,0
256,352,162308,1,0
192,352,162529,6,8,C|192:288,1,32.5
192,256,162859,1,0
192,160,163190,1,0
192,64,163521,2,8,C|192:0,1,32.5
128,32,163852,1,0
64,32,164073,1,0
64,96,164293,2,8,C|64:160,6,32.5
128,96,165176,2,8,C|192:96,6,32.5
128,160,166058,5,0
224,128,166389,1,0
320,160,166720,1,0
384,224,167051,2,8,C|320:224,1,32.5
320,288,167382,1,0
256,256,167602,1,0
192,224,167823,6,8,C|192:160,1,32.5
192,128,168154,1,0
117,190,168484,1,0
32,256,168815,2,8,C|32:192,1,32.5
32,160,169146,1,0
32,96,169367,1,0
96,64,169587,5,8
192,128,169918,1,0
192,224,170249,1,0
96,288,170580,2,8,C|96:224,1,32.5
96,192,170911,1,0
160,192,171132,1,0
224,192,171352,6,8,C|288:192,1,32.5
320,192,171683,1,0
416,192,172014,1,0
416,288,172345,2,8,C|416:232,1,32.5
416,192,172676,2,8,C|416:152,2,32.5
416,128,173117,1,0
320,96,173448,1,0
224,96,173779,5,0
128,96,174109,2,8,C|64:96,1,32.5
128,160,174440,1,0
128,224,174661,1,0
192,224,174882,5,8
288,224,175212,1,0
384,224,175543,1,0
384,320,175874,2,8,C|320:320,1,32.5
288,320,176205,1,0
288,256,176426,1,0
224,256,176646,6,8,C|224:192,1,32.5
224,160,176977,1,0
224,64,177308,1,0
128,64,177639,2,8,C|128:128,1,32.5
64,96,177970,1,0
64,160,178190,1,0
256,192,178411,12,4,180176
32,64,180617,6,0,C|144:64,1,97.5,0|0
128,224,181499,2,0,C|128:328,1,97.5
192,128,182382,6,0,C|304:128,1,97.5,0|0
352,64,183264,6,0,C|464:64,1,97.5
352,224,184146,2,0,C|352:336,1,97.5
288,128,185029,6,0,C|184:128,1,97.5,0|0
96,320,185911,6,8,L|32:320,1,32.5,8|8
96,256,186242,2,8,L|160:256,2,32.5
96,192,186683,2,4,L|32:192,1,32.5
