osu file format v12

[General]
AudioFilename: yongqizhihua.mp3
AudioLeadIn: 0
PreviewTime: 31626
Countdown: 0
SampleSet: Soft
StackLeniency: 0.7
Mode: 0
LetterboxInBreaks: 0

[Editor]
Bookmarks: 37640
DistanceSpacing: 1
BeatDivisor: 4
GridSize: 4

[Metadata]
Title:Yong Qi Zhi Hua
TitleUnicode:勇气之花
Artist:Ruan Xiaoqi
ArtistUnicode:阮小七
Creator:Flower
Version:Normal
Source:Star Guardian
Tags:ending Yuan Qi Xing Hun Yu Jianliu Shi Yue Flower of Courage
BeatmapID:224995
BeatmapSetID:73278

[Difficulty]
HPDrainRate:4
CircleSize:4
OverallDifficulty:4
ApproachRate:5
SliderMultiplier:1.6
SliderTickRate:2

[Events]
//Background and Video events
0,0,"bg.jpg",0,0
//Break Periods
2,22226,28026
//Storyboard Layer 0 (Background)
//Storyboard Layer 1 (Fail)
//Storyboard Layer 2 (Pass)
//Storyboard Layer 3 (Foreground)
//Storyboard Sound Samples
//Background Colour Transformations
3,100,163,162,255

[TimingPoints]
2826,600,4,2,1,50,1,0
7026,-100,4,2,1,40,0,0
7326,-100,4,2,1,60,0,0
10026,-100,4,2,1,40,0,0
10326,-100,4,2,1,60,0,0
11826,-100,4,2,1,40,0,0
12126,-100,4,2,1,60,0,0
14226,-100,4,2,1,40,0,0
14526,-100,4,2,1,60,0,0
31626,-100,4,2,2,70,0,0
67626,-100,4,2,2,80,0,0
70026,-100,4,2,2,80,0,1
91626,-100,4,2,2,80,0,0

[Colours]
Combo1 : 0,128,255
Combo2 : 240,0,0
Combo3 : 5,5,226
Combo4 : 238,244,0

[HitObjects]
256,118,2826,2,0,B|180:144|180:144|152:116|108:116,1,160,4|0,0:0|0:0,0:0:0:0:
120,196,3726,1,0,0:0:0:0:
197,216,4026,2,0,P|275:194|356:229,1,160,2|2,0:0|0:0,0:0:0:0:
389,288,4926,1,0,0:0:0:0:
343,353,5226,6,0,P|265:375|184:340,1,160,4|0,0:0|0:0,0:0:0:0:
135,293,6126,2,0,B|134:248|94:220|94:220|101:185|146:156,1,160,2|0,0:0|0:0,0:0:0:0:
167,88,7026,2,0,L|247:68,1,80,8|0,0:0|0:0,0:0:0:0:
265,145,7626,6,0,B|325:125|321:65|321:65|373:93,1,160,4|0,0:0|0:0,0:0:0:0:
428,38,8526,2,0,P|439:132|393:171,1,160,2|0,0:0|0:0,0:0:0:0:
425,244,9426,2,0,L|493:292,2,80,0|2|12,0:0|0:0|0:0,0:0:0:0:
268,272,10626,6,0,P|216:288|108:272,1,160,2|0,0:0|0:0,0:0:0:0:
48,224,11526,1,0,0:0:0:0:
120,192,11826,2,0,P|92:160|48:140,1,80,8|0,0:0|0:0,0:0:0:0:
92,72,12426,6,0,P|156:88|248:76,1,160,4|0,0:0|0:0,0:0:0:0:
352,196,13626,2,0,B|324:164|328:128|328:128|352:92|340:44,1,160,2|8,0:0|0:0,0:0:0:0:
429,178,14826,6,0,P|405:259|325:274,1,160,2|0,0:0|0:0,0:0:0:0:
267,241,15726,1,2,0:0:0:0:
231,169,16026,2,0,P|191:209|219:305,2,160,0|2|4,0:0|0:0|0:0,0:0:0:0:
94,252,17826,6,0,L|27:192,1,80,2|0,0:0|0:0,0:0:0:0:
100,150,18426,2,0,P|91:106|168:31,1,160,2|0,0:0|0:0,0:0:0:0:
307,106,19626,6,0,P|278:135|163:100,1,160,4|2,0:0|0:0,0:0:0:0:
237,71,20526,1,0,0:0:0:0:
302,24,20826,2,0,P|356:38|385:129,1,160,2|0,0:0|0:0,0:0:0:0:
338,196,21726,1,2,0:0:0:0:
258,188,22026,1,4,0:0:0:0:
256,192,29226,12,0,31026,0:0:0:0:
80,180,31626,6,0,L|156:132,1,80,4|0,0:0|0:0,0:0:0:0:
192,204,32226,2,0,B|244:196|244:196|272:220|312:228|360:200,1,160,2|0,0:0|0:0,0:0:0:0:
428,72,33426,2,0,B|376:80|376:80|348:56|308:48|260:76,1,160,2|8,0:0|0:0,0:0:0:0:
320,136,34326,5,0,0:0:0:0:
400,152,34626,2,0,P|424:200|396:308,1,160,10|8,0:0|0:0,0:0:0:0:
256,240,35826,2,0,P|220:220|200:180,1,80,2|0,0:0|0:0,0:0:0:0:
260,128,36426,6,0,P|212:108|120:160,1,160,2|0,0:0|0:0,0:0:0:0:
136,236,37326,1,0,0:0:0:0:
60,212,37626,2,0,B|24:180|36:140|36:140|68:112|72:72,1,160,8|2,0:0|0:0,0:0:0:0:
224,28,38826,6,0,P|320:27|376:64,1,160,8|2,0:0|0:0,0:0:0:0:
276,188,40026,1,8,0:0:0:0:
220,132,40326,2,0,P|176:131|132:152,2,80,2|0|0,0:0|0:0|0:0,0:0:0:0:
196,208,41226,6,0,B|192:248|156:272|156:272|164:304|216:332,1,160,12|2,0:0|0:0,0:0:0:0:
268,272,42126,1,0,0:0:0:0:
320,332,42426,2,0,B|368:324|368:324|428:348|472:308,1,160,2|8,0:0|0:0,0:0:0:0:
412,256,43326,1,0,0:0:0:0:
344,212,43626,6,0,B|308:192|308:152|308:152|360:144|380:100,1,160,2|2,0:0|0:0,0:0:0:0:
304,68,44526,1,0,0:0:0:0:
232,104,44826,2,0,B|176:80|136:116|136:116|80:100,2,160,8|2|8,0:0|0:0|0:0,0:0:0:0:
192,172,46326,5,0,0:0:0:0:
272,184,46626,2,0,P|248:228|140:228,2,160,2|8|2,0:0|0:0|0:0,0:0:0:0:
256,24,48426,2,0,P|316:48|352:140,1,160,8|2,0:0|0:0,0:0:0:0:
296,188,49326,1,0,0:0:0:0:
264,116,49626,6,0,P|224:152|248:252,1,160,4|2,0:0|0:0,0:0:0:0:
320,268,50526,1,0,0:0:0:0:
376,212,50826,2,0,L|456:212,2,80,8|0|2,0:0|0:0|0:0,0:0:0:0:
416,140,51726,2,0,L|468:72,2,80,0|8|0,0:0|0:0|0:0,0:0:0:0:
364,80,52626,6,0,P|332:52|216:52,1,160,2|8,0:0|0:0,0:0:0:0:
168,112,53526,2,0,L|84:112,2,80,0|2|0,0:0|0:0|0:0,0:0:0:0:
240,148,54426,2,0,P|272:196|232:292,1,160,4|2,0:0|0:0,0:0:0:0:
197,218,55326,1,0,0:0:0:0:
124,184,55626,6,0,B|80:188|48:164|48:164|56:120|16:88,2,160,8|2|8,0:0|0:0|0:0,0:0:0:0:
220,56,57426,2,0,L|300:100,1,80,2|0,0:0|0:0,0:0:0:0:
349,40,58026,2,0,P|357:136|313:172,1,160,8|2,0:0|0:0,0:0:0:0:
233,172,58926,1,0,0:0:0:0:
272,241,59226,6,0,B|300:285|344:281|344:281|372:257|416:257,2,160,4|2|8,0:0|0:0|0:0,0:0:0:0:
191,244,60726,1,0,0:0:0:0:
147,177,61026,2,0,P|115:217|111:249,2,80,2|0|8,0:0|0:0|0:0,0:0:0:0:
297,231,62226,6,0,B|273:191|241:179|241:179|277:151|285:95,1,160,2|8,0:0|0:0,0:0:0:0:
231,48,63126,2,0,P|217:38|156:27,1,80,0|2,0:0|0:0,0:0:0:0:
77,38,63726,1,0,0:0:0:0:
40,108,64026,1,8,0:0:0:0:
83,175,64326,2,0,P|75:204|48:245,2,80,0|2|0,0:0|0:0|0:0,0:0:0:0:
256,192,65226,12,0,67026,0:0:0:0:
312,88,67626,6,0,B|356:104|372:136|372:136|364:188|416:216,1,160,4|0,0:0|0:0,0:0:0:0:
452,144,68526,2,0,P|480:188|420:288,1,160,2|2,0:0|0:0,0:0:0:0:
360,292,69426,2,0,L|276:324,1,80
204,320,70026,6,0,B|212:268|248:252|248:252|212:228|208:180,1,160,4|2,0:0|0:0,0:0:0:0:
288,180,70926,1,0,0:0:0:0:
324,108,71226,2,0,P|374:96|450:174,1,160,0|2,0:0|0:0,0:0:0:0:
288,180,72426,6,0,P|252:144|280:40,1,160,4|2,0:0|0:0,0:0:0:0:
368,172,73626,1,0,0:0:0:0:
332,244,73926,1,0,0:0:0:0:
252,252,74226,2,0,L|184:208,1,80,2|0,0:0|0:0,0:0:0:0:
124,260,74826,6,0,P|104:212|176:128,1,160,8|2,0:0|0:0,0:0:0:0:
240,148,75726,1,0,0:0:0:0:
256,68,76026,2,0,B|300:80|316:120|316:120|360:124|392:92,1,160,0|2,0:0|0:0,0:0:0:0:
284,220,77226,6,0,B|252:256|246:287|246:287|207:309|163:294,1,160,0|2,0:0|0:0,0:0:0:0:
184,216,78126,1,0,0:0:0:0:
104,228,78426,2,0,P|114:177|206:131,1,160,0|2,0:0|0:0,0:0:0:0:
340,216,79626,6,0,B|300:220|280:248|280:248|228:248|200:208,1,160,4|2,0:0|0:0,0:0:0:0:
344,132,80826,2,0,P|388:152|416:188,1,80,8|0,0:0|0:0,0:0:0:0:
416,256,81426,6,0,B|444:288|484:296|484:296|416:344,1,160,2|8,0:0|0:0,0:0:0:0:
496,200,82626,2,0,P|496:152|428:60,1,160,2|0,0:0|0:0,0:0:0:0:
356,88,83526,1,0,0:0:0:0:
280,56,83826,1,2,0:0:0:0:
224,112,84126,1,0,0:0:0:0:
144,104,84426,6,0,B|104:120|96:164|96:164|60:180|0:164,1,160,0|2,0:0|0:0,0:0:0:0:
176,184,85626,2,0,B|216:216|220:260|220:260|276:188,1,160,0|2,0:0|0:0,0:0:0:0:
244,128,86526,1,0,0:0:0:0:
168,104,86826,6,0,P|128:116|108:232,1,160,4|2,0:0|0:0,0:0:0:0:
164,268,87726,2,0,P|137:291|83:306,2,80
168,188,88626,1,2,0:0:0:0:
240,152,88926,1,0,0:0:0:0:
256,192,89226,12,4,91626,0:0:0:0:
