osu file format v12

[General]
AudioFilename: yongqizhihua.mp3
AudioLeadIn: 0
PreviewTime: 31626
Countdown: 0
SampleSet: Soft
StackLeniency: 0.7
Mode: 0
LetterboxInBreaks: 0

[Editor]
Bookmarks: 37584
DistanceSpacing: 1.2
BeatDivisor: 4
GridSize: 4

[Metadata]
Title:Yong Qi Zhi Hua
TitleUnicode:勇气之花
Artist:Ruan Xiaoqi
ArtistUnicode:阮小七
Creator:Flower
Version:Hard
Source:Star Guardian
Tags:ending Yuan Qi Xing Hun Yu Jianliu Shi Yue Flower of Courage
BeatmapID:208793
BeatmapSetID:73278

[Difficulty]
HPDrainRate:6
CircleSize:4
OverallDifficulty:6
ApproachRate:7
SliderMultiplier:2
SliderTickRate:2

[Events]
//Background and Video events
0,0,"bg.jpg",0,0
//Break Periods
2,22226,28326
//Storyboard Layer 0 (Background)
//Storyboard Layer 1 (Fail)
//Storyboard Layer 2 (Pass)
//Storyboard Layer 3 (Foreground)
//Storyboard Sound Samples
//Background Colour Transformations
3,100,163,162,255

[TimingPoints]
2826,600,4,2,1,50,1,0
7026,-100,4,2,1,40,0,0
7326,-100,4,2,1,60,0,0
10026,-100,4,2,1,40,0,0
10326,-100,4,2,1,60,0,0
11826,-100,4,2,1,40,0,0
12126,-100,4,2,1,60,0,0
14226,-100,4,2,1,40,0,0
14526,-100,4,2,1,60,0,0
31626,-100,4,2,2,70,0,0
67626,-100,4,2,2,80,0,0
70026,-100,4,2,2,80,0,1
91626,-100,4,2,2,80,0,0

[Colours]
Combo1 : 0,128,255
Combo2 : 240,0,0
Combo3 : 5,5,226
Combo4 : 238,244,0

[HitObjects]
132,56,2826,1,4,0:0:0:0:
76,216,3126,2,0,B|124:191|124:136|124:136|180:136|212:79,1,200,2|0,0:0|0:0,0:0:0:0:
4,56,4026,6,0,P|16:112|45:140,1,100,2|0,0:0|0:0,0:0:0:0:
230,285,4626,2,0,P|218:229|182:197,1,100,0|2,0:0|0:0,0:0:0:0:
336,236,5226,2,0,P|380:240|428:212,1,100,0|0,0:0|0:0,0:0:0:0:
352,124,5826,1,2,0:0:0:0:
444,16,6126,6,0,B|404:60|344:44|344:44|300:52|276:100,1,200
496,264,7026,2,0,P|504:208|476:152,1,100,8|2,0:0|0:0,0:0:0:0:
452,132,7476,1,0,0:0:0:0:
408,112,7626,1,0,0:0:0:0:
212,44,7926,1,0,0:0:0:0:
288,188,8226,2,0,P|352:208|400:196,1,100,2|0,0:0|0:0,0:0:0:0:
188,136,8826,5,2,0:0:0:0:
188,136,8976,1,0,0:0:0:0:
260,284,9276,1,0,0:0:0:0:
260,284,9426,1,2,0:0:0:0:
112,328,9726,1,0,0:0:0:0:
236,200,10026,6,0,B|178:219|174:273|174:273|131:237|78:250,1,200,8|0,0:0|0:0,0:0:0:0:
180,112,10926,1,2,0:0:0:0:
180,112,11076,2,0,P|129:168|56:152,1,150
260,120,11826,1,8,0:0:0:0:
104,92,12126,1,0,0:0:0:0:
156,236,12426,5,4,0:0:0:0:
160,32,12726,1,2,0:0:0:0:
240,200,13026,2,0,P|292:228|336:224,1,100,0|0,0:0|0:0,0:0:0:0:
456,124,13626,2,0,P|404:96|360:100,1,100,2|0,0:0|0:0,0:0:0:0:
204,120,14226,1,8,0:0:0:0:
412,232,14526,5,2,0:0:0:0:
412,232,14676,1,0,0:0:0:0:
412,232,14826,2,0,B|448:260|500:236|500:236|524:284|500:356,1,200,0|0,0:0|0:0,0:0:0:0:
411,322,15726,1,0,0:0:0:0:
327,202,16026,1,2,0:0:0:0:
324,348,16326,1,0,0:0:0:0:
412,232,16626,1,2,0:0:0:0:
273,274,16926,1,0,0:0:0:0:
384,140,17226,6,0,B|336:104|284:128|284:128|288:72|252:44,1,200,4|2,0:0|0:0,0:0:0:0:
204,28,17976,1,0,0:0:0:0:
12,64,18276,1,0,0:0:0:0:
12,64,18426,2,0,P|64:92|120:80,1,100,2|0,0:0|0:0,0:0:0:0:
232,124,19026,2,0,P|232:180|256:220,1,100,2|0,0:0|0:0,0:0:0:0:
405,154,19626,6,0,B|354:132|309:159|309:159|344:204|323:257,1,200,4|0,0:0|0:0,0:0:0:0:
416,236,20526,1,2,0:0:0:0:
404,71,20826,2,0,P|452:87|484:131,1,100,0|0,0:0|0:0,0:0:0:0:
412,320,21426,2,0,P|364:304|332:260,1,100,2|0,0:0|0:0,0:0:0:0:
312,128,22026,1,4,0:0:0:0:
256,192,29226,12,4,31626,0:0:0:0:
328,88,31926,6,0,P|376:68|428:72,1,100,2|8,0:0|0:0,0:0:0:0:
392,152,32526,1,2,0:0:0:0:
308,172,32826,2,0,P|261:143|241:103,2,100,0|2|8,0:0|0:0|0:0,0:0:0:0:
368,332,33726,2,0,P|380:284|364:224,1,100,2|0,0:0|0:0,0:0:0:0:
216,212,34326,5,2,0:0:0:0:
76,140,34626,2,0,P|128:128|180:148,1,100,8|2,0:0|0:0,0:0:0:0:
176,292,35226,2,0,P|128:248|120:212,1,100,0|2,0:0|0:0,0:0:0:0:
240,104,35826,1,8,0:0:0:0:
304,220,36126,1,2,0:0:0:0:
288,32,36426,6,0,B|336:76|316:136|316:136|360:148|384:192,1,200,4|8,0:0|0:0,0:0:0:0:
400,92,37326,1,2,0:0:0:0:
232,276,37626,2,0,P|215:228|221:180,1,100,8|2,0:0|0:0,0:0:0:0:
308,324,38226,2,0,P|276:352|216:360,1,100,8|2,0:0|0:0,0:0:0:0:
172,356,38676,1,2,0:0:0:0:
136,320,38826,1,0,0:0:0:0:
324,232,39126,5,0,0:0:0:0:
324,232,39276,1,2,0:0:0:0:
324,232,39426,2,0,P|376:264|400:312,1,100,8|2,0:0|0:0,0:0:0:0:
308,128,40026,1,0,0:0:0:0:
232,188,40326,2,0,P|220:243|237:281,1,100,2|8,0:0|0:0,0:0:0:0:
388,108,40926,2,0,P|356:60|317:45,1,100,2|4,0:0|0:0,0:0:0:0:
194,258,41526,5,2,0:0:0:0:
308,128,41826,1,8,0:0:0:0:
138,94,42126,1,2,0:0:0:0:
288,224,42426,1,0,0:0:0:0:
233,62,42726,1,2,0:0:0:0:
119,193,43026,1,8,0:0:0:0:
376,188,43326,6,0,P|396:146|391:86,1,100,2|8,0:0|0:0,0:0:0:0:
288,224,43926,2,0,P|317:260|373:280,1,100,2|8,0:0|0:0,0:0:0:0:
308,128,44526,2,0,P|261:131|212:165,1,100,2|0,0:0|0:0,0:0:0:0:
440,232,45126,1,2,0:0:0:0:
392,96,45426,1,8,0:0:0:0:
236,64,45726,5,2,0:0:0:0:
236,64,45876,1,0,0:0:0:0:
236,64,46026,2,0,B|279:55|316:70|316:70|301:138|361:173,1,200,4|8,0:0|0:0,0:0:0:0:
264,184,46926,1,2,0:0:0:0:
488,96,47226,2,0,P|432:84|392:100,1,100,8|2,0:0|0:0,0:0:0:0:
448,348,47826,2,0,P|480:300|480:252,1,100,8|2,0:0|0:0,0:0:0:0:
472,208,48276,1,0,0:0:0:0:
444,168,48426,1,8,0:0:0:0:
292,244,48726,6,0,P|356:240|392:268,1,100,2|8,0:0|0:0,0:0:0:0:
236,338,49326,1,2,0:0:0:0:
72,292,49626,2,0,P|24:250|15:209,1,100,8|2,0:0|0:0,0:0:0:0:
120,204,50226,2,0,P|181:216|210:247,1,100,8|2,0:0|0:0,0:0:0:0:
120,352,50826,5,4,0:0:0:0:
68,146,51126,2,0,P|80:83|110:54,1,100,2|8,0:0|0:0,0:0:0:0:
144,128,51726,1,2,0:0:0:0:
144,280,52026,1,8,0:0:0:0:
16,204,52326,1,2,0:0:0:0:
204,68,52626,2,0,B|236:120|216:168|216:168|268:176|307:150,1,200,8|0,0:0|0:0,0:0:0:0:
432,72,53526,1,2,0:0:0:0:
432,72,53676,1,0,0:0:0:0:
432,72,53826,2,0,P|380:60|328:76,1,100,8|2,0:0|0:0,0:0:0:0:
312,296,54426,5,0,0:0:0:0:
384,236,54726,2,0,P|396:184|372:124,1,100,2|8,0:0|0:0,0:0:0:0:
236,240,55326,1,2,0:0:0:0:
308,184,55626,2,0,P|260:156|204:160,2,100,4|0|8,0:0|0:0|0:0,0:0:0:0:
224,328,56526,1,2,0:0:0:0:
92,192,56826,6,0,B|104:252|160:272|160:272|136:304|144:360,1,200,8|8,0:0|0:0,0:0:0:0:
216,96,57726,2,0,P|208:152|172:196,1,100,2|0,0:0|0:0,0:0:0:0:
36,112,58326,1,2,0:0:0:0:
84,104,58476,1,0,0:0:0:0:
132,116,58626,1,8,0:0:0:0:
264,216,58926,1,2,0:0:0:0:
16,272,59226,6,0,P|43:217|76:194,1,100,4|2,0:0|0:0,0:0:0:0:
184,40,59826,2,0,P|217:90|220:131,1,100,8|2,0:0|0:0,0:0:0:0:
300,304,60426,2,0,P|239:307|202:289,1,100,8|0,0:0|0:0,0:0:0:0:
320,104,61026,1,8,0:0:0:0:
264,216,61326,1,2,0:0:0:0:
376,340,61626,6,0,B|392:288|364:248|364:248|392:208|460:216,1,200,8|8,0:0|0:0,0:0:0:0:
460,296,62526,1,2,0:0:0:0:
352,64,62826,2,0,B|332:112|348:160|348:160|304:184|280:248,1,200,0|8,0:0|0:0,0:0:0:0:
424,120,63726,1,2,0:0:0:0:
260,124,64026,2,0,P|260:79|284:21,1,100,0|2,0:0|0:0,0:0:0:0:
498,170,64626,2,0,P|454:202|402:202,1,100,8|2,0:0|0:0,0:0:0:0:
352,268,65226,6,0,B|319:238|324:196|324:196|264:232|200:200,1,200,4|8,0:0|0:0,0:0:0:0:
380,112,66126,1,2,0:0:0:0:
380,112,66276,1,0,0:0:0:0:
380,112,66426,1,8,0:0:0:0:
408,204,66726,1,2,0:0:0:0:
288,132,67026,2,0,P|288:68|308:28,1,100,0|2,0:0|0:0,0:0:0:0:
320,220,67626,6,0,B|260:232|220:200|220:200|208:252|160:284,1,200,4|8,0:0|0:0,0:0:0:0:
264,308,68526,1,10,0:0:0:0:
104,332,68826,2,0,P|88:284|96:224,1,100,8|0,0:0|0:0,0:0:0:0:
100,112,69426,2,0,P|160:140|188:180,1,100,8|2,0:0|0:0,0:0:0:0:
196,212,69876,1,0,0:0:0:0:
192,260,70026,5,4,0:0:0:0:
28,180,70326,1,0,0:0:0:0:
248,64,70626,2,0,B|284:116|272:172|272:172|300:192|376:180,1,200,0|0,0:0|0:0,0:0:0:0:
504,236,71526,1,2,0:0:0:0:
496,132,71826,2,0,P|436:108|392:116,1,100,8|2,0:0|0:0,0:0:0:0:
368,264,72426,6,0,P|418:224|433:181,1,100,8|2,0:0|0:0,0:0:0:0:
460,32,73026,1,12,0:0:0:0:
268,92,73326,1,2,0:0:0:0:
268,92,73476,1,0,0:0:0:0:
268,92,73626,2,0,B|248:152|288:184|288:184|288:244|232:276,1,200,0|2,0:0|0:0,0:0:0:0:
432,164,74526,6,0,P|393:133|328:124,1,100,0|8,0:0|0:0,0:0:0:0:
104,164,75126,2,0,P|142:194|208:204,1,100,2|8,0:0|0:0,0:0:0:0:
188,88,75726,1,2,0:0:0:0:
188,88,75876,1,0,0:0:0:0:
188,88,76026,1,8,0:0:0:0:
16,192,76326,1,8,0:0:0:0:
16,192,76476,1,0,0:0:0:0:
16,192,76626,2,0,P|24:128|60:88,1,100,10|8,0:0|0:0,0:0:0:0:
204,168,77226,6,0,P|141:183|91:164,1,100,4|2,0:0|0:0,0:0:0:0:
84,24,77826,2,0,P|135:62|152:114,1,100,8|2,0:0|0:0,0:0:0:0:
148,258,78426,1,8,0:0:0:0:
52,127,78726,1,2,0:0:0:0:
206,177,79026,1,8,0:0:0:0:
52,227,79326,1,8,0:0:0:0:
152,84,79626,6,0,B|204:65|251:86|251:86|304:64|304:2,1,200,4|8,0:0|0:0,0:0:0:0:
88,28,80526,1,2,0:0:0:0:
88,28,80676,1,0,0:0:0:0:
88,28,80826,2,0,P|68:92|80:136,1,100,0|2,0:0|0:0,0:0:0:0:
192,272,81426,2,0,P|212:208|200:164,1,100,8|0,0:0|0:0,0:0:0:0:
384,172,82026,6,0,B|320:188|285:170|285:170|276:116|216:96,1,200,4|8,0:0|0:0,0:0:0:0:
424,36,82926,1,2,0:0:0:0:
424,36,83076,1,0,0:0:0:0:
424,36,83226,2,0,P|372:52|340:104,1,100,0|8,0:0|0:0,0:0:0:0:
452,216,83826,2,0,P|464:162|435:109,1,100,8|2,0:0|0:0,0:0:0:0:
272,40,84426,5,0,0:0:0:0:
196,192,84726,1,2,0:0:0:0:
196,192,84876,1,0,0:0:0:0:
196,192,85026,1,8,0:0:0:0:
376,176,85326,1,2,0:0:0:0:
376,176,85476,1,0,0:0:0:0:
376,176,85626,2,0,P|377:123|350:73,1,100,8|0,0:0|0:0,0:0:0:0:
120,248,86226,2,0,P|163:277|220:282,1,100,8|0,0:0|0:0,0:0:0:0:
280,172,86826,6,0,B|284:228|327:255|327:255|340:304|304:352,1,200,4|8,0:0|0:0,0:0:0:0:
184,160,87726,1,2,0:0:0:0:
184,160,87876,1,0,0:0:0:0:
184,160,88026,2,0,P|204:112|248:84,1,100,8|2,0:0|0:0,0:0:0:0:
404,176,88626,1,8,0:0:0:0:
280,352,88926,1,2,0:0:0:0:
331,126,89226,6,0,B|312:177|332:219|332:219|275:226|244:268,1,200,8|8,0:0|0:0,0:0:0:0:
240,164,90126,1,2,0:0:0:0:
240,164,90276,1,0,0:0:0:0:
240,164,90426,2,0,P|181:146|149:99,1,100,8|2,0:0|0:0,0:0:0:0:
324,40,91026,2,0,P|382:57|414:104,1,100,0|8,0:0|0:0,0:0:0:0:
420,196,91626,1,4,0:0:0:0:
