osu file format v13

[General]
AudioFilename: Guitar vs. Piano.mp3
AudioLeadIn: 0
PreviewTime: 89137
Countdown: 0
SampleSet: Normal
StackLeniency: 0.6
Mode: 0
LetterboxInBreaks: 1
WidescreenStoryboard: 0

[Editor]
DistanceSpacing: 0.9
BeatDivisor: 4
GridSize: 4
TimelineZoom: 1.4

[Metadata]
Title:Guitar Vs. Piano
TitleUnicode:Guitar Vs. Piano
Artist:Rtnario
ArtistUnicode:Rtnario
Creator:Rad-
Version:Extreme
Source:LEAF XCEED Music Division
Tags:instrumental metal website releases
BeatmapID:377773
BeatmapSetID:153745

[Difficulty]
HPDrainRate:7
CircleSize:4
OverallDifficulty:8
ApproachRate:9
SliderMultiplier:1.8
SliderTickRate:1

[Events]
//Background and Video events
0,0,"BG.jpg",0,0
//Break Periods
2,41337,42937
2,108537,116737
2,126687,127537
2,212937,214537
//Storyboard Layer 0 (Background)
//Storyboard Layer 1 (Fail)
//Storyboard Layer 2 (Pass)
//Storyboard Layer 3 (Foreground)
//Storyboard Sound Samples
//Background Colour Transformations
3,100,0,0,0

[TimingPoints]
2737,300,4,1,0,100,1,0
2737,-125,4,2,1,90,0,0
11737,-166.666666666667,4,2,1,90,0,0
12337,-111.111111111111,4,2,1,90,0,0
29137,-100,4,2,1,90,0,0
30337,-111.111111111111,4,2,1,90,0,0
38737,-90.9090909090908,4,2,1,90,0,0
39037,-90.9090909090909,4,2,1,75,0,0
39337,-90.9090909090909,4,2,1,65,0,0
39637,-90.9090909090909,4,2,1,55,0,0
39787,-90.9090909090909,4,2,1,65,0,0
39937,-90.9090909090908,4,2,1,90,0,0
43837,-90.9090909090909,4,2,1,75,0,0
44137,-90.9090909090909,4,2,1,65,0,0
44437,-90.9090909090909,4,2,1,55,0,0
44587,-90.9090909090909,4,2,1,65,0,0
44737,-90.9090909090908,4,2,1,90,0,0
57337,-90.9090909090908,4,2,1,65,0,0
57637,-90.9090909090908,4,2,1,55,0,0
57937,-90.9090909090908,4,2,1,90,0,0
60337,-90.9090909090908,4,2,1,90,0,0
67537,-100,4,2,1,90,0,0
69937,-90.9090909090908,4,2,1,90,0,0
87937,-90.9090909090908,4,2,1,80,0,0
88237,-90.9090909090908,4,2,1,65,0,0
88537,-90.9090909090908,4,2,1,90,0,0
117337,-125,4,2,1,90,0,0
117937,-83.3333333333333,4,2,1,90,0,0
123937,-111.111111111111,4,2,1,5,0,0
126187,-111.111111111111,4,2,1,90,0,0
128137,-166.666666666666,4,2,1,90,0,0
128587,-111.111111111111,4,2,1,5,0,0
130987,-166.666666666666,4,2,1,90,0,0
132337,-76.9230769230769,4,2,1,90,0,0
133537,-90.9090909090908,4,2,1,90,0,0
148012,-111.111111111111,4,2,1,5,0,0
150187,-111.111111111111,4,2,1,90,0,0
151537,-100,4,2,1,90,0,0
152737,-83.3333333333333,4,2,1,90,0,0
170737,-83.3333333333333,4,2,1,65,0,0
171937,-90.9090909090909,4,2,1,90,0,1
180187,-111.111111111111,4,2,1,90,0,1
181537,-90.9090909090909,4,2,1,90,0,1
187537,-83.3333333333333,4,2,1,65,0,1
187837,-83.3333333333333,4,2,1,55,0,1
188437,-83.3333333333333,4,2,1,65,0,1
188737,-90.9090909090909,4,2,1,90,0,1
191137,-90.9090909090909,4,2,1,90,0,0
192187,-111.111111111111,4,2,1,5,0,0
192337,-100,4,2,1,90,0,0
193543,-83.3333333333333,4,2,1,90,0,0
210637,-83.3333333333333,4,2,1,75,0,0
210937,-83.3333333333333,4,2,1,65,0,0
211237,-83.3333333333333,4,2,1,55,0,0
211387,-83.3333333333333,4,2,1,65,0,0
211537,-83.3333333333333,4,2,1,90,0,0
215437,-83.3333333333333,4,2,1,75,0,0
215737,-83.3333333333333,4,2,1,65,0,0
216037,-83.3333333333333,4,2,1,55,0,0
216187,-83.3333333333333,4,2,1,65,0,0
216337,-83.3333333333333,4,2,1,90,0,0
219937,-83.3333333333333,4,2,1,90,0,1
229537,-100,4,2,1,90,0,0
231937,-125,4,2,1,90,0,0

[Colours]
Combo1 : 23,200,200
Combo2 : 255,0,0

[HitObjects]
312,336,2737,5,0,0:0:0:0:
368,280,2887,1,0,0:0:0:0:
392,208,3037,1,0,0:0:0:0:
384,128,3187,2,0,P|336:64|256:48,1,144
208,88,3637,1,0,0:0:0:0:
136,56,3787,1,0,0:0:0:0:
136,56,3937,2,0,L|48:24,1,72
128,120,4237,2,0,L|32:112,1,72
128,184,4537,2,0,L|40:200,1,72
144,248,4837,2,0,L|80:280,1,72
192,320,5137,5,2,0:0:0:0:
192,320,5287,1,0,0:0:0:0:
256,272,5437,2,0,L|328:216,2,72
184,248,5887,2,0,P|138:234|112:184,1,72
104,144,6187,1,0,0:0:0:0:
136,72,6337,2,0,L|200:16,2,72,2|0|0,0:0|0:0|0:0,0:0:0:0:
64,112,6787,1,0,0:0:0:0:
112,176,6937,1,0,0:0:0:0:
184,136,7087,1,0,0:0:0:0:
224,72,7237,2,0,P|288:72|304:80,1,72
368,104,7537,5,2,0:0:0:0:
424,160,7687,1,0,0:0:0:0:
424,240,7837,2,0,P|400:280|368:312,2,72
384,168,8287,2,0,L|336:88,1,72
448,168,8587,2,0,L|480:96,1,72
477,102,8887,1,0,0:0:0:0:
400,40,9037,1,0,0:0:0:0:
400,40,9187,1,0,0:0:0:0:
320,104,9337,1,0,0:0:0:0:
320,104,9487,1,0,0:0:0:0:
256,176,9637,2,0,L|256:264,1,72
256,328,9937,6,0,P|216:328|184:312,1,72,2|0,0:0|0:0,0:0:0:0:
144,248,10237,1,0,0:0:0:0:
136,168,10387,1,0,0:0:0:0:
200,120,10537,2,0,P|256:152|264:184,1,72
256,232,10837,1,0,0:0:0:0:
256,328,10987,1,0,0:0:0:0:
256,328,11137,2,0,P|296:328|328:312,1,72,2|0,0:0|0:0,0:0:0:0:
368,248,11437,1,0,0:0:0:0:
376,168,11587,1,0,0:0:0:0:
352,88,11737,2,0,P|256:48|152:104,1,215.999993408203,0|4,0:0|0:0,0:0:0:0:
104,160,12487,5,0,0:0:0:0:
72,240,12637,1,0,0:0:0:0:
136,304,12787,2,0,P|200:345|296:288,1,161.999995056153
360,296,13237,1,0,0:0:0:0:
360,296,13387,1,0,0:0:0:0:
416,224,13537,2,0,P|408:120|352:88,1,161.999995056153
280,72,13987,2,0,P|224:88|224:192,1,161.999995056153
256,256,14437,1,0,0:0:0:0:
80,288,14737,6,0,B|32:184|152:160,1,161.999995056153,4|0,0:0|0:0,0:0:0:0:
216,208,15187,1,0,0:0:0:0:
272,144,15337,2,0,P|352:168|368:240,1,161.999995056153,8|0,0:0|0:0,0:0:0:0:
256,48,15937,5,0,0:0:0:0:
80,192,16237,1,8,0:0:0:0:
440,192,16537,1,8,0:0:0:0:
256,328,16837,1,8,0:0:0:0:
256,328,16987,1,8,0:0:0:0:
256,328,17137,1,4,0:0:0:0:
232,248,17287,6,0,P|208:208|152:176,1,80.9999975280763
104,208,17587,1,0,0:0:0:0:
104,288,17737,1,2,0:0:0:0:
256,192,18037,1,0,0:0:0:0:
256,192,18187,1,0,0:0:0:0:
256,192,18337,1,8,0:0:0:0:
400,80,18637,1,0,0:0:0:0:
400,80,18787,1,0,0:0:0:0:
400,80,18937,1,2,0:0:0:0:
376,256,19237,2,0,P|312:288|280:280,1,80.9999975280763
216,288,19537,5,2,0:0:0:0:
128,248,19837,1,0,0:0:0:0:
128,144,20137,1,0,0:0:0:0:
216,96,20437,1,0,0:0:0:0:
304,128,20737,6,0,L|408:168,1,80.9999975280763,0|8,0:0|0:0,0:0:0:0:
304,264,21037,2,0,L|384:224,1,80.9999975280763,8|8,0:0|0:0,0:0:0:0:
440,264,21337,1,8,0:0:0:0:
424,296,21412,1,0,0:0:0:0:
400,320,21487,1,0,0:0:0:0:
352,144,21637,1,8,0:0:0:0:
336,112,21712,1,0,0:0:0:0:
312,88,21787,1,0,0:0:0:0:
136,192,21937,5,4,0:0:0:0:
80,256,22087,1,0,0:0:0:0:
136,320,22237,2,0,P|184:336|240:304,1,80.9999975280763
256,256,22537,2,0,P|328:256|352:264,1,80.9999975280763,2|0,0:0|0:0,0:0:0:0:
416,320,22837,1,0,0:0:0:0:
416,320,22987,1,0,0:0:0:0:
416,320,23137,2,0,L|448:232,1,80.9999975280763,8|0,0:0|0:0,0:0:0:0:
368,208,23437,2,0,L|328:304,1,80.9999975280763
256,264,23737,1,2,0:0:0:0:
216,192,23887,1,0,0:0:0:0:
272,136,24037,1,0,0:0:0:0:
352,160,24187,1,0,0:0:0:0:
424,120,24337,6,0,L|376:24,1,80.9999975280763
312,120,24637,2,0,L|264:24,1,80.9999975280763
192,120,24937,2,0,L|144:16,1,80.9999975280763
72,120,25237,1,0,0:0:0:0:
48,200,25387,1,0,0:0:0:0:
96,288,25537,5,4,0:0:0:0:
152,224,25687,1,0,0:0:0:0:
200,288,25837,2,0,L|320:288,1,80.9999975280763
281,288,26137,1,0,0:0:0:0:
448,288,26287,2,0,L|352:288,1,80.9999975280763
367,288,26587,1,0,0:0:0:0:
320,224,26737,5,8,0:0:0:0:
384,176,26887,1,0,0:0:0:0:
456,144,27037,2,0,P|456:88|424:48,1,80.9999975280763
444,67,27337,1,0,0:0:0:0:
312,144,27487,2,0,P|320:88|352:48,1,80.9999975280763
332,67,27787,1,0,0:0:0:0:
256,32,27937,5,0,0:0:0:0:
208,96,28087,1,0,0:0:0:0:
264,160,28237,2,0,L|200:224,1,80.9999975280763
206,217,28537,1,0,0:0:0:0:
80,160,28687,2,0,L|152:232,1,80.9999975280763
137,217,28987,1,0,0:0:0:0:
168,296,29137,6,0,P|248:328|272:352,1,90,8|0,0:0|0:0,0:0:0:0:
336,312,29437,1,0,0:0:0:0:
336,312,29587,2,0,L|400:240,1,90,8|0,0:0|0:0,0:0:0:0:
368,128,29887,1,0,0:0:0:0:
368,128,30037,2,0,L|288:208,1,90,8|0,0:0|0:0,0:0:0:0:
256,272,30337,6,0,L|184:224,1,80.9999975280763,4|0,0:0|0:0,0:0:0:0:
144,160,30637,2,0,P|168:80|176:72,2,80.9999975280763
104,232,31087,1,0,0:0:0:0:
152,296,31237,1,0,0:0:0:0:
224,256,31387,1,0,0:0:0:0:
296,296,31537,2,8,P|360:264|400:272,1,80.9999975280763
320,200,31837,2,0,P|384:200|416:224,1,80.9999975280763
384,128,32137,2,0,P|456:184|464:208,1,80.9999975280763
456,256,32437,1,0,0:0:0:0:
408,320,32587,1,0,0:0:0:0:
336,352,32737,6,0,P|272:352|240:336,1,80.9999975280763,2|0,0:0|0:0,0:0:0:0:
264,264,33037,2,0,P|192:248|176:248,1,80.9999975280763
152,320,33337,2,0,P|64:296|56:280,1,80.9999975280763
48,232,33637,1,0,0:0:0:0:
112,176,33787,1,0,0:0:0:0:
176,232,33937,5,2,0:0:0:0:
176,232,34087,1,0,0:0:0:0:
240,176,34237,2,0,P|288:192|328:232,1,80.9999975280763
360,272,34537,1,0,0:0:0:0:
416,216,34687,2,0,P|424:160|448:128,1,80.9999975280763
416,64,34987,1,0,0:0:0:0:
416,64,35137,1,0,0:0:0:0:
416,64,35287,1,0,0:0:0:0:
336,88,35437,2,0,P|248:80|240:72,1,80.9999975280763
192,48,35737,1,0,0:0:0:0:
120,88,35887,2,0,P|80:152|56:160,1,80.9999975280763
72,232,36187,5,0,0:0:0:0:
72,232,36337,1,0,0:0:0:0:
72,232,36487,1,0,0:0:0:0:
136,288,36637,2,0,P|200:320|216:336,1,80.9999975280763
288,304,36937,1,0,0:0:0:0:
272,224,37087,2,0,P|224:176|200:168,1,80.9999975280763
136,184,37387,1,0,0:0:0:0:
72,136,37537,1,0,0:0:0:0:
120,72,37687,1,0,0:0:0:0:
200,48,37837,2,0,P|264:80|280:96,2,80.9999975280763
184,128,38287,2,0,P|240:176|256:208,2,80.9999975280763
88,80,38737,5,4,0:0:0:0:
40,224,39037,1,0,0:0:0:0:
56,248,39112,1,0,0:0:0:0:
80,272,39187,1,0,0:0:0:0:
104,288,39262,1,0,0:0:0:0:
128,304,39337,1,0,0:0:0:0:
152,320,39412,1,0,0:0:0:0:
176,328,39487,1,0,0:0:0:0:
208,336,39562,1,0,0:0:0:0:
240,336,39637,1,0,0:0:0:0:
264,328,39712,1,0,0:0:0:0:
288,320,39787,1,0,0:0:0:0:
312,304,39862,1,0,0:0:0:0:
336,288,39937,6,0,P|376:240|392:200,1,99.0000030212403,8|0,0:0|0:0,0:0:0:0:
376,40,40237,2,0,P|328:88|320:120,1,99.0000030212403,8|0,0:0|0:0,0:0:0:0:
200,288,40537,2,0,P|240:240|256:200,1,99.0000030212403,8|0,0:0|0:0,0:0:0:0:
240,40,40837,2,0,P|192:88|184:120,1,99.0000030212403,8|0,0:0|0:0,0:0:0:0:
136,288,41137,5,4,0:0:0:0:
408,56,43537,5,4,0:0:0:0:
472,224,43837,1,0,0:0:0:0:
456,248,43912,1,0,0:0:0:0:
432,272,43987,1,0,0:0:0:0:
408,288,44062,1,0,0:0:0:0:
384,304,44137,1,0,0:0:0:0:
360,320,44212,1,0,0:0:0:0:
336,328,44287,1,0,0:0:0:0:
304,336,44362,1,0,0:0:0:0:
272,336,44437,1,0,0:0:0:0:
248,328,44512,1,0,0:0:0:0:
224,320,44587,1,0,0:0:0:0:
200,304,44662,1,0,0:0:0:0:
176,288,44737,6,0,P|136:240|120:200,1,99.0000030212403,8|0,0:0|0:0,0:0:0:0:
344,224,45037,2,0,P|365:268|398:305,1,99.0000030212403,8|0,0:0|0:0,0:0:0:0:
152,128,45337,2,0,P|128:80|80:48,1,99.0000030212403,8|0,0:0|0:0,0:0:0:0:
320,48,45637,5,8,0:0:0:0:
320,48,45712,1,8,0:0:0:0:
320,48,45787,1,8,0:0:0:0:
320,48,45862,1,8,0:0:0:0:
320,48,45937,2,0,P|400:120|432:120,1,99.0000030212403,4|0,0:0|0:0,0:0:0:0:
440,232,46237,1,8,0:0:0:0:
336,352,46387,1,0,0:0:0:0:
256,184,46537,2,0,P|232:134|160:80,1,99.0000030212403
104,24,46837,1,8,0:0:0:0:
48,176,46987,1,0,0:0:0:0:
48,176,47137,2,0,P|104:224|152:232,1,99.0000030212403
304,256,47437,2,0,P|256:288|184:288,1,99.0000030212403,8|0,0:0|0:0,0:0:0:0:
80,344,47737,1,0,0:0:0:0:
160,192,47887,1,0,0:0:0:0:
248,344,48037,1,8,0:0:0:0:
384,264,48187,5,0,0:0:0:0:
384,264,48262,1,0,0:0:0:0:
384,264,48337,2,0,P|344:216|352:160,1,99.0000030212403,2|0,0:0|0:0,0:0:0:0:
288,64,48637,1,8,0:0:0:0:
192,264,48787,2,0,P|232:192|232:168,1,99.0000030212403
352,136,49087,1,0,0:0:0:0:
256,56,49237,1,8,0:0:0:0:
136,112,49387,1,0,0:0:0:0:
248,176,49537,2,0,P|272:256|256:288,1,99.0000030212403
120,272,49837,2,0,P|72:184|72:176,1,99.0000030212403,8|0,0:0|0:0,0:0:0:0:
376,152,50137,2,0,P|408:200|408:248,1,99.0000030212403
248,264,50437,2,0,P|208:192|216:160,1,99.0000030212403,8|0,0:0|0:0,0:0:0:0:
264,56,50737,5,0,0:0:0:0:
384,96,50887,1,0,0:0:0:0:
448,208,51037,2,0,P|432:256|376:288,1,99.0000030212403,8|0,0:0|0:0,0:0:0:0:
394,283,51337,1,0,0:0:0:0:
288,216,51487,1,0,0:0:0:0:
352,104,51637,1,8,0:0:0:0:
232,56,51787,2,0,P|168:112|168:136,2,99.0000030212403
328,144,52237,2,0,P|376:232|360:256,1,99.0000030212403,8|0,0:0|0:0,0:0:0:0:
320,328,52537,2,0,P|272:272|272:208,1,99.0000030212403
192,144,52837,1,8,0:0:0:0:
48,208,53062,5,8,0:0:0:0:
48,208,53137,2,0,P|96:264|152:272,1,99.0000030212403,2|0,0:0|0:0,0:0:0:0:
208,352,53437,1,8,0:0:0:0:
280,272,53587,2,0,P|352:216|352:176,1,99.0000030212403
392,80,53887,1,0,0:0:0:0:
160,136,54037,1,8,0:0:0:0:
392,192,54187,1,0,0:0:0:0:
304,296,54337,6,0,P|240:256|224:208,1,99.0000030212403
304,120,54637,1,8,0:0:0:0:
304,120,54787,2,0,P|248:72|184:80,1,99.0000030212403
176,272,55087,1,0,0:0:0:0:
104,64,55237,1,8,0:0:0:0:
48,272,55387,1,0,0:0:0:0:
104,64,55537,6,0,P|200:80|224:112,1,99.0000030212403
320,144,55837,1,8,0:0:0:0:
176,216,55987,2,0,P|104:200|56:152,1,99.0000030212403
256,80,56287,1,0,0:0:0:0:
352,168,56437,2,0,L|440:272,1,99.0000030212403,8|0,0:0|0:0,0:0:0:0:
336,352,56737,5,0,0:0:0:0:
280,232,56887,2,0,P|224:232|160:272,1,99.0000030212403,0|8,0:0|0:0,0:0:0:0:
104,352,57187,1,0,0:0:0:0:
32,224,57337,1,0,0:0:0:0:
64,208,57412,1,0,0:0:0:0:
96,192,57487,1,0,0:0:0:0:
128,184,57562,1,0,0:0:0:0:
160,176,57637,1,0,0:0:0:0:
192,184,57712,1,0,0:0:0:0:
224,192,57787,1,0,0:0:0:0:
256,208,57862,1,0,0:0:0:0:
288,224,57937,5,4,0:0:0:0:
408,160,58237,1,2,0:0:0:0:
320,48,58537,1,2,0:0:0:0:
192,112,58837,1,2,0:0:0:0:
136,240,59137,6,0,P|169:304|232:328,1,99.0000030212403,8|0,0:0|0:0,0:0:0:0:
256,88,59437,2,0,P|304:128|336:184,1,99.0000030212403,8|0,0:0|0:0,0:0:0:0:
56,104,59737,2,0,P|89:168|152:192,1,99.0000030212403,8|0,0:0|0:0,0:0:0:0:
200,320,60037,5,8,0:0:0:0:
232,328,60112,1,8,0:0:0:0:
272,328,60187,1,8,0:0:0:0:
312,320,60262,1,8,0:0:0:0:
344,304,60337,2,0,P|392:240|392:184,1,99.0000030212403,4|0,0:0|0:0,0:0:0:0:
296,144,60637,2,0,L|251:44,1,99.0000030212403,8|0,0:0|0:0,0:0:0:0:
364,134,60937,2,0,L|353:-7,1,99.0000030212403
426,147,61237,2,8,L|476:26,1,99.0000030212403,8|0,0:0|0:0,0:0:0:0:
392,208,61537,2,0,L|336:304,1,99.0000030212403
256,200,61837,2,0,L|192:304,1,99.0000030212403,8|0,0:0|0:0,0:0:0:0:
64,64,62137,2,0,L|128:160,1,99.0000030212403
208,48,62437,2,0,L|272:144,1,99.0000030212403,8|0,0:0|0:0,0:0:0:0:
336,240,62737,5,2,0:0:0:0:
248,336,62887,1,0,0:0:0:0:
144,256,63037,2,0,P|72:208|32:208,1,99.0000030212403,8|0,0:0|0:0,0:0:0:0:
136,104,63337,2,0,P|192:144|208:176,1,99.0000030212403
312,120,63637,2,0,P|272:40|232:16,1,99.0000030212403,8|0,0:0|0:0,0:0:0:0:
432,144,63937,1,2,0:0:0:0:
432,144,64087,1,0,0:0:0:0:
400,272,64237,2,0,P|328:304|288:288,1,99.0000030212403,8|0,0:0|0:0,0:0:0:0:
272,176,64537,2,0,P|176:128|160:128,1,99.0000030212403
80,272,64837,2,0,P|152:328|200:328,1,99.0000030212403,8|8,0:0|0:0,0:0:0:0:
156,328,65062,1,8,0:0:0:0:
156,328,65137,1,2,0:0:0:0:
256,248,65287,5,0,0:0:0:0:
136,160,65437,1,8,0:0:0:0:
256,80,65587,2,0,P|360:104|400:216,1,198.000006042481
392,304,66037,2,0,L|288:224,1,99.0000030212403,8|0,0:0|0:0,0:0:0:0:
192,216,66337,1,0,0:0:0:0:
88,320,66487,1,0,0:0:0:0:
192,216,66637,1,8,0:0:0:0:
48,240,66787,1,0,0:0:0:0:
192,216,66937,1,0,0:0:0:0:
56,152,67087,1,0,0:0:0:0:
184,88,67237,1,8,0:0:0:0:
328,160,67387,1,0,0:0:0:0:
280,280,67537,6,0,P|384:312|440:248,1,180,4|0,0:0|0:0,0:0:0:0:
456,96,68137,1,0,0:0:0:0:
368,256,68437,1,0,0:0:0:0:
280,96,68737,5,0,0:0:0:0:
240,176,68887,1,8,0:0:0:0:
192,96,69037,1,0,0:0:0:0:
152,176,69187,1,8,0:0:0:0:
104,96,69337,5,8,0:0:0:0:
88,120,69412,1,8,0:0:0:0:
72,144,69487,1,8,0:0:0:0:
64,176,69562,1,8,0:0:0:0:
56,208,69637,1,8,0:0:0:0:
56,240,69712,1,8,0:0:0:0:
64,272,69787,1,8,0:0:0:0:
80,304,69862,1,8,0:0:0:0:
104,328,69937,6,0,P|240:336|288:272,1,198.000006042481,4|8,0:0|0:0,0:0:0:0:
360,200,70387,1,0,0:0:0:0:
256,192,70537,2,0,P|288:264|272:296,1,99.0000030212403
200,224,70837,2,0,P|168:264|112:272,1,99.0000030212403,8|0,0:0|0:0,0:0:0:0:
176,160,71137,2,0,P|120:152|88:104,1,99.0000030212403
224,112,71437,2,0,P|176:56|184:24,1,99.0000030212403,8|0,0:0|0:0,0:0:0:0:
288,128,71737,2,0,P|328:64|368:48,1,99.0000030212403
304,192,72037,2,0,P|360:216|384:256,1,99.0000030212403,8|0,0:0|0:0,0:0:0:0:
424,336,72337,5,0,0:0:0:0:
304,336,72487,1,0,0:0:0:0:
240,232,72637,2,0,L|184:136,1,99.0000030212403,8|0,0:0|0:0,0:0:0:0:
72,168,72937,2,0,L|136:288,1,99.0000030212403
240,288,73237,1,8,0:0:0:0:
128,208,73387,1,0,0:0:0:0:
96,80,73537,1,0,0:0:0:0:
232,48,73687,1,0,0:0:0:0:
232,48,73837,2,0,P|272:80|304:144,1,99.0000030212403,8|0,0:0|0:0,0:0:0:0:
328,304,74137,2,0,P|256:208|256:192,1,99.0000030212403
128,88,74437,2,0,P|192:176|192:192,1,99.0000030212403,8|8,0:0|0:0,0:0:0:0:
192,200,74662,1,8,0:0:0:0:
184,240,74737,1,2,0:0:0:0:
88,312,74887,5,0,0:0:0:0:
200,344,75037,2,0,P|280:336|312:304,1,99.0000030212403,8|0,0:0|0:0,0:0:0:0:
360,224,75337,1,0,0:0:0:0:
176,200,75487,2,0,P|256:160|272:160,1,99.0000030212403,0|8,0:0|0:0,0:0:0:0:
392,192,75787,1,0,0:0:0:0:
304,336,75937,1,0,0:0:0:0:
304,336,76087,1,0,0:0:0:0:
112,240,76237,1,8,0:0:0:0:
112,240,76387,1,0,0:0:0:0:
208,48,76537,1,0,0:0:0:0:
208,48,76687,1,0,0:0:0:0:
400,144,76837,1,8,0:0:0:0:
400,144,76987,1,0,0:0:0:0:
416,272,77137,6,0,B|376:312|376:312|320:312,1,99.0000030212403
256,208,77437,1,8,0:0:0:0:
168,296,77587,2,0,B|120:288|120:288|80:224,1,99.0000030212403
80,120,77887,1,0,0:0:0:0:
208,48,78037,2,0,P|296:88|304:112,1,99.0000030212403,8|0,0:0|0:0,0:0:0:0:
320,256,78337,1,0,0:0:0:0:
320,256,78487,1,0,0:0:0:0:
224,160,78637,2,0,P|205:111|128:56,2,99.0000030212403,8|0|0,0:0|0:0|0:0,0:0:0:0:
184,312,79087,1,0,0:0:0:0:
48,232,79237,1,8,0:0:0:0:
56,192,79312,1,8,0:0:0:0:
80,160,79387,1,8,0:0:0:0:
112,136,79462,1,8,0:0:0:0:
144,120,79537,6,0,P|232:120|264:160,1,99.0000030212403,2|0,0:0|0:0,0:0:0:0:
392,216,79837,2,0,P|320:200|264:216,1,99.0000030212403,8|0,0:0|0:0,0:0:0:0:
296,203,80137,1,0,0:0:0:0:
192,280,80287,2,0,P|151:247|128:200,1,99.0000030212403,0|8,0:0|0:0,0:0:0:0:
128,80,80587,1,0,0:0:0:0:
256,96,80737,2,0,P|336:160|352:184,1,99.0000030212403
128,344,81037,2,0,P|48:280|32:256,1,99.0000030212403,8|0,0:0|0:0,0:0:0:0:
344,40,81337,2,0,P|424:104|440:128,1,99.0000030212403
232,304,81637,2,0,P|152:240|136:216,1,99.0000030212403,8|0,0:0|0:0,0:0:0:0:
96,144,81937,5,2,0:0:0:0:
184,64,82087,1,0,0:0:0:0:
296,104,82237,2,0,P|336:144|400:160,1,99.0000030212403,8|0,0:0|0:0,0:0:0:0:
232,288,82537,2,0,P|168:232|120:216,1,99.0000030212403
136,96,82837,1,8,0:0:0:0:
328,256,82987,1,0,0:0:0:0:
400,160,83137,1,2,0:0:0:0:
472,256,83287,1,0,0:0:0:0:
400,160,83437,2,0,L|400:24,1,99.0000030212403,8|0,0:0|0:0,0:0:0:0:
112,224,83737,2,0,L|112:344,1,99.0000030212403
368,336,84037,1,8,0:0:0:0:
216,232,84187,5,8,0:0:0:0:
216,232,84262,1,8,0:0:0:0:
216,232,84337,2,0,P|296:168|320:176,1,99.0000030212403,2|0,0:0|0:0,0:0:0:0:
432,72,84637,1,8,0:0:0:0:
352,184,84787,1,0,0:0:0:0:
312,48,84937,2,0,L|200:48,1,99.0000030212403
224,328,85237,2,0,L|352:328,1,99.0000030212403,8|0,0:0|0:0,0:0:0:0:
88,144,85537,2,0,L|88:264,1,99.0000030212403
432,232,85837,2,0,L|432:120,1,99.0000030212403,8|0,0:0|0:0,0:0:0:0:
120,64,86137,2,0,L|216:152,1,99.0000030212403
392,320,86437,2,0,L|296:232,1,99.0000030212403,8|0,0:0|0:0,0:0:0:0:
256,152,86737,5,0,0:0:0:0:
176,304,86887,2,0,P|120:272|96:232,1,99.0000030212403,0|8,0:0|0:0,0:0:0:0:
112,48,87187,1,0,0:0:0:0:
256,208,87337,1,0,0:0:0:0:
176,96,87487,2,0,P|216:64|288:64,1,99.0000030212403,0|8,0:0|0:0,0:0:0:0:
424,176,87787,1,0,0:0:0:0:
394,328,87937,5,0,0:0:0:0:
360,328,88012,1,0,0:0:0:0:
326,328,88087,1,0,0:0:0:0:
292,328,88162,1,0,0:0:0:0:
258,328,88237,1,0,0:0:0:0:
224,327,88312,1,0,0:0:0:0:
190,328,88387,1,0,0:0:0:0:
156,327,88462,1,0,0:0:0:0:
122,328,88537,5,8,0:0:0:0:
48,48,88837,1,8,0:0:0:0:
296,312,89137,6,0,P|344:296|376:224,1,99.0000030212403,4|0,0:0|0:0,0:0:0:0:
440,80,89437,1,8,0:0:0:0:
336,176,89587,2,0,P|248:228|168:160,1,198.000006042481
176,181,90037,1,8,0:0:0:0:
48,56,90187,1,0,0:0:0:0:
168,72,90337,2,0,P|120:136|72:144,1,99.0000030212403
344,312,90637,2,0,P|392:248|440:240,1,99.0000030212403,8|0,0:0|0:0,0:0:0:0:
112,256,90937,2,0,P|176:304|184:352,1,99.0000030212403
392,128,91237,2,0,P|328:80|320:32,1,99.0000030212403,8|0,0:0|0:0,0:0:0:0:
256,160,91537,5,2,0:0:0:0:
256,160,91687,1,0,0:0:0:0:
152,104,91837,2,0,L|48:32,1,99.0000030212403,8|0,0:0|0:0,0:0:0:0:
256,240,92137,2,0,L|256:368,1,99.0000030212403
360,104,92437,2,0,L|464:32,1,99.0000030212403
256,160,92737,1,2,0:0:0:0:
256,160,92887,1,0,0:0:0:0:
441,47,93037,2,0,L|360:104,1,99.0000030212403,8|0,0:0|0:0,0:0:0:0:
256,339,93338,2,0,L|256:240,1,99.0000030212403
70,47,93637,1,8,0:0:0:0:
184,168,93787,1,8,0:0:0:0:
168,208,93862,1,8,0:0:0:0:
136,232,93937,1,2,0:0:0:0:
40,328,94087,6,0,P|160:328|168:320,1,99.0000030212403,0|8,0:0|0:0,0:0:0:0:
224,272,94387,1,0,0:0:0:0:
320,344,94537,1,0,0:0:0:0:
480,208,94687,2,0,L|384:280,1,99.0000030212403,0|8,0:0|0:0,0:0:0:0:
312,184,94987,1,0,0:0:0:0:
216,32,95137,2,0,P|176:80|168:120,1,99.0000030212403
336,176,95437,2,0,P|368:88|360:48,1,99.0000030212403,8|0,0:0|0:0,0:0:0:0:
160,216,95737,2,0,P|184:296|208:320,1,99.0000030212403
336,344,96037,2,0,P|360:272|344:224,1,99.0000030212403,8|0,0:0|0:0,0:0:0:0:
264,48,96337,5,2,0:0:0:0:
176,128,96487,1,0,0:0:0:0:
48,344,96637,2,0,L|112:216,1,99.0000030212403,8|0,0:0|0:0,0:0:0:0:
320,344,96937,2,0,L|264:248,1,99.0000030212403
176,56,97237,2,0,L|176:176,1,99.0000030212403,8|0,0:0|0:0,0:0:0:0:
304,184,97537,1,2,0:0:0:0:
408,256,97687,1,0,0:0:0:0:
312,344,97837,2,0,P|208:336|192:320,1,99.0000030212403,8|0,0:0|0:0,0:0:0:0:
112,264,98137,1,0,0:0:0:0:
176,144,98287,1,8,0:0:0:0:
256,256,98437,5,8,0:0:0:0:
256,256,98512,1,8,0:0:0:0:
256,256,98587,1,8,0:0:0:0:
256,256,98662,1,8,0:0:0:0:
256,256,98737,2,0,P|368:264|392:248,1,99.0000030212403,2|0,0:0|0:0,0:0:0:0:
408,152,99037,2,0,P|336:120|304:112,1,99.0000030212403,8|0,0:0|0:0,0:0:0:0:
88,80,99337,2,0,P|112:136|168:176,1,99.0000030212403,0|0,0:0|0:0,0:0:0:0:
336,136,99637,2,0,P|360:240|352:256,1,99.0000030212403,8|0,0:0|0:0,0:0:0:0:
304,336,99937,1,0,0:0:0:0:
304,336,100087,1,0,0:0:0:0:
112,336,100237,1,8,0:0:0:0:
112,336,100387,1,0,0:0:0:0:
208,168,100537,1,0,0:0:0:0:
208,168,100687,1,0,0:0:0:0:
304,336,100837,1,8,0:0:0:0:
304,336,100987,1,0,0:0:0:0:
416,224,101137,6,0,L|464:112,1,99.0000030212403,2|0,0:0|0:0,0:0:0:0:
320,144,101437,2,0,L|320:32,1,99.0000030212403,8|0,0:0|0:0,0:0:0:0:
224,224,101737,2,0,L|152:112,1,99.0000030212403
320,240,102037,1,8,0:0:0:0:
256,344,102187,1,0,0:0:0:0:
416,336,102337,2,0,L|416:224,1,99.0000030212403,2|0,0:0|0:0,0:0:0:0:
256,240,102637,2,0,L|256:360,1,99.0000030212403,8|0,0:0|0:0,0:0:0:0:
96,336,102937,2,0,L|96:232,1,99.0000030212403
120,112,103237,1,8,0:0:0:0:
256,56,103387,1,8,0:0:0:0:
256,104,103462,1,8,0:0:0:0:
256,152,103537,1,2,0:0:0:0:
120,216,103687,6,0,P|184:272|208:272,1,99.0000030212403,0|8,0:0|0:0,0:0:0:0:
384,216,103987,2,0,P|472:256|488:296,1,99.0000030212403
288,336,104287,2,0,P|224:296|216:272,1,99.0000030212403,0|8,0:0|0:0,0:0:0:0:
368,152,104587,2,0,P|312:104|288:96,1,99.0000030212403
96,48,104887,2,0,P|88:112|128:152,1,99.0000030212403,0|8,0:0|0:0,0:0:0:0:
168,328,105187,2,0,P|248:304|304:320,1,99.0000030212403
424,144,105487,2,0,P|352:128|328:104,1,99.0000030212403
232,56,105787,1,0,0:0:0:0:
128,128,105937,5,2,0:0:0:0:
272,328,106237,2,0,P|325:339|408:304,1,99.0000030212403
368,330,106537,2,0,P|400:256|400:208,1,99.0000030212403
401,239,106837,2,0,P|320:200|312:200,1,99.0000030212403
184,224,107137,5,8,0:0:0:0:
112,328,107287,1,8,0:0:0:0:
24,224,107437,1,8,0:0:0:0:
104,112,107587,1,8,0:0:0:0:
240,40,107737,1,8,0:0:0:0:
272,56,107812,1,8,0:0:0:0:
296,80,107887,1,8,0:0:0:0:
320,104,107962,1,8,0:0:0:0:
344,128,108037,1,8,0:0:0:0:
360,160,108112,1,8,0:0:0:0:
376,192,108187,1,8,0:0:0:0:
384,224,108262,1,8,0:0:0:0:
384,256,108337,1,4,0:0:0:0:
142,240,117337,6,0,P|269:312|374:204,1,288,0|4,0:0|0:0,0:0:0:0:
408,48,118237,6,0,P|378:94|314:127,1,107.999996704102,8|0,0:0|0:0,0:0:0:0:
120,296,118687,2,0,P|64:256|56:200,2,107.999996704102,0|8|0,0:0|0:0|0:0,0:0:0:0:
240,344,119137,2,0,P|281:350|348:344,1,107.999996704102
456,272,119437,1,8,0:0:0:0:
344,208,119587,2,0,P|240:200|200:168,1,107.999996704102
64,128,119887,2,0,P|80:176|144:208,1,107.999996704102,0|8,0:0|0:0,0:0:0:0:
208,312,120187,1,0,0:0:0:0:
280,208,120337,6,0,P|352:256|376:288,1,107.999996704102,2|0,0:0|0:0,0:0:0:0:
464,144,120637,1,8,0:0:0:0:
464,144,120787,2,0,P|392:104|336:96,1,107.999996704102
112,224,121087,1,0,0:0:0:0:
112,224,121237,2,0,P|208:184|240:200,2,107.999996704102,8|0|0,0:0|0:0|0:0,0:0:0:0:
184,328,121687,2,0,P|256:344|312:312,1,107.999996704102,0|8,0:0|0:0,0:0:0:0:
423,187,121987,1,0,0:0:0:0:
423,187,122137,2,0,P|372:203|320:192,1,107.999996704102
112,120,122437,2,0,P|192:136|232:176,1,107.999996704102,8|0,0:0|0:0,0:0:0:0:
80,328,122737,5,4,0:0:0:0:
432,328,123037,1,0,0:0:0:0:
432,56,123337,1,4,0:0:0:0:
80,56,123637,1,0,0:0:0:0:
256,192,123937,12,0,126037,0:0:0:0:
256,192,126187,5,0,0:0:0:0:
256,192,126262,1,0,0:0:0:0:
256,192,126337,1,8,0:0:0:0:
256,192,126487,1,8,0:0:0:0:
176,204,128137,6,0,L|264:204|352:204,1,161.999995056153
256,192,128737,12,0,130837,0:0:0:0:
256,192,130987,5,0,0:0:0:0:
256,192,131062,1,0,0:0:0:0:
256,192,131137,1,8,0:0:0:0:
256,192,131287,1,8,0:0:0:0:
72,96,132337,5,0,0:0:0:0:
192,96,132487,1,0,0:0:0:0:
312,96,132637,1,0,0:0:0:0:
432,96,132787,1,0,0:0:0:0:
432,272,132937,5,8,0:0:0:0:
312,272,133087,1,8,0:0:0:0:
192,272,133237,1,8,0:0:0:0:
72,272,133387,1,8,0:0:0:0:
120,160,133537,5,0,0:0:0:0:
224,288,133687,1,0,0:0:0:0:
272,112,133837,2,0,P|328:128|352:176,2,99.0000030212403,8|0|0,0:0|0:0|0:0,0:0:0:0:
168,56,134287,2,0,P|160:136|168:152,1,99.0000030212403,0|8,0:0|0:0,0:0:0:0:
344,328,134587,2,0,P|352:248|344:232,1,99.0000030212403
296,32,134887,2,0,P|234:83|229:100,1,99.0000030212403,0|8,0:0|0:0,0:0:0:0:
216,352,135187,2,0,P|278:301|283:284,1,99.0000030212403
408,104,135487,2,0,P|328:96|312:104,1,99.0000030212403,0|8,0:0|0:0,0:0:0:0:
104,280,135787,2,0,P|184:288|200:280,1,99.0000030212403
432,224,136087,6,0,P|381:162|364:157,1,99.0000030212403,0|8,0:0|0:0,0:0:0:0:
64,160,136387,2,0,P|115:222|132:227,1,99.0000030212403
352,328,136687,2,0,P|360:249|352:233,1,99.0000030212403,0|8,0:0|0:0,0:0:0:0:
152,56,136987,2,0,P|144:136|153:153,1,99.0000030212403
64,232,137287,1,0,0:0:0:0:
200,320,137437,2,0,P|280:328|304:296,1,99.0000030212403,8|0,0:0|0:0,0:0:0:0:
384,64,137737,2,0,L|336:160,1,99.0000030212403
232,56,138037,2,0,L|184:160,1,99.0000030212403,8|0,0:0|0:0,0:0:0:0:
288,280,138337,5,2,0:0:0:0:
176,216,138487,2,0,P|88:168|64:176,1,99.0000030212403,0|8,0:0|0:0,0:0:0:0:
96,167,138787,1,0,0:0:0:0:
168,56,138937,2,0,B|216:40|216:40|296:64,1,99.0000030212403
176,192,139237,2,0,L|41:192,1,99.0000030212403,8|0,0:0|0:0,0:0:0:0:
336,192,139537,2,0,L|462:192,1,99.0000030212403
199,248,139837,2,0,L|104:344,1,99.0000030212403,8|0,0:0|0:0,0:0:0:0:
312,135,140137,2,0,L|402:45,1,99.0000030212403
256,272,140437,2,0,L|256:406,1,99.0000030212403,8|0,0:0|0:0,0:0:0:0:
256,112,140737,6,0,L|256:-14,1,99.0000030212403
312,248,141037,2,0,L|408:344,1,99.0000030212403,8|0,0:0|0:0,0:0:0:0:
199,135,141337,2,0,L|109:45,1,99.0000030212403
336,192,141637,2,0,L|470:192,1,99.0000030212403,8|0,0:0|0:0,0:0:0:0:
456,64,141937,1,0,0:0:0:0:
336,112,142087,1,0,0:0:0:0:
184,64,142237,2,0,B|232:16|304:40,1,99.0000030212403,8|0,0:0|0:0,0:0:0:0:
416,224,142537,2,0,P|360:288|312:296,1,99.0000030212403
224,320,142837,1,8,0:0:0:0:
112,272,142987,5,8,0:0:0:0:
80,232,143062,1,0,0:0:0:0:
64,184,143137,2,0,P|104:136|184:128,1,99.0000030212403,4|0,0:0|0:0,0:0:0:0:
264,264,143437,1,8,0:0:0:0:
384,168,143587,2,0,P|336:80|216:80,1,198.000006042481
96,120,144037,1,8,0:0:0:0:
248,184,144187,1,0,0:0:0:0:
104,256,144337,2,0,P|216:296|232:288,1,99.0000030212403
320,264,144637,1,8,0:0:0:0:
232,160,144787,2,0,P|248:80|352:120,1,198.000006042481
400,200,145237,2,0,B|440:224|440:224|504:192,2,99.0000030212403,8|0|2,0:0|0:0|0:0,0:0:0:0:
232,72,145687,5,0,0:0:0:0:
344,96,145837,1,8,0:0:0:0:
120,112,145987,2,0,P|88:192|96:208,1,99.0000030212403
144,320,146287,1,0,0:0:0:0:
256,240,146437,2,0,P|240:184|176:160,1,99.0000030212403,8|0,0:0|0:0,0:0:0:0:
80,80,146737,5,0,0:0:0:0:
72,104,146812,1,0,0:0:0:0:
64,128,146887,1,0,0:0:0:0:
64,152,146962,1,0,0:0:0:0:
64,176,147037,1,8,0:0:0:0:
72,200,147112,1,0,0:0:0:0:
88,224,147187,1,0,0:0:0:0:
104,240,147262,1,0,0:0:0:0:
128,256,147337,5,0,0:0:0:0:
152,264,147412,1,0,0:0:0:0:
176,272,147487,1,0,0:0:0:0:
200,272,147562,1,0,0:0:0:0:
224,264,147637,1,8,0:0:0:0:
240,248,147712,1,8,0:0:0:0:
256,232,147787,1,8,0:0:0:0:
264,208,147862,1,8,0:0:0:0:
264,184,147937,1,4,0:0:0:0:
256,192,148087,12,0,150037,0:0:0:0:
256,192,150187,5,0,0:0:0:0:
256,192,150262,1,0,0:0:0:0:
256,192,150337,1,8,0:0:0:0:
256,192,150487,1,8,0:0:0:0:
432,72,151537,6,8,P|384:120|336:104,1,90,0|8,0:0|0:0,0:0:0:0:
256,192,151837,1,0,0:0:0:0:
200,48,151987,1,8,0:0:0:0:
72,112,152137,1,8,0:0:0:0:
64,152,152212,1,8,0:0:0:0:
64,184,152287,1,8,0:0:0:0:
80,216,152362,1,8,0:0:0:0:
104,248,152437,1,8,0:0:0:0:
136,272,152512,1,8,0:0:0:0:
168,288,152587,1,8,0:0:0:0:
200,296,152662,1,8,0:0:0:0:
232,296,152737,6,0,P|304:272|328:224,1,107.999996704102,4|0,0:0|0:0,0:0:0:0:
408,64,153037,2,0,P|344:136|304:136,1,107.999996704102,8|0,0:0|0:0,0:0:0:0:
200,104,153337,1,0,0:0:0:0:
304,200,153487,1,0,0:0:0:0:
392,312,153637,2,0,P|320:312|272:288,1,107.999996704102,8|0,0:0|0:0,0:0:0:0:
64,48,154087,1,0,0:0:0:0:
64,192,154237,1,8,0:0:0:0:
64,328,154387,1,0,0:0:0:0:
448,328,154687,1,0,0:0:0:0:
336,232,154837,1,8,0:0:0:0:
440,128,154987,1,0,0:0:0:0:
328,48,155137,1,0,0:0:0:0:
192,80,155287,6,0,B|160:128|160:128|224:192,1,107.999996704102,0|8,0:0|0:0,0:0:0:0:
280,280,155587,2,0,P|343:273|384:232,1,107.999996704102
375,245,155887,1,0,0:0:0:0:
288,136,156037,2,0,B|248:168|248:168|160:136,1,107.999996704102,8|0,0:0|0:0,0:0:0:0:
80,64,156337,1,2,0:0:0:0:
56,200,156487,2,0,L|24:304,1,107.999996704102,0|8,0:0|0:0,0:0:0:0:
56,200,156787,2,0,L|176:280,1,107.999996704102
240,344,157087,1,0,0:0:0:0:
360,224,157237,1,8,0:0:0:0:
208,160,157387,5,8,0:0:0:0:
216,112,157462,1,8,0:0:0:0:
240,72,157537,2,0,P|320:56|360:96,1,107.999996704102,2|0,0:0|0:0,0:0:0:0:
464,216,157837,2,0,P|384:224|360:200,1,107.999996704102,8|0,0:0|0:0,0:0:0:0:
216,80,158137,2,0,P|160:80|112:136,1,107.999996704102
64,208,158437,1,8,0:0:0:0:
136,320,158587,1,0,0:0:0:0:
368,64,158887,1,0,0:0:0:0:
368,64,159037,2,0,P|392:120|368:184,1,107.999996704102,8|0,0:0|0:0,0:0:0:0:
136,320,159487,1,0,0:0:0:0:
136,320,159637,2,0,P|128:224|152:184,1,107.999996704102,8|0,0:0|0:0,0:0:0:0:
184,56,159937,6,0,L|248:152,1,107.999996704102,2|0,0:0|0:0,0:0:0:0:
360,48,160237,2,0,L|432:152,1,107.999996704102,8|0,0:0|0:0,0:0:0:0:
392,272,160537,2,0,P|344:296|280:280,2,107.999996704102,0|0|8,0:0|0:0|0:0,0:0:0:0:
456,176,160987,2,0,P|448:104|296:72,1,215.999993408203
56,176,161437,1,8,0:0:0:0:
56,176,161587,2,0,P|88:112|152:96,1,107.999996704102,0|0,0:0|0:0,0:0:0:0:
240,88,161887,1,8,0:0:0:0:
304,224,162037,5,8,0:0:0:0:
304,224,162112,1,8,0:0:0:0:
304,224,162187,1,8,0:0:0:0:
304,224,162262,1,8,0:0:0:0:
304,224,162337,2,0,P|240:256|232:296,1,107.999996704102,4|0,0:0|0:0,0:0:0:0:
344,344,162637,2,0,P|424:288|416:248,1,107.999996704102,8|0,0:0|0:0,0:0:0:0:
400,168,162937,1,0,0:0:0:0:
296,88,163087,1,0,0:0:0:0:
168,88,163237,1,8,0:0:0:0:
64,168,163387,2,0,L|128:256,1,107.999996704102
432,80,163687,2,0,L|360:192,1,107.999996704102,0|8,0:0|0:0,0:0:0:0:
104,40,163987,2,0,L|176:144,1,107.999996704102
168,312,164287,2,0,P|80:320|40:272,1,107.999996704102,0|8,0:0|0:0,0:0:0:0:
328,312,164587,2,0,P|424:320|448:304,1,107.999996704102
416,184,164887,5,0,0:0:0:0:
416,184,165037,2,0,L|344:80,1,107.999996704102,8|0,0:0|0:0,0:0:0:0:
232,48,165337,1,0,0:0:0:0:
136,152,165487,1,0,0:0:0:0:
232,256,165637,1,8,0:0:0:0:
328,152,165787,2,0,P|400:200|400:256,1,107.999996704102
440,336,166087,1,0,0:0:0:0:
440,336,166237,1,8,0:0:0:0:
312,336,166387,2,0,L|176:288,1,107.999996704102
312,224,166687,2,0,L|424:184,1,107.999996704102,0|8,0:0|0:0,0:0:0:0:
480,72,166987,5,8,0:0:0:0:
440,48,167062,1,8,0:0:0:0:
392,48,167137,2,0,P|320:80|320:136,1,107.999996704102,2|0,0:0|0:0,0:0:0:0:
256,248,167437,1,8,0:0:0:0:
200,104,167587,1,0,0:0:0:0:
144,248,167737,1,0,0:0:0:0:
88,104,167887,1,0,0:0:0:0:
40,248,168037,1,8,0:0:0:0:
144,352,168187,2,0,P|248:328|288:352,1,107.999996704102
392,208,168487,2,0,P|296:192|264:208,1,107.999996704102,0|8,0:0|0:0,0:0:0:0:
144,64,168787,2,0,P|240:48|264:64,1,107.999996704102
432,152,169087,2,0,P|448:224|432:256,1,107.999996704102,0|8,0:0|0:0,0:0:0:0:
96,256,169387,2,0,P|72:192|96:144,1,107.999996704102,0|2,0:0|0:0,0:0:0:0:
200,56,169687,5,0,0:0:0:0:
312,128,169837,1,8,0:0:0:0:
312,256,169987,1,0,0:0:0:0:
208,336,170137,2,0,P|144:312|128:264,1,107.999996704102
192,112,170437,2,0,P|248:168|288:160,1,107.999996704102,8|0,0:0|0:0,0:0:0:0:
352,40,170737,5,0,0:0:0:0:
376,64,170812,1,0,0:0:0:0:
392,96,170887,1,0,0:0:0:0:
400,128,170962,1,0,0:0:0:0:
400,160,171037,1,0,0:0:0:0:
400,192,171112,1,0,0:0:0:0:
392,224,171187,1,0,0:0:0:0:
384,256,171262,1,0,0:0:0:0:
368,280,171337,5,8,0:0:0:0:
128,40,171637,1,8,0:0:0:0:
33,218,171937,5,0,0:0:0:0:
38,252,172012,1,0,0:0:0:0:
54,282,172087,1,0,0:0:0:0:
70,312,172162,1,0,0:0:0:0:
98,332,172237,1,8,0:0:0:0:
131,342,172312,1,0,0:0:0:0:
165,338,172387,1,0,0:0:0:0:
195,320,172462,1,0,0:0:0:0:
232,299,172537,1,0,0:0:0:0:
266,294,172612,1,0,0:0:0:0:
299,301,172687,1,0,0:0:0:0:
328,318,172762,1,0,0:0:0:0:
359,332,172837,1,8,0:0:0:0:
390,345,172912,1,0,0:0:0:0:
426,349,172987,1,0,0:0:0:0:
454,337,173062,1,0,0:0:0:0:
480,314,173137,5,0,0:0:0:0:
497,284,173212,1,0,0:0:0:0:
504,250,173287,1,0,0:0:0:0:
504,215,173362,1,0,0:0:0:0:
498,180,173437,1,8,0:0:0:0:
488,146,173512,1,0,0:0:0:0:
473,114,173587,1,0,0:0:0:0:
450,87,173662,1,0,0:0:0:0:
426,61,173737,1,0,0:0:0:0:
396,42,173812,1,0,0:0:0:0:
360,29,173887,1,0,0:0:0:0:
324,21,173962,1,0,0:0:0:0:
287,23,174037,1,8,0:0:0:0:
251,30,174112,1,0,0:0:0:0:
218,41,174187,1,0,0:0:0:0:
188,58,174262,1,0,0:0:0:0:
161,80,174337,5,0,0:0:0:0:
140,107,174412,1,0,0:0:0:0:
124,138,174487,1,0,0:0:0:0:
122,172,174562,1,0,0:0:0:0:
129,205,174637,1,8,0:0:0:0:
142,236,174712,1,0,0:0:0:0:
165,261,174787,1,0,0:0:0:0:
193,280,174862,1,0,0:0:0:0:
226,290,174937,1,0,0:0:0:0:
260,284,175012,1,0,0:0:0:0:
290,268,175087,1,0,0:0:0:0:
313,242,175162,1,0,0:0:0:0:
337,217,175237,1,8,0:0:0:0:
369,204,175312,1,0,0:0:0:0:
403,198,175387,1,0,0:0:0:0:
432,215,175462,1,0,0:0:0:0:
448,240,175537,6,0,L|477:305,3,49.5000015106202
466,319,175837,2,0,L|403:377,3,49.5000015106202,8|0|0|0,0:0|0:0|0:0|0:0,0:0:0:0:
395,360,176137,2,0,L|314:349,3,49.5000015106202
311,348,176437,1,8,0:0:0:0:
168,232,176587,2,8,L|213:259,1,49.5000015106202
241,274,176737,5,2,0:0:0:0:
273,287,176812,1,0,0:0:0:0:
306,293,176887,1,0,0:0:0:0:
340,297,176962,1,0,0:0:0:0:
374,292,177037,1,8,0:0:0:0:
407,282,177112,1,0,0:0:0:0:
437,265,177187,1,0,0:0:0:0:
462,241,177262,1,0,0:0:0:0:
482,213,177337,1,0,0:0:0:0:
491,179,177412,1,0,0:0:0:0:
492,144,177487,1,0,0:0:0:0:
481,110,177562,1,0,0:0:0:0:
463,80,177637,1,8,0:0:0:0:
440,53,177712,1,0,0:0:0:0:
406,39,177787,1,0,0:0:0:0:
370,35,177862,1,0,0:0:0:0:
336,42,177937,5,0,0:0:0:0:
305,58,178012,1,0,0:0:0:0:
277,78,178087,1,0,0:0:0:0:
260,108,178162,1,0,0:0:0:0:
254,142,178237,1,8,0:0:0:0:
245,175,178312,1,0,0:0:0:0:
237,208,178387,1,0,0:0:0:0:
222,239,178462,1,0,0:0:0:0:
205,269,178537,1,0,0:0:0:0:
180,293,178612,1,0,0:0:0:0:
148,307,178687,1,0,0:0:0:0:
113,313,178762,1,0,0:0:0:0:
78,307,178837,1,8,0:0:0:0:
45,295,178912,1,0,0:0:0:0:
23,267,178987,1,0,0:0:0:0:
11,234,179062,1,0,0:0:0:0:
7,199,179137,5,0,0:0:0:0:
17,165,179212,1,0,0:0:0:0:
32,134,179287,1,0,0:0:0:0:
61,116,179362,1,0,0:0:0:0:
95,109,179437,1,8,0:0:0:0:
129,111,179512,1,0,0:0:0:0:
160,125,179587,1,0,0:0:0:0:
185,148,179662,1,0,0:0:0:0:
197,180,179737,1,0,0:0:0:0:
205,213,179812,1,0,0:0:0:0:
214,246,179887,1,0,0:0:0:0:
225,278,179962,1,0,0:0:0:0:
242,307,180037,1,8,0:0:0:0:
263,333,180112,1,0,0:0:0:0:
288,344,180187,6,0,P|376:320|416:232,1,161.999995056153
408,144,180637,1,8,0:0:0:0:
408,144,180712,1,0,0:0:0:0:
408,144,180787,2,0,P|352:64|264:72,1,161.999995056153
72,72,181237,1,8,0:0:0:0:
72,72,181312,1,8,0:0:0:0:
72,72,181387,1,8,0:0:0:0:
72,72,181462,1,0,0:0:0:0:
72,72,181537,6,0,L|40:144,3,49.5000015106202,2|0|0|8,0:0|0:0|0:0|0:0,0:0:0:0:
32,146,181837,1,8,0:0:0:0:
20,178,181912,1,0,0:0:0:0:
18,212,181987,1,0,0:0:0:0:
23,246,182062,1,0,0:0:0:0:
34,278,182137,1,0,0:0:0:0:
47,309,182212,1,0,0:0:0:0:
68,336,182287,1,0,0:0:0:0:
95,356,182362,1,0,0:0:0:0:
127,368,182437,1,8,0:0:0:0:
161,372,182512,1,0,0:0:0:0:
195,372,182587,1,0,0:0:0:0:
229,366,182662,1,0,0:0:0:0:
261,354,182737,5,0,0:0:0:0:
287,331,182812,1,0,0:0:0:0:
304,300,182887,1,0,0:0:0:0:
306,265,182962,1,0,0:0:0:0:
299,231,183037,1,8,0:0:0:0:
279,202,183112,1,0,0:0:0:0:
248,185,183187,1,0,0:0:0:0:
213,185,183262,1,0,0:0:0:0:
180,198,183337,1,0,0:0:0:0:
148,211,183412,1,0,0:0:0:0:
113,214,183487,1,0,0:0:0:0:
82,198,183562,1,0,0:0:0:0:
59,171,183637,1,8,0:0:0:0:
47,138,183712,1,0,0:0:0:0:
47,103,183787,1,0,0:0:0:0:
51,68,183862,1,0,0:0:0:0:
73,41,183937,5,0,0:0:0:0:
103,25,184012,1,0,0:0:0:0:
136,16,184087,1,0,0:0:0:0:
169,26,184162,1,0,0:0:0:0:
194,49,184237,1,8,0:0:0:0:
215,75,184312,1,0,0:0:0:0:
241,97,184387,1,0,0:0:0:0:
274,106,184462,1,0,0:0:0:0:
305,91,184537,1,0,0:0:0:0:
331,68,184612,1,0,0:0:0:0:
362,53,184687,1,0,0:0:0:0:
396,49,184762,1,0,0:0:0:0:
430,53,184837,1,8,0:0:0:0:
458,72,184912,1,0,0:0:0:0:
478,100,184987,1,0,0:0:0:0:
487,133,185062,1,0,0:0:0:0:
481,165,185137,5,0,0:0:0:0:
464,195,185212,1,0,0:0:0:0:
437,217,185287,1,0,0:0:0:0:
406,232,185362,1,0,0:0:0:0:
371,235,185437,1,8,0:0:0:0:
337,227,185512,1,0,0:0:0:0:
304,213,185587,1,0,0:0:0:0:
275,193,185662,1,0,0:0:0:0:
257,162,185737,1,0,0:0:0:0:
249,128,185812,1,0,0:0:0:0:
251,93,185887,1,0,0:0:0:0:
265,61,185962,1,0,0:0:0:0:
294,41,186037,2,0,L|382:27,3,49.5000015106202,8|0|8|8,0:0|0:0|0:0|0:0,0:0:0:0:
377,33,186337,5,2,0:0:0:0:
409,44,186412,1,0,0:0:0:0:
438,62,186487,1,0,0:0:0:0:
462,86,186562,1,0,0:0:0:0:
479,115,186637,1,0,0:0:0:0:
495,145,186712,1,0,0:0:0:0:
506,177,186787,1,0,0:0:0:0:
512,212,186862,1,0,0:0:0:0:
509,246,186937,1,0,0:0:0:0:
499,279,187012,1,0,0:0:0:0:
484,310,187087,1,0,0:0:0:0:
458,333,187162,1,0,0:0:0:0:
427,349,187237,1,0,0:0:0:0:
393,356,187312,1,0,0:0:0:0:
359,347,187387,1,0,0:0:0:0:
328,331,187462,1,0,0:0:0:0:
295,312,187537,6,0,L|245:272,3,53.9999983520508
222,255,187837,2,0,L|176:216,3,53.9999983520508,0|0|0|0,0:0|0:0|0:0|0:0,0:0:0:0:
141,201,188137,1,0,0:0:0:0:
93,191,188212,1,0,0:0:0:0:
54,161,188287,1,0,0:0:0:0:
42,113,188362,1,0,0:0:0:0:
54,66,188437,1,0,0:0:0:0:
93,37,188512,1,0,0:0:0:0:
141,33,188587,1,0,0:0:0:0:
185,51,188662,1,0,0:0:0:0:
212,86,188737,1,4,0:0:0:0:
328,144,188887,6,0,L|432:208,1,99.0000030212403
328,264,189187,2,0,L|240:312,1,99.0000030212403
144,312,189487,1,0,0:0:0:0:
56,312,189637,1,0,0:0:0:0:
56,312,189787,1,0,0:0:0:0:
136,88,190087,5,0,0:0:0:0:
48,88,190237,1,0,0:0:0:0:
48,88,190387,1,0,0:0:0:0:
368,96,190687,5,0,0:0:0:0:
432,160,190837,2,0,P|459:215|440:256,1,99.0000030212403
256,192,191137,12,0,192187,0:0:0:0:
256,320,192337,6,0,P|200:240|176:232,1,90
72,48,192637,2,0,P|136:120|136:144,1,90
400,64,192937,1,8,0:0:0:0:
368,88,193012,1,8,0:0:0:0:
336,120,193087,1,8,0:0:0:0:
328,160,193162,1,8,0:0:0:0:
320,200,193237,1,8,0:0:0:0:
336,240,193312,1,8,0:0:0:0:
360,272,193387,1,8,0:0:0:0:
264,336,193537,5,4,0:0:0:0:
152,256,193687,1,0,0:0:0:0:
152,112,193837,1,8,0:0:0:0:
264,32,193987,1,0,0:0:0:0:
408,192,194137,1,0,0:0:0:0:
136,192,194287,1,0,0:0:0:0:
320,272,194437,2,0,P|272:336|238:335,1,107.999996704102,8|0,0:0|0:0,0:0:0:0:
40,280,194737,5,0,0:0:0:0:
144,192,194887,1,0,0:0:0:0:
256,280,195037,1,8,0:0:0:0:
368,192,195187,1,0,0:0:0:0:
432,336,195337,2,0,P|376:336|344:256,1,107.999996704102
64,48,195637,2,0,P|128:56|160:136,1,107.999996704102,8|0,0:0|0:0,0:0:0:0:
224,328,195937,5,0,0:0:0:0:
80,224,196087,1,0,0:0:0:0:
280,144,196237,2,0,L|384:48,2,107.999996704102,8|0|0,0:0|0:0|0:0,0:0:0:0:
144,184,196687,1,0,0:0:0:0:
256,264,196837,1,8,0:0:0:0:
416,200,196987,5,8,0:0:0:0:
416,200,197062,1,8,0:0:0:0:
416,200,197137,2,0,P|400:88|368:72,1,107.999996704102,2|0,0:0|0:0,0:0:0:0:
288,32,197437,2,0,P|272:88|296:144,1,107.999996704102,8|0,0:0|0:0,0:0:0:0:
288,168,197662,1,0,0:0:0:0:
288,208,197737,1,0,0:0:0:0:
200,320,197887,1,0,0:0:0:0:
88,240,198037,2,0,P|120:136|144:120,1,107.999996704102,8|0,0:0|0:0,0:0:0:0:
352,88,198337,5,0,0:0:0:0:
232,160,198487,1,0,0:0:0:0:
112,72,198637,2,0,P|64:112|64:176,1,107.999996704102,8|0,0:0|0:0,0:0:0:0:
57,154,198862,1,0,0:0:0:0:
57,154,198937,1,0,0:0:0:0:
144,304,199087,1,0,0:0:0:0:
296,328,199237,2,0,P|384:320|424:280,1,107.999996704102,8|0,0:0|0:0,0:0:0:0:
464,152,199537,6,0,P|384:168|336:144,1,107.999996704102
256,64,199837,1,8,0:0:0:0:
96,160,199987,1,0,0:0:0:0:
80,192,200062,1,0,0:0:0:0:
80,224,200137,2,0,P|96:280|160:296,1,107.999996704102
138,298,200437,1,8,0:0:0:0:
256,208,200587,5,0,0:0:0:0:
376,280,200737,1,8,0:0:0:0:
256,160,200887,5,0,0:0:0:0:
120,256,201037,1,8,0:0:0:0:
256,112,201187,5,0,0:0:0:0:
416,216,201337,1,8,0:0:0:0:
256,64,201487,5,0,0:0:0:0:
88,208,201637,1,8,0:0:0:0:
256,352,201787,1,0,0:0:0:0:
432,184,201937,6,0,P|408:104|352:64,1,107.999996704102,4|0,0:0|0:0,0:0:0:0:
184,40,202237,1,8,0:0:0:0:
320,176,202387,1,0,0:0:0:0:
152,264,202537,2,0,P|96:240|64:176,2,107.999996704102,0|0|8,0:0|0:0|0:0,0:0:0:0:
280,328,202987,1,0,0:0:0:0:
376,224,203137,6,0,P|456:168|496:176,1,107.999996704102
296,168,203437,2,0,P|344:80|392:64,1,107.999996704102,8|0,0:0|0:0,0:0:0:0:
192,168,203737,2,0,P|184:64|208:32,1,107.999996704102
112,224,204037,2,0,P|72:192|48:120,2,107.999996704102,8|0|0,0:0|0:0|0:0,0:0:0:0:
200,336,204487,5,0,0:0:0:0:
144,208,204637,1,8,0:0:0:0:
240,104,204787,1,0,0:0:0:0:
376,120,204937,1,0,0:0:0:0:
392,256,205087,2,0,P|344:304|280:320,1,107.999996704102,0|8,0:0|0:0,0:0:0:0:
264,328,205312,1,0,0:0:0:0:
224,320,205387,1,8,0:0:0:0:
184,296,205462,1,8,0:0:0:0:
160,264,205537,1,2,0:0:0:0:
104,112,205687,6,0,P|160:88|216:120,1,107.999996704102,0|8,0:0|0:0,0:0:0:0:
328,168,205987,1,0,0:0:0:0:
360,208,206062,1,0,0:0:0:0:
392,240,206137,2,0,P|443:298|488:304,1,107.999996704102
120,240,206437,2,0,P|89:288|24:312,1,107.999996704102,8|0,0:0|0:0,0:0:0:0:
40,112,206737,1,2,0:0:0:0:
200,200,206887,1,0,0:0:0:0:
296,307,207037,2,0,P|367:314|406:282,1,107.999996704102,8|0,0:0|0:0,0:0:0:0:
426,266,207262,1,0,0:0:0:0:
444,225,207337,1,0,0:0:0:0:
392,96,207487,1,0,0:0:0:0:
304,208,207637,1,8,0:0:0:0:
216,96,207787,1,0,0:0:0:0:
120,200,207937,6,0,P|56:168|24:112,1,107.999996704102,2|0,0:0|0:0,0:0:0:0:
168,248,208237,2,0,P|264:320|264:344,1,107.999996704102,8|0,0:0|0:0,0:0:0:0:
256,295,208462,1,0,0:0:0:0:
256,295,208537,1,0,0:0:0:0:
392,328,208687,1,0,0:0:0:0:
472,216,208837,6,0,P|456:144|416:96,1,107.999996704102,8|0,0:0|0:0,0:0:0:0:
96,128,209137,2,0,P|72:175|80:239,1,107.999996704102,8|0,0:0|0:0,0:0:0:0:
264,344,209437,2,0,P|336:328|376:273,1,107.999996704102,8|0,0:0|0:0,0:0:0:0:
400,104,209737,1,8,0:0:0:0:
376,80,209812,1,8,0:0:0:0:
344,64,209887,1,8,0:0:0:0:
320,48,209962,1,8,0:0:0:0:
288,40,210037,1,8,0:0:0:0:
256,32,210112,1,8,0:0:0:0:
224,32,210187,1,8,0:0:0:0:
192,32,210262,1,8,0:0:0:0:
152,40,210337,1,4,0:0:0:0:
48,144,210637,5,0,0:0:0:0:
48,184,210712,1,0,0:0:0:0:
56,216,210787,1,0,0:0:0:0:
80,248,210862,1,0,0:0:0:0:
104,272,210937,1,0,0:0:0:0:
136,296,211012,1,0,0:0:0:0:
168,312,211087,1,0,0:0:0:0:
208,318,211162,1,0,0:0:0:0:
248,312,211237,1,0,0:0:0:0:
288,304,211312,1,0,0:0:0:0:
320,288,211387,1,0,0:0:0:0:
352,264,211462,1,0,0:0:0:0:
376,240,211537,6,0,L|480:152,1,107.999996704102,8|0,0:0|0:0,0:0:0:0:
152,208,211837,2,0,L|40:136,1,107.999996704102,8|0,0:0|0:0,0:0:0:0:
352,144,212137,2,0,L|456:64,1,107.999996704102,8|0,0:0|0:0,0:0:0:0:
160,104,212437,2,0,L|64:40,1,107.999996704102,8|0,0:0|0:0,0:0:0:0:
256,40,212737,1,4,0:0:0:0:
256,40,215137,5,4,0:0:0:0:
408,96,215437,1,0,0:0:0:0:
416,128,215512,1,0,0:0:0:0:
416,160,215587,1,0,0:0:0:0:
416,192,215662,1,0,0:0:0:0:
408,224,215737,1,0,0:0:0:0:
400,256,215812,1,0,0:0:0:0:
384,280,215887,1,0,0:0:0:0:
360,304,215962,1,0,0:0:0:0:
336,320,216037,1,0,0:0:0:0:
304,336,216112,1,0,0:0:0:0:
272,336,216187,1,0,0:0:0:0:
240,336,216262,1,0,0:0:0:0:
208,336,216337,6,0,P|144:320|112:272,1,107.999996704102,8|0,0:0|0:0,0:0:0:0:
96,256,216562,1,0,0:0:0:0:
88,216,216637,2,0,P|120:136|144:128,1,107.999996704102,8|0,0:0|0:0,0:0:0:0:
176,128,216862,1,0,0:0:0:0:
216,128,216937,2,0,P|272:200|240:240,1,107.999996704102,8|0,0:0|0:0,0:0:0:0:
424,96,217237,5,8,0:0:0:0:
424,96,217312,1,8,0:0:0:0:
424,96,217387,1,8,0:0:0:0:
424,96,217462,1,8,0:0:0:0:
424,96,217537,2,0,P|328:112|296:88,1,107.999996704102,2|0,0:0|0:0,0:0:0:0:
144,32,217837,1,8,0:0:0:0:
256,160,217987,1,0,0:0:0:0:
144,32,218137,1,0,0:0:0:0:
32,160,218287,1,0,0:0:0:0:
32,160,218437,2,0,P|64:224|112:248,1,107.999996704102,8|0,0:0|0:0,0:0:0:0:
256,328,218737,5,0,0:0:0:0:
256,328,219037,1,0,0:0:0:0:
456,192,219337,1,8,0:0:0:0:
456,192,219412,1,8,0:0:0:0:
456,192,219487,1,8,0:0:0:0:
456,192,219562,1,8,0:0:0:0:
456,192,219637,1,8,0:0:0:0:
456,192,219712,1,8,0:0:0:0:
456,192,219787,1,8,0:0:0:0:
456,192,219862,1,8,0:0:0:0:
456,192,219937,6,0,L|408:262,3,53.9999983520508,2|0|0|0,0:0|0:0|0:0|0:0,0:0:0:0:
401,278,220237,1,8,0:0:0:0:
366,312,220312,1,0,0:0:0:0:
318,324,220387,1,0,0:0:0:0:
272,305,220462,1,0,0:0:0:0:
256,258,220537,1,8,0:0:0:0:
276,213,220612,1,0,0:0:0:0:
313,182,220687,1,0,0:0:0:0:
316,133,220762,1,0,0:0:0:0:
295,89,220837,1,8,0:0:0:0:
250,70,220912,1,0,0:0:0:0:
203,83,220987,1,0,0:0:0:0:
179,125,221062,1,0,0:0:0:0:
189,172,221137,5,8,0:0:0:0:
164,214,221212,1,0,0:0:0:0:
118,230,221287,1,0,0:0:0:0:
72,214,221362,1,0,0:0:0:0:
43,174,221437,1,8,0:0:0:0:
36,125,221512,1,0,0:0:0:0:
50,78,221587,1,0,0:0:0:0:
89,50,221662,1,0,0:0:0:0:
137,43,221737,1,8,0:0:0:0:
181,62,221812,1,0,0:0:0:0:
206,103,221887,1,0,0:0:0:0:
228,145,221962,1,0,0:0:0:0:
274,159,222037,1,8,0:0:0:0:
308,124,222112,1,0,0:0:0:0:
313,76,222187,1,0,0:0:0:0:
332,31,222262,1,0,0:0:0:0:
379,19,222337,5,10,0:0:0:0:
427,25,222412,1,0,0:0:0:0:
456,63,222487,1,0,0:0:0:0:
457,111,222562,1,0,0:0:0:0:
423,146,222637,1,8,0:0:0:0:
380,169,222712,1,0,0:0:0:0:
356,211,222787,1,0,0:0:0:0:
374,258,222862,1,0,0:0:0:0:
419,276,222937,1,8,0:0:0:0:
444,317,223012,1,0,0:0:0:0:
431,363,223087,1,0,0:0:0:0:
383,373,223162,1,0,0:0:0:0:
336,358,223237,1,8,0:0:0:0:
300,325,223312,1,0,0:0:0:0:
252,316,223387,1,0,0:0:0:0:
206,332,223462,1,0,0:0:0:0:
168,310,223537,6,0,L|135:267,3,53.9999983520508,8|0|0|0,0:0|0:0|0:0|0:0,0:0:0:0:
111,231,223837,2,0,L|98:162,3,53.9999983520508,8|0|0|0,0:0|0:0|0:0|0:0,0:0:0:0:
105,134,224137,2,0,L|134:64,3,53.9999983520508,8|0|0|0,0:0|0:0|0:0|0:0,0:0:0:0:
153,51,224437,2,0,L|229:18,3,53.9999983520508,8|0|0|0,0:0|0:0|0:0|0:0,0:0:0:0:
251,23,224737,5,10,0:0:0:0:
298,30,224812,1,0,0:0:0:0:
344,45,224887,1,0,0:0:0:0:
384,71,224962,1,0,0:0:0:0:
420,103,225037,1,8,0:0:0:0:
443,145,225112,1,0,0:0:0:0:
454,192,225187,1,0,0:0:0:0:
452,240,225262,1,0,0:0:0:0:
435,285,225337,1,8,0:0:0:0:
400,318,225412,1,0,0:0:0:0:
355,338,225487,1,0,0:0:0:0:
307,349,225562,1,0,0:0:0:0:
258,344,225637,1,8,0:0:0:0:
211,328,225712,1,0,0:0:0:0:
178,292,225787,1,0,0:0:0:0:
160,246,225862,1,0,0:0:0:0:
158,197,225937,5,10,0:0:0:0:
169,149,226012,1,0,0:0:0:0:
204,116,226087,1,0,0:0:0:0:
250,103,226162,1,0,0:0:0:0:
297,113,226237,1,8,0:0:0:0:
332,145,226312,1,0,0:0:0:0:
346,191,226387,1,0,0:0:0:0:
341,239,226462,1,0,0:0:0:0:
302,269,226537,1,8,0:0:0:0:
255,282,226612,2,0,L|255:178,6,53.9999983520508,0|0|0|8|0|0|0,0:0|0:0|0:0|0:0|0:0|0:0|0:0,0:0:0:0:
210,269,227137,5,8,0:0:0:0:
171,239,227212,1,0,0:0:0:0:
166,191,227287,1,0,0:0:0:0:
180,145,227362,1,0,0:0:0:0:
215,113,227437,1,8,0:0:0:0:
262,103,227512,1,0,0:0:0:0:
308,116,227587,1,0,0:0:0:0:
343,149,227662,1,0,0:0:0:0:
360,194,227737,2,0,L|343:295,7,53.9999983520508,8|0|0|0|8|0|0|0,0:0|0:0|0:0|0:0|0:0|0:0|0:0|0:0,0:0:0:0:
329,291,228337,5,10,0:0:0:0:
285,312,228412,1,0,0:0:0:0:
236,304,228487,1,0,0:0:0:0:
204,266,228562,1,0,0:0:0:0:
176,225,228637,1,8,0:0:0:0:
127,228,228712,1,0,0:0:0:0:
96,265,228787,1,0,0:0:0:0:
47,263,228862,1,0,0:0:0:0:
20,221,228937,1,8,0:0:0:0:
19,172,229012,1,0,0:0:0:0:
31,124,229087,1,0,0:0:0:0:
62,86,229162,1,0,0:0:0:0:
104,62,229237,2,0,L|175:40,4,53.9999983520508,8|0|0|0|4,0:0|0:0|0:0|0:0|0:0,0:0:0:0:
368,144,229837,5,2,0:0:0:0:
256,40,230137,1,2,0:0:0:0:
152,144,230437,1,2,0:0:0:0:
64,272,230587,1,0,0:0:0:0:
96,304,230662,1,0,0:0:0:0:
136,328,230737,2,0,P|208:344|240:320,1,90,8|0,0:0|0:0,0:0:0:0:
448,272,231187,1,0,0:0:0:0:
416,304,231262,1,0,0:0:0:0:
376,328,231337,2,0,P|304:344|272:320,3,90,8|0|0|0,0:0|0:0|0:0|0:0,0:0:0:0:
216,328,231937,5,4,0:0:0:0:
152,288,232087,1,0,0:0:0:0:
112,216,232237,1,0,0:0:0:0:
96,136,232387,2,0,P|152:88|232:96,1,144
296,120,232837,1,0,0:0:0:0:
296,120,232987,1,0,0:0:0:0:
352,176,233137,2,0,L|432:216,1,72
280,256,233437,2,0,L|200:256,1,72
360,336,233737,2,0,L|424:288,1,72
288,192,234037,2,0,L|288:264,1,72
232,320,234337,5,2,0:0:0:0:
232,320,234487,1,0,0:0:0:0:
144,296,234637,2,0,P|88:256|64:256,1,72
168,208,234937,2,0,P|128:176|88:168,1,72
208,128,235237,2,0,P|168:96|128:88,1,72
80,128,235537,1,2,0:0:0:0:
80,128,235687,1,0,0:0:0:0:
56,208,235837,2,0,P|112:248|144:240,1,72
96,328,236137,2,0,P|160:296|168:272,1,72
240,304,236437,2,0,P|232:248|192:224,2,72,0|0|2,0:0|0:0|0:0,0:0:0:0:
304,352,236887,5,0,0:0:0:0:
360,296,237037,1,0,0:0:0:0:
416,352,237187,2,0,P|464:312|456:216,1,144
424,168,237637,1,0,0:0:0:0:
360,216,237787,1,0,0:0:0:0:
288,248,237937,2,0,L|224:296,1,72
280,176,238237,2,0,L|208:136,1,72
352,176,238537,2,0,L|432:128,1,72
360,248,238837,2,0,L|416:296,1,72
344,336,239137,5,2,0:0:0:0:
264,344,239287,1,0,0:0:0:0:
232,272,239437,2,0,P|176:296|168:336,1,72
128,232,239737,2,0,P|112:296|120:312,1,72
24,288,240037,2,0,P|48:328|80:344,1,72
152,344,240337,1,2,0:0:0:0:
152,344,240487,1,0,0:0:0:0:
176,272,240637,2,0,L|256:208,1,72
168,184,240937,2,0,L|80:144,1,72
168,96,241237,2,0,L|240:32,1,72
272,112,241537,5,2,0:0:0:0:
304,184,241687,1,0,0:0:0:0:
376,224,241837,1,0,0:0:0:0:
456,232,241987,2,0,P|408:296|440:352,1,144
432,346,242437,1,0,0:0:0:0:
352,344,242587,1,0,0:0:0:0:
272,336,242737,2,0,L|192:272,1,72
88,176,243037,2,0,L|160:240,1,72
80,344,243337,2,0,L|144:288,1,72
272,184,243637,2,0,L|200:240,2,72,0|0|2,0:0|0:0|0:0,0:0:0:0:
320,120,244087,5,0,0:0:0:0:
384,168,244237,2,0,L|456:240,1,72
320,192,244537,2,0,L|320:264,1,72
256,160,244837,2,0,L|184:192,1,72
152,256,245137,1,2,0:0:0:0:
152,256,245287,1,0,0:0:0:0:
88,200,245437,2,0,L|8:144,1,72
152,184,245737,2,0,L|152:112,1,72
216,208,246037,2,0,L|280:160,1,72
288,88,246337,5,2,0:0:0:0:
360,128,246487,1,0,0:0:0:0:
376,208,246637,1,0,0:0:0:0:
328,272,246787,1,0,0:0:0:0:
256,296,246937,1,0,0:0:0:0:
176,288,247087,1,0,0:0:0:0:
112,248,247237,1,0,0:0:0:0:
72,184,247387,2,0,L|40:104,2,72
144,208,247837,2,0,L|184:288,1,72
192,152,248137,2,0,L|152:72,1,72
264,168,248437,2,0,L|304:248,1,72
336,304,248737,6,0,P|400:304|424:280,1,72,2|0,0:0|0:0,0:0:0:0:
448,240,249037,1,0,0:0:0:0:
448,240,249187,1,0,0:0:0:0:
416,168,249337,1,0,0:0:0:0:
416,168,249487,1,0,0:0:0:0:
336,184,249637,2,0,L|304:256,1,72
256,312,249937,2,0,B|232:328|232:328|176:320,1,72,2|0,0:0|0:0,0:0:0:0:
112,296,250237,1,0,0:0:0:0:
112,296,250387,1,0,0:0:0:0:
72,232,250537,1,0,0:0:0:0:
72,232,250687,1,0,0:0:0:0:
72,152,250837,2,0,P|98:111|144:84,1,72
256,192,251137,12,0,256537,0:0:0:0:
