osu file format v12

[General]
AudioFilename: Royal Republic - Everybody Wants To Be An Astronaut.mp3
AudioLeadIn: 0
PreviewTime: 132948
Countdown: 0
SampleSet: Normal
StackLeniency: 0.7
Mode: 0
LetterboxInBreaks: 0
WidescreenStoryboard: 1

[Editor]
DistanceSpacing: 0.5
BeatDivisor: 3
GridSize: 4
TimelineZoom: 1

[Metadata]
Title:Everybody Wants To Be An Astronaut
TitleUnicode:Everybody Wants To Be An Astronaut
Artist:Royal Republic
ArtistUnicode:Royal Republic
Creator:Vass_Bass
Version:Normal
Source:
Tags:Reiji-RJ
BeatmapID:377741
BeatmapSetID:134190

[Difficulty]
HPDrainRate:4
CircleSize:4
OverallDifficulty:4
ApproachRate:5
SliderMultiplier:1.3
SliderTickRate:1

[Events]
//Background and Video events
0,0,"bgg.jpg",0,0
//Break Periods
2,133130,143969
//Storyboard Layer 0 (Background)
//Storyboard Layer 1 (Fail)
//Storyboard Layer 2 (Pass)
//Storyboard Layer 3 (Foreground)
//Storyboard Sound Samples
//Background Colour Transformations
3,100,163,162,255

[TimingPoints]
13900,479.961603071754,4,1,1,60,1,0
40777,-100,4,1,1,50,0,0
41737,-100,4,1,1,45,0,0
42697,-100,4,1,1,65,0,1
56136,-100,4,1,1,60,0,0
83014,-100,4,1,1,50,0,0
84934,-100,4,1,1,65,0,1
98373,-100,4,1,1,60,0,0
102212,-100,4,1,1,50,0,0
105572,-100,4,1,1,40,0,0
106052,-100,4,1,1,50,0,0
108932,-100,4,1,1,40,0,0
109412,-100,4,1,1,50,0,0
109892,-100,4,1,1,50,0,0
115651,-100,4,1,1,40,0,0
116451,-100,4,1,1,50,0,0
117571,-100,4,1,1,55,0,0
129090,-100,4,1,1,50,0,0
132930,-100,4,1,1,25,0,0
146369,-100,4,1,1,60,0,1
146529,-100,4,1,1,60,0,0
158848,-100,4,1,1,50,0,0
159808,-100,4,1,1,60,0,1
177086,-100,4,1,1,60,0,0
180926,-100,4,1,1,60,0,1
181086,-100,4,1,1,60,0,0

[Colours]
Combo1 : 255,94,55
Combo2 : 173,255,95
Combo3 : 17,254,176
Combo4 : 255,88,100

[HitObjects]
104,344,13900,6,0,P|80:288|108:208,1,130,2|10,0:0|0:0,0:0:0:0:
184,144,14859,2,0,L|316:148,1,130,2|10,0:0|0:0,0:0:0:0:
412,212,15819,2,0,P|436:156|416:84,2,130,2|10|2,0:0|0:0|0:0,0:0:0:0:
300,212,17259,1,8,0:0:0:0:
184,220,17739,6,0,L|192:364,1,130,4|8,0:0|0:0,0:0:0:0:
76,356,18699,2,0,L|72:260,1,86.6666666666667,0|0,0:0|0:0,0:0:0:0:
56,256,19179,1,8,0:0:0:0:
120,156,19659,2,0,B|136:112|136:112|132:28,2,130,0|8|0,0:0|0:0|0:0,0:0:0:0:
56,256,21099,2,2,P|116:248|164:248,1,86.6666666666667,10|0,0:0|0:0,0:0:0:0:
160,260,21579,6,0,P|226:269|294:257,1,130,2|10,0:0|0:0,0:0:0:0:
352,152,22539,2,0,P|312:144|260:152,1,86.6666666666667,2|0,0:0|0:0,0:0:0:0:
252,132,23019,1,10,0:0:0:0:
136,164,23499,2,0,P|116:112|136:36,2,130,2|10|2,0:0|0:0|0:0,0:0:0:0:
204,204,24779,1,0,0:0:0:0:
204,204,24939,2,2,L|200:304,1,86.6666666666667,2|2,0:0|0:0,0:0:0:0:
184,304,25419,6,0,P|252:296|312:312,1,130,4|8,0:0|0:0,0:0:0:0:
424,288,26379,2,0,L|428:148,1,130,0|8,0:0|0:0,0:0:0:0:
352,176,27178,1,2,0:0:0:0:
352,176,27338,2,0,L|356:36,1,130,0|8,0:0|0:0,0:0:0:0:
240,56,28298,2,0,P|196:60|152:52,1,86.6666666666667,0|0,0:0|0:0,0:0:0:0:
132,48,28778,6,0,P|148:108|128:172,2,130,8|2|10,0:0|0:0|0:0,0:0:0:0:
36,116,30218,2,0,P|16:177|32:239,1,130,2|10,0:0|0:0,0:0:0:0:
136,292,31178,2,0,L|224:288,1,86.6666666666667,2|0,0:0|0:0,0:0:0:0:
244,292,31658,2,0,B|228:236|228:236|236:160,1,130,10|2,0:0|0:0,0:0:0:0:
356,152,32618,1,10,0:0:0:0:
432,148,32938,5,2,0:0:0:0:
432,148,33098,1,4,0:0:0:0:
464,260,33578,2,0,B|396:248|336:284,1,130,10|2,0:0|0:0,0:0:0:0:
264,312,34378,1,8,0:0:0:0:
264,312,34538,2,2,P|196:316|128:296,1,130,10|4,0:0|0:0,0:0:0:0:
76,200,35498,5,10,0:0:0:0:
92,84,35978,1,2,0:0:0:0:
168,92,36298,1,8,0:0:0:0:
168,92,36458,1,10,0:0:0:0:
284,108,36938,5,4,0:0:0:0:
284,108,37418,2,0,P|304:160|280:232,1,130,10|2,0:0|0:0,0:0:0:0:
228,284,38218,1,8,0:0:0:0:
228,284,38378,2,0,P|206:223|232:164,1,130,10|4,0:0|0:0,0:0:0:0:
268,56,39337,5,4,2:0:0:0:
380,84,39817,1,0,0:0:0:0:
352,196,40297,1,4,2:0:0:0:
256,192,40777,12,2,42697,0:0:0:0:
256,124,43177,6,0,L|388:128,1,130,12|10,2:0|0:0,0:0:0:0:
440,188,43977,1,0,0:0:0:0:
440,188,44137,2,0,P|452:252|424:312,2,130,8|2|8,2:0|0:0|2:0,0:0:0:0:
332,236,45577,2,0,L|244:232,1,86.6666666666667,2|0,0:0|0:0,0:0:0:0:
228,244,46057,2,0,P|220:200|228:156,1,86.6666666666667,8|10,2:0|0:0,0:0:0:0:
244,148,46537,6,0,L|112:144,2,130,2|8|10,0:0|2:0|0:0,0:0:0:0:
360,124,47977,1,8,2:0:0:0:
452,196,48457,2,0,L|440:336,1,130,2|8,0:0|2:0,0:0:0:0:
364,320,49257,1,0,0:0:0:0:
364,320,49417,2,0,L|372:232,1,86.6666666666667,8|0,0:0|0:0,0:0:0:0:
380,212,49897,2,0,P|336:216|288:208,1,86.6666666666667,4|0,2:0|0:0,0:0:0:0:
276,224,50377,5,6,0:0:0:0:
148,232,50857,2,0,L|16:228,1,130,8|10,2:0|0:0,0:0:0:0:
8,152,51656,1,0,0:0:0:0:
8,152,51816,2,0,L|104:156,1,86.6666666666667,8|0,2:0|0:0,0:0:0:0:
116,160,52296,2,0,P|128:96|124:28,2,130,6|8|10,0:0|2:0|0:0,0:0:0:0:
92,276,53736,1,8,2:0:0:0:
204,240,54216,5,6,0:0:0:0:
204,240,54696,1,8,0:0:0:0:
204,240,55176,2,0,L|344:236,1,130,6|8,0:0|0:0,0:0:0:0:
444,276,56136,5,6,0:0:0:0:
444,276,56616,1,2,1:2:0:0:
448,160,57096,1,2,1:2:0:0:
344,108,57576,5,2,1:2:0:0:
340,224,58056,1,2,1:2:0:0:
228,264,58536,5,2,1:2:0:0:
232,148,59016,1,2,1:2:0:0:
128,200,59496,1,2,1:2:0:0:
228,264,59976,6,0,P|280:248|356:264,1,130,4|8,0:0|0:0,0:0:0:0:
460,308,60936,2,0,P|468:268|460:220,1,86.6666666666667,0|0,0:0|0:0,0:0:0:0:
476,208,61416,1,10,0:0:0:0:
432,100,61896,2,0,L|300:104,1,130,0|8,0:0|0:0,0:0:0:0:
188,136,62856,2,0,P|144:128|92:132,1,86.6666666666667,0|0,0:0|0:0,0:0:0:0:
80,124,63336,6,0,P|96:184|76:248,2,130,8|2|10,0:0|0:0|0:0,0:0:0:0:
160,40,64775,2,0,L|264:40,1,86.6666666666667,2|0,0:0|0:0,0:0:0:0:
260,56,65255,1,10,0:0:0:0:
372,84,65735,2,0,L|364:236,1,130,0|10,0:0|0:0,0:0:0:0:
456,140,66695,2,0,L|452:248,1,86.6666666666667,2|0,0:0|0:0,0:0:0:0:
436,240,67175,6,0,P|448:300|432:368,2,130,10|4|8,0:0|0:0|0:0,0:0:0:0:
320,232,68615,2,0,L|220:228,1,86.6666666666667,2|8,0:0|0:0,0:0:0:0:
212,236,69095,2,0,P|156:224|84:236,1,130,10|0,0:0|0:0,0:0:0:0:
24,136,70055,1,10,0:0:0:0:
108,52,70535,2,0,L|208:56,1,86.6666666666667,0|8,0:0|0:0,0:0:0:0:
216,48,71015,6,0,P|200:104|216:176,2,130,10|2|10,0:0|0:0|0:0,0:0:0:0:
332,56,72455,1,2,0:0:0:0:
408,64,72775,1,0,0:0:0:0:
408,64,72935,1,10,0:0:0:0:
396,180,73415,5,2,0:0:0:0:
380,296,73895,1,10,0:0:0:0:
264,280,74375,2,0,P|220:272|176:276,1,86.6666666666667,0|8,0:0|0:0,0:0:0:0:
156,288,74855,2,2,P|144:244|152:196,1,86.6666666666667,10|0,0:0|0:0,0:0:0:0:
128,188,75335,1,4,0:0:0:0:
240,76,75815,6,0,L|380:76,1,130,2|2,0:0|0:0,0:0:0:0:
416,140,76614,1,8,0:0:0:0:
416,140,76774,2,0,P|432:204|412:268,1,130,2|4,0:0|0:0,0:0:0:0:
336,352,77734,5,2,0:0:0:0:
224,320,78214,2,0,L|132:316,1,86.6666666666667,2|8,0:0|0:0,0:0:0:0:
116,324,78694,2,0,P|100:276|120:196,1,130,2|4,0:0|0:0,0:0:0:0:
196,108,79654,5,2,0:0:0:0:
312,124,80134,1,2,0:0:0:0:
388,136,80454,1,8,0:0:0:0:
388,136,80614,1,2,0:0:0:0:
368,252,81094,6,0,P|380:312|352:376,2,130,4|4|0,0:0|2:0|0:0,0:0:0:0:
388,136,82534,1,4,2:0:0:0:
256,192,83014,12,10,84454,0:0:0:0:
208,124,84934,6,0,P|144:116|84:144,1,130,6|8,0:0|2:0,0:0:0:0:
56,256,85894,2,0,P|104:256|140:240,1,86.6666666666667,2|0,0:0|0:0,0:0:0:0:
152,224,86374,2,0,L|148:364,2,130,8|10|8,2:0|0:0|2:0,0:0:0:0:
268,212,87814,1,2,0:0:0:0:
344,208,88134,1,0,0:0:0:0:
344,208,88294,2,0,L|432:204,1,86.6666666666667,8|10,0:2|0:0,0:0:0:0:
452,212,88774,6,0,P|468:144|460:84,1,130,6|8,0:0|2:0,0:0:0:0:
344,64,89733,2,0,L|240:68,1,86.6666666666667,10|0,0:0|0:0,0:0:0:0:
236,68,90213,2,0,P|244:120|236:160,1,86.6666666666667,8|8,2:0|0:0,0:0:0:0:
228,172,90693,2,0,P|164:164|100:192,2,130,0|8|0,0:0|2:0|0:0,0:0:0:0:
340,200,92133,1,4,2:0:0:0:
456,192,92613,6,0,L|452:328,1,130,6|8,0:0|2:0,0:0:0:0:
336,324,93573,2,0,P|288:316|248:324,1,86.6666666666667,2|0,0:0|0:0,0:0:0:0:
240,340,94053,2,0,L|100:332,2,130,8|6|8,2:0|0:0|2:0,0:0:0:0:
252,224,95493,2,0,L|160:220,1,86.6666666666667,2|0,0:0|0:0,0:0:0:0:
148,232,95973,6,0,P|140:172|152:104,1,130,8|4,2:0|0:0,0:0:0:0:
268,48,96933,1,8,2:0:0:0:
384,64,97413,1,4,0:0:0:0:
368,180,97893,1,8,2:0:0:0:
252,160,98373,5,4,0:0:0:0:
136,156,98853,1,8,0:0:0:0:
196,256,99333,1,0,0:0:0:0:
316,260,99813,1,8,0:0:0:0:
392,268,100133,5,8,0:0:0:0:
392,268,100293,2,0,P|400:220|404:176,2,86.6666666666667,0|8|8,0:0|3:0|0:0,0:0:0:0:
316,260,101253,2,0,P|320:216|327:174,2,86.6666666666667,8|8|0,0:0|0:0|0:0,0:0:0:0:
248,300,102212,6,0,P|188:292|116:292,1,130,4|10,0:0|0:0,0:0:0:0:
52,196,103172,2,0,P|44:152|52:108,1,86.6666666666667,0|2,0:0|0:0,0:0:0:0:
44,92,103652,2,0,L|176:100,1,130,10|2,0:0|0:0,0:0:0:0:
284,140,104612,1,10,0:0:0:0:
364,140,104932,1,2,0:0:0:0:
364,140,105092,2,0,P|420:144|496:124,2,130,2|10|2,0:0|0:0|0:0,0:0:0:0:
284,224,106532,5,10,0:0:0:0:
284,224,107012,2,0,P|240:220|188:232,1,86.6666666666667,0|2,0:0|0:0,0:0:0:0:
184,212,107492,2,0,L|188:348,2,130,10|0|10,0:0|0:0|0:0,0:0:0:0:
80,268,108932,2,0,L|76:176,1,86.6666666666667,2|8,0:0|3:0,0:0:0:0:
60,168,109412,1,4,2:0:0:0:
92,56,109892,5,0,0:0:0:0:
192,120,110372,1,10,0:0:0:0:
296,64,110852,2,0,L|392:60,1,86.6666666666667,0|2,0:0|0:0,0:0:0:0:
404,52,111332,2,0,P|392:120|408:180,1,130,8|2,0:0|0:0,0:0:0:0:
488,264,112292,1,8,0:0:0:0:
448,332,112612,1,2,0:0:0:0:
448,332,112772,2,0,L|352:328,1,86.6666666666667,2|0,0:0|0:0,0:0:0:0:
340,336,113252,6,0,P|284:320|216:348,2,130,10|2|8,0:0|0:0|0:0,0:0:0:0:
376,224,114691,2,0,L|380:136,1,86.6666666666667,2|0,0:0|0:0,0:0:0:0:
364,124,115171,1,10,0:0:0:0:
264,64,115651,2,0,L|256:204,1,130,10|4,0:0|2:0,0:0:0:0:
144,232,116611,1,8,0:0:0:0:
232,308,117091,1,8,0:0:0:0:
256,192,117571,5,4,0:0:0:0:
144,232,118051,2,0,P|80:220|8:236,2,130,4|0|4,0:2|0:0|0:2,0:0:0:0:
256,192,119491,2,0,P|320:204|392:188,1,130,0|4,0:0|0:2,0:0:0:0:
460,200,120291,1,0,0:0:0:0:
460,200,120451,2,0,P|472:136|468:72,1,130,0|4,0:0|0:2,0:0:0:0:
352,84,121411,6,0,P|287:72|216:88,1,130,0|4,0:0|0:2,0:0:0:0:
112,120,122371,2,0,L|120:212,1,86.6666666666667,0|8,0:0|0:0,0:0:0:0:
108,224,122851,1,4,0:2:0:0:
220,208,123331,2,0,L|232:360,2,130,0|4|0,0:0|0:2|0:0,0:0:0:0:
264,144,124611,1,8,0:0:0:0:
264,144,124771,1,4,0:2:0:0:
372,192,125251,6,0,P|432:200|500:176,1,130,4|4,0:0|0:2,0:0:0:0:
480,64,126211,2,0,P|420:55|352:80,1,130,0|4,0:0|0:2,0:0:0:0:
264,144,127170,2,0,L|128:136,1,130,0|4,0:0|0:2,0:0:0:0:
60,164,127970,1,0,0:0:0:0:
60,164,128130,2,0,P|44:100|60:40,2,130,0|4|0,0:0|0:2|0:0,0:0:0:0:
164,108,129570,5,4,0:2:0:0:
264,44,130050,2,0,P|280:106|264:168,1,130,0|4,0:0|0:2,0:0:0:0:
164,108,131010,1,4,0:0:0:0:
92,200,131490,1,4,0:2:0:0:
188,268,131970,1,0,0:0:0:0:
268,268,132290,1,0,0:0:0:0:
268,268,132450,1,4,2:0:0:0:
384,268,132930,5,2,3:0:0:0:
408,136,146369,6,0,P|404:196|396:272,1,130,4|4,2:0|2:0,0:0:0:0:
280,276,147329,2,0,P|284:215|288:184,1,86.6666666666667,2|0,0:0|0:0,0:0:0:0:
304,172,147809,2,0,P|244:176|176:156,2,130,4|2|2,2:0|0:0|0:0,0:0:0:0:
228,80,149249,2,0,P|188:68|140:76,1,86.6666666666667,2|8,0:0|0:0,0:0:0:0:
128,92,149729,2,0,L|32:80,1,86.6666666666667,8|8,2:0|0:0,0:0:0:0:
20,88,150209,6,0,P|12:152|28:220,1,130,4|8,0:0|0:0,0:0:0:0:
124,276,151169,2,0,P|128:228|120:188,1,86.6666666666667,2|2,0:0|2:0,0:0:0:0:
112,172,151648,2,0,L|204:178,1,86.6666666666667,10|0,0:0|0:0,0:0:0:0:
216,192,152128,2,0,P|232:128|224:60,1,130,2|8,0:0|0:0,0:0:0:0:
352,108,153088,2,0,P|344:152|352:196,1,86.6666666666667,2|0,0:0|0:0,0:0:0:0:
336,208,153568,1,4,2:0:0:0:
420,292,154048,6,0,P|352:284|284:324,1,130,4|4,0:0|0:2,0:0:0:0:
184,328,155008,2,0,L|96:324,1,86.6666666666667,0|0,0:0|0:0,0:0:0:0:
80,340,155488,2,0,P|88:296|84:252,1,86.6666666666667,8|2,0:0|2:0,0:0:0:0:
68,244,155968,2,0,P|52:188|68:112,2,130,0|8|0,0:0|0:0|0:0,0:0:0:0:
164,176,157408,1,8,0:0:0:0:
256,104,157888,6,0,P|272:160|256:236,1,130,0|4,0:0|0:2,0:0:0:0:
188,260,158688,1,0,0:0:0:0:
188,260,158848,2,0,L|348:268,1,130,8|8,0:0|0:0,0:0:0:0:
252,168,159808,6,0,L|120:160,1,130,6|8,0:0|2:0,0:0:0:0:
8,184,160768,2,0,P|4:140|4:92,1,86.6666666666667,2|8,0:0|0:0,0:0:0:0:
16,80,161248,2,0,P|77:75|141:39,1,130,8|2,2:0|0:0,0:0:0:0:
252,20,162208,1,8,2:0:0:0:
324,52,162528,1,0,0:0:0:0:
324,52,162688,2,0,P|316:112|328:148,1,86.6666666666667,2|8,0:0|0:0,0:0:0:0:
320,160,163168,2,0,P|368:152|412:160,1,86.6666666666667,8|0,2:0|0:0,0:0:0:0:
424,140,163648,6,0,P|404:200|428:268,2,130,6|8|2,0:0|2:0|0:0,0:0:0:0:
308,152,165087,2,0,P|320:108|312:64,1,86.6666666666667,8|0,2:0|0:0,0:0:0:0:
324,48,165567,2,0,L|232:48,1,86.6666666666667,0|0,0:0|0:0,0:0:0:0:
220,64,166047,1,8,2:0:0:0:
104,68,166527,1,0,0:0:0:0:
0,72,167007,1,12,2:0:0:0:
0,148,167327,5,0,0:0:0:0:
0,148,167487,2,0,L|4:280,1,130,6|8,0:0|2:0,0:0:0:0:
120,300,168447,2,0,L|116:212,1,86.6666666666667,2|0,0:0|0:0,0:0:0:0:
104,196,168927,2,0,P|168:200|240:172,1,130,8|6,2:0|0:0,0:0:0:0:
320,104,169887,1,8,2:0:0:0:
320,104,170367,2,0,P|364:88|408:88,1,86.6666666666667,2|0,0:0|0:0,0:0:0:0:
420,76,170847,2,0,L|416:168,1,86.6666666666667
396,180,171327,6,0,P|380:240|396:304,2,130,0|8|4,0:0|0:0|2:0,0:0:0:0:
312,96,172767,2,0,L|176:88,2,130,8|4|8,0:0|2:0|2:0,0:0:0:0:
296,212,174207,1,6,0:0:0:0:
296,212,174687,6,0,L|292:360,1,130,8|4,0:0|2:0,0:0:0:0:
176,336,175647,2,0,L|179:206,1,130,8|2,2:0|0:0,0:0:0:0:
216,96,176606,1,4,2:0:0:0:
292,88,176926,5,2,0:0:0:0:
292,88,177086,1,6,0:0:0:0:
408,88,177566,1,2,1:2:0:0:
404,204,178046,1,2,1:2:0:0:
288,200,178526,1,2,1:2:0:0:
168,152,179006,5,2,1:2:0:0:
52,148,179486,1,2,1:2:0:0:
48,264,179966,1,2,1:2:0:0:
164,272,180446,1,2,1:2:0:0:
112,212,180766,5,2,1:2:0:0:
112,212,180926,1,4,0:0:0:0:
