osu file format v12

[General]
AudioFilename: Royal Republic - Everybody Wants To Be An Astronaut.mp3
AudioLeadIn: 0
PreviewTime: 132948
Countdown: 0
SampleSet: Normal
StackLeniency: 0.7
Mode: 0
LetterboxInBreaks: 0
WidescreenStoryboard: 1

[Editor]
DistanceSpacing: 1
BeatDivisor: 3
GridSize: 4
TimelineZoom: 1

[Metadata]
Title:Everybody Wants To Be An Astronaut
TitleUnicode:Everybody Wants To Be An Astronaut
Artist:Royal Republic
ArtistUnicode:Royal Republic
Creator:Vass_Bass
Version:Easy
Source:
Tags:Reiji-RJ
BeatmapID:377740
BeatmapSetID:134190

[Difficulty]
HPDrainRate:3
CircleSize:3
OverallDifficulty:3
ApproachRate:4
SliderMultiplier:1.1
SliderTickRate:1

[Events]
//Background and Video events
0,0,"bgg.jpg",0,0
//Break Periods
2,133129,143969
//Storyboard Layer 0 (Background)
//Storyboard Layer 1 (Fail)
//Storyboard Layer 2 (Pass)
//Storyboard Layer 3 (Foreground)
//Storyboard Sound Samples
//Background Colour Transformations
3,100,163,162,255

[TimingPoints]
13900,479.961603071754,4,1,1,60,1,0
40777,-100,4,1,1,50,0,0
41737,-100,4,1,1,45,0,0
42697,-100,4,1,1,65,0,1
56136,-100,4,1,1,60,0,0
83014,-100,4,1,1,50,0,0
84934,-100,4,1,1,65,0,1
98373,-100,4,1,1,60,0,0
102212,-100,4,1,1,50,0,0
105572,-100,4,1,1,40,0,0
106052,-100,4,1,1,50,0,0
108932,-100,4,1,1,40,0,0
109412,-100,4,1,1,50,0,0
109892,-100,4,1,1,50,0,0
115651,-100,4,1,1,40,0,0
116451,-100,4,1,1,50,0,0
117571,-100,4,1,1,55,0,0
129090,-100,4,1,1,50,0,0
132930,-100,4,1,1,25,0,0
146369,-100,4,1,1,60,0,1
146529,-100,4,1,1,60,0,0
158848,-100,4,1,1,50,0,0
159808,-100,4,1,1,60,0,1
177086,-100,4,1,1,60,0,0
180926,-100,4,1,1,60,0,1
181086,-100,4,1,1,60,0,0

[Colours]
Combo1 : 255,94,55
Combo2 : 173,255,95
Combo3 : 17,254,176
Combo4 : 255,88,100

[HitObjects]
56,336,13900,6,0,P|28:232|56:120,1,220,2|2,0:0|0:0,0:0:0:0:
132,48,15339,1,10,0:0:0:0:
132,48,15819,2,0,L|356:56,1,220,2|2,0:0|0:0,0:0:0:0:
444,120,17259,1,10,0:0:0:0:
444,120,17739,6,0,P|452:184|440:232,1,110,4|8,0:0|0:0,0:0:0:0:
348,172,18699,2,0,P|240:176|160:256,1,220,0|0,0:0|0:0,0:0:0:0:
112,348,20139,2,0,L|0:340,2,110,8|0|8,0:0|0:0|0:0,0:0:0:0:
164,252,21579,5,2,0:0:0:0:
384,232,22539,1,2,0:0:0:0:
248,60,23499,1,2,0:0:0:0:
332,132,23979,1,10,0:0:0:0:
228,168,24459,2,0,P|168:164|120:144,1,110,2|10,0:0|0:0,0:0:0:0:
144,36,25419,6,0,P|204:40|252:59,1,110,4|8,0:0|0:0,0:0:0:0:
332,132,26379,2,0,P|360:236|324:344,1,220,0|0,0:0|0:0,0:0:0:0:
224,304,27818,1,8,0:0:0:0:
224,304,28298,2,0,P|168:304|112:320,1,110,0|8,0:0|0:0,0:0:0:0:
40,240,29258,5,2,0:0:0:0:
136,40,30218,1,2,0:0:0:0:
272,212,31178,1,2,0:0:0:0:
164,188,31658,1,10,0:0:0:0:
240,108,32138,2,0,P|296:104|344:132,1,110,2|10,0:0|0:0,0:0:0:0:
384,224,33098,5,4,0:0:0:0:
272,212,33578,2,0,L|32:204,1,220,10|10,0:0|0:0,0:0:0:0:
36,312,35018,1,4,0:0:0:0:
36,312,35498,2,0,L|255:319,1,220,2|10,0:0|0:0,0:0:0:0:
364,332,36938,5,4,0:0:0:0:
364,332,37418,2,0,P|392:228|368:120,1,220,10|10,0:0|0:0,0:0:0:0:
260,100,38858,2,0,L|148:96,2,110,4|4|0,0:0|2:0|0:0,0:0:0:0:
368,120,40297,1,4,2:0:0:0:
368,120,40777,5,8,0:0:0:0:
280,188,41257,1,8,0:0:0:0:
204,108,41737,1,8,0:0:0:0:
116,176,42217,1,8,0:0:0:0:
52,88,42697,5,4,2:0:0:0:
52,88,43177,2,0,B|160:64|160:108|272:84,1,220,12|8,2:0|2:0,0:0:0:0:
368,144,44617,2,0,P|352:192|364:252,1,110,2|8,0:0|2:0,0:0:0:0:
468,288,45577,2,0,P|364:276|260:328,2,220,2|2|10,0:0|0:0|0:0,0:0:0:0:
464,176,47977,1,8,2:0:0:0:
464,176,48457,6,0,L|468:60,1,110,2|8,0:0|2:0,0:0:0:0:
360,48,49417,2,0,L|356:157,1,110,8|8,0:0|0:0,0:0:0:0:
252,188,50377,6,0,P|148:160|40:192,1,220,6|10,0:0|0:0,0:0:0:0:
96,288,51816,1,8,2:0:0:0:
96,288,52296,2,0,P|160:292|204:276,1,110,6|8,0:0|2:0,0:0:0:0:
312,272,53256,2,0,P|364:255|418:260,1,110,10|8,0:0|2:0,0:0:0:0:
452,156,54216,6,0,P|368:152|236:188,2,220,6|6|6,0:0|0:0|0:0,0:0:0:0:
256,192,56616,12,8,59016,0:0:0:0:
168,124,59976,5,4,0:0:0:0:
168,124,60456,2,0,L|164:256,1,110,8|0,0:0|0:0,0:0:0:0:
272,264,61416,2,0,L|275:154,2,110,10|0|8,0:0|0:0|0:0,0:0:0:0:
184,332,62856,2,0,P|292:308|420:340,1,220,2|2,0:0|0:0,0:0:0:0:
440,112,64775,5,2,0:0:0:0:
220,128,65735,1,2,0:0:0:0:
312,188,66215,1,10,0:0:0:0:
324,80,66695,2,0,P|284:28|232:16,1,110,2|10,0:0|0:0,0:0:0:0:
220,128,67655,6,0,P|192:232|232:344,1,220,6|2,0:0|0:0,0:0:0:0:
336,336,69095,1,8,0:0:0:0:
336,336,69575,2,0,P|369:232|341:128,1,220,2|0,0:0|0:0,0:0:0:0:
264,52,71015,1,8,0:0:0:0:
160,88,71495,6,0,P|104:92|40:80,1,110,2|10,0:0|0:0,0:0:0:0:
16,188,72455,2,0,P|72:184|136:196,1,110,2|10,0:0|0:0,0:0:0:0:
228,228,73415,1,2,0:0:0:0:
268,124,73895,1,8,0:0:0:0:
372,160,74375,2,0,L|480:155,2,110,2|10|4,0:0|0:0|0:0,0:0:0:0:
268,124,75815,5,2,0:0:0:0:
268,124,76295,2,0,B|236:232|288:232|260:344,1,220,2|4,0:0|0:0,0:0:0:0:
152,336,77734,1,2,0:0:0:0:
152,336,78214,2,0,B|179:226|127:226|159:118,1,220,2|4,0:0|0:0,0:0:0:0:
228,32,79654,5,2,0:0:0:0:
328,76,80134,2,0,L|444:68,1,110,2|10,0:0|0:0,0:0:0:0:
456,176,81094,1,4,0:0:0:0:
348,200,81574,1,4,2:0:0:0:
348,200,82054,2,0,L|232:192,1,110,0|4,0:0|2:0,0:0:0:0:
196,92,83014,5,0,0:0:0:0:
196,92,83494,1,8,0:0:0:0:
88,88,83974,1,8,3:0:0:0:
124,192,84454,1,8,0:0:0:0:
16,188,84934,5,4,2:0:0:0:
32,296,85414,2,2,B|112:284|112:284|176:300|176:300|256:288,1,220,8|8,2:0|2:0,0:0:0:0:
356,308,86854,2,0,B|376:268|376:268|360:196,1,110,10|8,0:0|2:0,0:0:0:0:
256,176,87814,2,2,B|236:216|236:216|252:288,1,110,2|8,0:0|0:2,0:0:0:0:
152,328,88774,6,0,L|108:104,1,220,6|10,0:0|0:0,0:0:0:0:
208,68,90213,1,8,2:0:0:0:
208,68,90693,2,2,L|250:283,1,220,0|0,0:0|0:0,0:0:0:0:
356,312,92133,1,8,2:0:0:0:
356,312,92613,6,0,P|412:300|464:308,1,110,6|8,0:0|2:0,0:0:0:0:
464,196,93573,2,0,P|408:207|356:200,1,110,2|8,0:0|2:0,0:0:0:0:
352,88,94533,2,0,P|408:76|460:84,2,110,6|8|2,0:0|2:0|0:0,0:0:0:0:
260,148,95973,1,8,2:0:0:0:
260,148,96453,6,0,L|28:144,1,220,4|4,0:0|0:0,0:0:0:0:
16,252,97893,1,8,2:0:0:0:
16,252,98373,6,0,L|128:256,1,110,4|8,0:0|0:0,0:0:0:0:
224,308,99333,2,0,P|236:256|224:196,2,110,4|8|8,2:0|0:0|0:0,0:0:0:0:
84,336,102212,5,4,2:0:0:0:
84,336,102692,2,0,P|52:232|84:128,1,220,10|10,0:0|0:0,0:0:0:0:
168,56,104132,2,0,P|188:104|180:160,1,110,2|10,0:0|0:0,0:0:0:0:
200,272,105092,2,0,P|256:264|312:272,1,110,2|10,0:0|0:0,0:0:0:0:
384,352,106052,6,0,P|360:244|400:140,1,220,2|0,0:0|0:0,0:0:0:0:
464,56,107492,1,10,0:0:0:0:
356,48,107972,1,2,0:0:0:0:
144,100,108932,2,0,L|24:96,2,110,2|4|2,0:0|2:0|0:0,0:0:0:0:
244,148,110372,6,0,P|216:252|248:364,1,220,10|10,0:0|0:0,0:0:0:0:
356,348,111812,2,0,L|468:344,1,110,2|8,0:0|0:0,0:0:0:0:
480,236,112772,1,2,0:0:0:0:
492,128,113252,1,10,0:0:0:0:
492,128,113732,6,0,L|272:136,1,220,2|2,0:0|0:0,0:0:0:0:
168,172,115171,1,10,0:0:0:0:
64,132,115651,1,14,0:0:0:0:
88,352,116611,2,0,P|76:292|88:240,1,110,8|8,0:0|0:0,0:0:0:0:
168,172,117571,6,0,L|288:180,1,110,4|4,0:0|0:2,0:0:0:0:
392,200,118531,2,0,P|404:148|400:92,1,110,0|4,0:0|0:2,0:0:0:0:
308,32,119491,2,0,P|280:132|292:252,1,220,0|0,0:0|0:0,0:0:0:0:
392,288,120931,1,4,0:2:0:0:
392,288,121411,6,0,P|280:288|188:340,1,220,0|0,0:0|0:0,0:0:0:0:
84,300,122851,1,4,0:2:0:0:
84,300,123331,2,0,P|72:244|84:192,1,110,0|4,0:0|0:2,0:0:0:0:
192,200,124291,2,0,P|203:253|191:306,1,110,0|4,0:0|0:2,0:0:0:0:
84,300,125251,5,4,0:0:0:0:
80,192,125731,2,0,B|188:164|188:164|296:200,1,220,4|4,0:2|0:2,0:0:0:0:
376,268,127170,1,0,0:0:0:0:
376,268,127650,2,0,B|272:296|272:296|164:256,1,220,4|4,0:2|0:2,0:0:0:0:
124,156,129090,5,4,1:2:0:0:
368,160,130050,1,4,1:2:0:0:
244,340,131010,1,4,1:2:0:0:
124,156,131970,2,0,L|4:152,2,110,0|4|2,0:0|2:0|3:0,0:0:0:0:
368,336,146369,6,0,P|396:232|372:120,1,220,4|2,2:0|0:0,0:0:0:0:
264,124,147809,1,4,2:0:0:0:
264,124,148289,2,0,P|241:230|269:336,1,220,2|2,0:0|0:0,0:0:0:0:
160,336,149729,1,8,2:0:0:0:
160,336,150209,6,0,L|32:332,1,110,4|8,0:0|0:0,0:0:0:0:
112,240,151169,2,0,L|2:236,2,110,2|10|2,0:0|0:0|0:0,0:0:0:0:
220,236,152608,1,8,0:0:0:0:
328,232,153088,1,2,0:0:0:0:
468,64,154048,6,0,P|400:36|256:84,1,220,4|0,0:0|0:0,0:0:0:0:
272,184,155488,1,8,0:0:0:0:
272,184,155968,2,0,P|340:211|484:163,1,220,0|0,0:0|0:0,0:0:0:0:
500,280,157408,1,8,0:0:0:0:
500,280,157888,6,0,P|464:304|392:320,1,110,0|4,0:0|0:2,0:0:0:0:
288,320,158848,2,0,P|234:310|180:319,1,110,8|8,0:0|0:0,0:0:0:0:
72,344,159808,6,0,P|44:240|72:132,1,220,6|2,0:0|0:0,0:0:0:0:
172,88,161248,1,8,2:0:0:0:
172,88,161728,2,0,L|288:92,1,110,2|8,0:0|2:0,0:0:0:0:
388,124,162688,2,0,P|380:172|396:240,1,110,2|8,0:0|2:0,0:0:0:0:
496,272,163648,6,0,P|388:272|324:360,1,220,6|2,0:0|0:0,0:0:0:0:
220,328,165087,1,8,2:0:0:0:
220,328,165567,2,0,L|100:324,1,110,0|8,0:0|2:0,0:0:0:0:
36,244,166527,1,8,0:0:0:0:
140,208,167007,1,12,2:0:0:0:
140,208,167487,6,0,L|249:211,1,110,6|8,0:0|2:0,0:0:0:0:
356,244,168447,2,0,P|368:188|364:132,1,110,2|8,0:0|2:0,0:0:0:0:
460,84,169407,2,0,P|468:196|444:304,1,220,6|2,0:0|0:0,0:0:0:0:
356,244,170847,1,8,2:0:0:0:
248,260,171327,6,0,P|200:252|116:272,1,110,4|8,2:0|2:0,0:0:0:0:
200,356,172287,1,2,0:0:0:0:
92,360,172767,1,8,0:0:0:0:
140,260,173247,6,0,P|88:268|4:248,1,110,4|8,2:0|2:0,0:0:0:0:
88,164,174207,1,2,0:0:0:0:
196,172,174687,1,8,0:0:0:0:
196,172,175167,6,0,P|184:116|200:60,1,110,4|8,2:0|2:0,0:0:0:0:
292,124,176127,1,2,0:0:0:0:
388,68,176606,1,8,2:0:0:0:
388,68,177086,6,0,P|400:120|388:174,1,110,6|2,0:0|1:2,0:0:0:0:
308,248,178046,2,0,L|188:244,1,110,2|2,1:2|1:2,0:0:0:0:
100,292,179006,1,2,1:2:0:0:
256,192,179486,12,4,180926,0:0:0:0:
