osu file format v14

[General]
AudioFilename: Royal Republic - Addictive.mp3
AudioLeadIn: 0
PreviewTime: 56352
Countdown: 0
SampleSet: Soft
StackLeniency: 0.7
Mode: 0
LetterboxInBreaks: 0
WidescreenStoryboard: 0

[Editor]
Bookmarks: 14109
DistanceSpacing: 1
BeatDivisor: 4
GridSize: 4
TimelineZoom: 1

[Metadata]
Title:Addictive
TitleUnicode:Addictive
Artist:Royal Republic
ArtistUnicode:Royal Republic
Creator:Inyuschan
Version:Simple
Source:
Tags:Save the Nation short cut -Bakari-
BeatmapID:622445
BeatmapSetID:274131

[Difficulty]
HPDrainRate:2
CircleSize:3
OverallDifficulty:2
ApproachRate:3
SliderMultiplier:1
SliderTickRate:1

[Events]
//Background and Video events
0,0,"Addictive.jpg",0,0
//Break Periods
2,53574,55022
//Storyboard Layer 0 (Background)
//Storyboard Layer 1 (Fail)
//Storyboard Layer 2 (Pass)
//Storyboard Layer 3 (Foreground)
//Storyboard Sound Samples

[TimingPoints]
433,441.176470588235,4,2,1,60,1,0
52491,-100,4,2,1,50,0,0
53374,-100,4,2,2,70,0,0
56462,-100,4,2,1,70,0,0
64403,-100,4,2,4,70,0,0
64513,-100,4,2,1,70,0,0
66168,-100,4,2,4,70,0,0
66278,-100,4,2,1,70,0,0
67932,-100,4,2,4,70,0,0
68043,-100,4,2,1,70,0,0
71462,-100,4,2,4,70,0,0
72455,-100,4,2,1,70,0,0
74991,-100,4,2,4,70,0,0
75102,-100,4,2,1,70,0,0
76756,-100,4,2,4,70,0,0
76866,-100,4,2,1,70,0,0
82050,-100,4,2,4,70,0,0
82160,-100,4,2,1,70,0,0
83815,-100,4,2,2,70,0,0
84256,-100,4,2,3,70,0,0
84366,-100,4,2,2,70,0,0
85138,-100,4,2,1,70,0,0
85580,-100,4,2,4,70,0,0
85690,-100,4,2,1,70,0,0
87344,-100,4,2,4,70,0,0
87455,-100,4,2,1,70,0,0
89109,-100,4,2,4,70,0,0
89219,-100,4,2,1,70,0,0
95727,-100,4,2,2,70,0,0
97491,-100,4,2,1,70,0,0
98374,-100,4,2,2,80,0,0
99256,-100,4,2,2,80,0,1
99697,-100,4,2,3,80,0,1
100690,-100,4,2,2,80,0,1
103227,-100,4,2,3,80,0,1
103337,-100,4,2,2,80,0,1
104991,-100,4,2,3,80,0,1
105102,-100,4,2,2,80,0,1
107197,-100,4,2,3,80,0,1
107307,-100,4,2,2,80,0,1
108521,-100,4,2,3,80,0,1
108631,-100,4,2,2,80,0,1
112050,-100,4,2,3,80,0,1
113374,-100,4,2,1,60,0,0
113484,-100,4,2,1,5,0,0

[Colours]
Combo1 : 200,145,146
Combo2 : 202,207,194
Combo3 : 168,232,174
Combo4 : 118,162,216

[HitObjects]
480,192,14109,6,0,L|408:276,1,100,2|2,0:0|0:0,0:0:0:0:
320,300,14991,2,0,P|292:300|220:264,1,100,0|2,0:0|0:0,0:0:0:0:
164,192,15874,1,0,0:0:0:0:
227,112,16315,2,0,P|296:84|408:128,1,200,2|2,0:0|0:0,0:0:0:0:
484,192,17638,6,0,P|484:240|444:296,1,100,0|2,0:0|0:0,0:0:0:0:
360,292,18521,2,0,P|308:292|264:328,1,100,0|2,0:0|0:0,0:0:0:0:
172,340,19403,2,0,P|128:340|60:204,1,200,0|2,0:0|0:0,0:0:0:0:
108,136,20727,1,0,0:0:0:0:
208,136,21168,6,0,P|256:136|308:100,1,100,2|2,0:0|0:0,0:0:0:0:
372,40,22050,2,0,L|448:116,1,100,0|2,0:0|0:0,0:0:0:0:
442,273,23374,2,0,P|396:324|272:352,1,200,2|2,0:0|0:0,0:0:0:0:
179,327,24697,1,2,0:0:0:0:
112,252,25138,6,0,B|112:152|112:152|172:64,1,200,2|2,0:0|0:0,0:0:0:0:
368,100,26903,2,0,B|368:200|368:200|308:288,1,200,2|2,0:0|0:0,0:0:0:0:
240,352,28227,1,2,0:0:0:0:
216,256,28668,5,2,0:0:0:0:
344,104,29550,1,2,0:0:0:0:
148,60,30432,2,0,P|88:60|0:160,1,200,2|2,0:0|0:0,0:0:0:0:
44,248,31756,1,2,0:0:0:0:
116,316,32197,5,2,0:0:0:0:
256,176,33080,1,2,0:0:0:0:
396,316,33962,2,0,L|464:236,2,100,2|2|2,0:0|0:0|0:0,0:0:0:0:
304,356,35285,1,2,0:0:0:0:
212,316,35727,6,0,P|144:316|64:208,1,200,2|2,0:0|0:0,0:0:0:0:
228,104,37491,2,0,P|296:104|376:212,1,200,2|2,0:0|0:0,0:0:0:0:
324,288,38815,1,0,0:0:0:0:
256,360,39256,5,2,0:0:0:0:
96,240,40138,1,2,0:0:0:0:
208,76,41021,1,2,0:0:0:0:
372,188,41903,2,0,P|380:232|364:296,1,100,2|2,0:0|0:0,0:0:0:0:
284,340,42785,6,0,L|96:236,2,200,2|2|2,0:0|0:0|0:0,0:0:0:0:
380,320,44991,2,0,B|408:272|408:272|408:204,1,100,2|2,0:0|0:0,0:0:0:0:
336,156,45874,1,0,0:0:0:0:
256,96,46315,6,0,B|168:36|168:36|72:36,2,200,2|2|2,0:0|0:0|0:0,0:0:0:0:
288,192,48521,2,0,L|252:288,1,100,2|2,0:0|0:0,0:0:0:0:
172,340,49403,1,2,0:0:0:0:
92,280,49844,6,0,P|60:220|100:96,1,200,2|2,0:0|0:0,0:0:0:0:
288,52,51609,2,0,P|320:112|280:236,1,200,2|2,0:0|0:0,0:0:0:0:
88,192,53374,5,8,0:0:0:0:
256,40,56462,6,0,L|344:112,1,100,0|4,0:0|0:0,0:0:0:0:
416,160,57344,2,0,P|436:228|376:340,1,200,8|8,0:0|0:0,0:0:0:0:
284,312,58668,1,0,0:0:0:0:
196,264,59109,2,0,P|140:196|172:84,1,200,8|8,0:0|0:0,0:0:0:0:
256,56,60432,5,0,0:0:0:0:
356,56,60874,2,0,P|404:56|500:172,1,200,8|8,0:0|0:0,0:0:0:0:
456,252,62197,1,0,0:0:0:0:
372,304,62638,1,8,0:0:0:0:
176,340,63521,1,8,0:0:0:0:
88,292,63962,6,0,P|44:232|132:156,1,200,0|0,0:0|0:0,0:0:0:0:
216,180,65285,1,8,0:0:0:0:
316,192,65727,2,0,P|389:135|346:54,1,200,0|0,0:0|0:0,0:0:0:0:
256,100,67050,1,8,0:0:0:0:
165,54,67491,6,0,P|122:135|196:192,1,200,0|0,0:0|0:0,0:0:0:0:
296,184,68815,1,8,0:0:0:0:
392,164,69256,2,0,P|436:164|480:204,1,100,0|8,0:0|0:0,0:0:0:0:
304,296,70580,1,8,0:0:0:0:
256,212,71021,6,0,P|184:212|88:296,2,200,4|0|0,0:0|0:0|0:0,0:0:0:0:
300,300,73227,1,8,0:0:0:0:
488,236,74109,1,8,0:0:0:0:
488,136,74550,6,0,P|424:136|320:52,1,200
224,32,75874,1,8,0:0:0:0:
126,55,76315,2,0,L|222:247,1,200
280,308,77638,1,8,0:0:0:0:
312,216,78080,5,0,0:0:0:0:
208,48,78962,1,0,0:0:0:0:
40,156,79844,2,0,P|32:200|56:256,2,100,0|8|0,0:0|0:0|0:0,0:0:0:0:
128,108,81168,1,8,0:0:0:0:
220,68,81609,6,0,P|284:68|372:184,1,200,0|0,0:0|0:0,0:0:0:0:
256,328,83374,1,0,0:0:0:0:
156,328,83815,2,0,P|116:328|20:200,1,200,8|8,0:0|0:0,0:0:0:0:
76,132,85138,6,0,L|276:44,1,200,4|0,0:0|0:0,0:0:0:0:
340,112,86462,1,8,0:0:0:0:
400,192,86903,2,0,L|200:280,1,200
124,312,88227,1,8,0:0:0:0:
31,273,88668,6,0,P|20:212|120:104,1,200,0|0,0:0|0:0,0:0:0:0:
184,160,89991,1,8,0:0:0:0:
256,232,90432,1,0,0:0:0:0:
328,160,90874,1,8,0:0:0:0:
412,109,91315,1,0,0:0:0:0:
468,192,91756,6,0,L|436:288,1,100,8|0,0:0|0:0,0:0:0:0:
356,344,92638,2,0,P|272:344|172:276,1,200,8|8,0:0|0:0,0:0:0:0:
132,192,93962,1,0,0:0:0:0:
176,101,94403,2,0,P|257:44|356:40,1,200,8|8,0:0|0:0,0:0:0:0:
428,108,95727,5,8,0:0:0:0:
424,308,96609,1,8,0:0:0:0:
256,196,97491,1,2,0:0:0:0:
88,308,98374,2,0,P|60:264|60:196,1,100,8|8,0:0|0:0,0:0:0:0:
144,172,99256,6,0,P|220:116|188:24,2,200,4|0|0,0:0|0:0|0:0,0:0:0:0:
16,328,101903,2,0,L|136:352,1,100,0|8,0:0|0:0,0:0:0:0:
212,352,102785,6,0,P|272:352|400:268,1,200,4|0,0:0|0:0,0:0:0:0:
388,184,104109,1,8,0:0:0:0:
348,92,104550,2,0,P|288:92|160:176,1,200
108,240,105874,1,8,0:0:0:0:
204,264,106315,5,4,0:0:0:0:
304,280,106756,2,0,P|352:248|328:120,1,200,8|8,0:0|0:0,0:0:0:0:
284,36,108080,2,0,P|236:68|260:196,1,200,8|8,0:0|0:0,0:0:0:0:
340,248,109403,1,8,0:0:0:0:
424,196,109844,5,4,0:0:0:0:
256,88,110727,1,8,0:0:0:0:
88,196,111609,2,0,B|160:192|208:272|208:272|256:248|304:272|304:272|352:192|431:196,1,400,4|4,0:0|0:0,0:0:0:0:
256,192,113594,12,0,119550,0:0:0:0:
