osu file format v14

[General]
AudioFilename: Royal Republic - Addictive.mp3
AudioLeadIn: 0
PreviewTime: 56352
Countdown: 0
SampleSet: Soft
StackLeniency: 0.7
Mode: 0
LetterboxInBreaks: 0
WidescreenStoryboard: 0

[Editor]
Bookmarks: 14109
DistanceSpacing: 1.4
BeatDivisor: 4
GridSize: 4
TimelineZoom: 1

[Metadata]
Title:Addictive
TitleUnicode:Addictive
Artist:Royal Republic
ArtistUnicode:Royal Republic
Creator:Inyuschan
Version:Addiction
Source:
Tags:Save the Nation short cut -Bakari-
BeatmapID:622441
BeatmapSetID:274131

[Difficulty]
HPDrainRate:5.5
CircleSize:4
OverallDifficulty:6
ApproachRate:7.3
SliderMultiplier:1.7
SliderTickRate:1

[Events]
//Background and Video events
0,0,"Addictive.jpg",0,0
//Break Periods
2,53574,55608
//Storyboard Layer 0 (Background)
//Storyboard Layer 1 (Fail)
//Storyboard Layer 2 (Pass)
//Storyboard Layer 3 (Foreground)
//Storyboard Sound Samples

[TimingPoints]
433,441.176470588235,4,2,1,60,1,0
52491,-133.333333333333,4,2,1,50,0,0
53374,-100,4,2,2,70,0,0
56462,-100,4,2,1,70,0,0
83815,-100,4,2,2,70,0,0
85138,-100,4,2,1,70,0,0
95727,-100,4,2,2,70,0,0
97491,-100,4,2,1,70,0,0
98374,-100,4,2,2,80,0,0
99256,-83.3333333333333,4,2,2,80,0,1
113374,-100,4,2,1,60,0,0
113484,-100,4,2,1,5,0,0

[Colours]
Combo1 : 200,145,146
Combo2 : 202,207,194
Combo3 : 168,232,174
Combo4 : 118,162,216

[HitObjects]
376,184,14109,6,0,P|368:224|408:292,1,85,2|0,0:0|0:0,0:0:0:0:
472,316,14550,2,0,P|420:364|320:348,1,170,2|0,0:0|0:0,0:0:0:0:
256,163,15432,2,0,P|320:112|401:126,1,170,2|0,0:0|0:0,0:0:0:0:
252,264,16315,6,0,P|184:240|160:136,1,170,2|0,0:0|0:0,0:0:0:0:
216,68,16977,1,0,0:0:0:0:
312,32,17197,2,0,P|356:32|416:72,1,85,2|0,0:0|0:0,0:0:0:0:
416,147,17638,2,0,P|373:148|335:131,1,85
488,76,18080,6,0,L|392:256,1,170,2|0,0:0|0:0,0:0:0:0:
216,160,18962,2,0,L|120:340,1,170,2|0,0:0|0:0,0:0:0:0:
44,264,19624,1,0,0:0:0:0:
24,164,19844,6,0,B|16:120|16:120|32:72,1,85,2|0,0:0|0:0,0:0:0:0:
124,40,20285,2,0,B|132:84|132:84|116:132,1,85
140,224,20727,2,0,L|240:264,1,85,2|0,0:0|0:0,0:0:0:0:
352,204,21168,1,2,0:0:0:0:
260,164,21388,1,0,0:0:0:0:
312,296,21609,6,0,P|380:296|452:224,1,170,2|0,0:0|0:0,0:0:0:0:
420,132,22271,1,0,0:0:0:0:
420,132,22491,2,0,L|236:48,1,170,2|0,0:0|0:0,0:0:0:0:
164,48,23153,1,0,0:0:0:0:
200,144,23374,5,2,0:0:0:0:
352,280,23815,2,0,L|300:372,1,85
160,280,24256,2,0,L|212:372,1,85,2|0,0:0|0:0,0:0:0:0:
256,268,24697,2,0,L|256:168,1,85,2|0,0:0|0:0,0:0:0:0:
176,116,25138,6,0,P|256:92|344:120,1,170,2|0,0:0|0:0,0:0:0:0:
336,320,26021,2,0,P|256:344|168:316,1,170,2|0,0:0|0:0,0:0:0:0:
108,248,26682,1,0,0:0:0:0:
44,168,26903,6,0,P|36:128|52:72,1,85,2|0,0:0|0:0,0:0:0:0:
136,40,27344,2,0,P|144:80|128:136,1,85
45,85,27785,2,0,L|244:88,1,170,2|2,0:0|0:0,0:0:0:0:
308,132,28447,1,0,0:0:0:0:
392,192,28668,5,2,0:0:0:0:
256,344,29109,1,0,0:0:0:0:
120,192,29550,1,2,0:0:0:0:
256,40,29991,1,0,0:0:0:0:
448,112,30432,6,0,P|472:192|444:280,1,170,2|0,0:0|0:0,0:0:0:0:
352,304,31094,1,0,0:0:0:0:
256,272,31315,2,0,P|220:244|208:200,1,85,2|0,0:0|0:0,0:0:0:0:
255,119,31756,2,0,P|289:144|304:184,1,85,2|0,0:0|0:0,0:0:0:0:
156,132,32197,6,0,L|320:48,1,170,2|0,0:0|0:0,0:0:0:0:
460,192,33080,2,0,L|308:269,1,170,2|0,0:0|0:0,0:0:0:0:
216,312,33741,1,0,0:0:0:0:
116,328,33962,6,0,B|72:328|72:328|32:296,1,85,2|0,0:0|0:0,0:0:0:0:
72,204,34403,2,0,B|116:204|116:204|156:236,1,85
220,160,34844,2,0,L|148:104,1,85,2|0,0:0|0:0,0:0:0:0:
224,32,35285,2,0,L|291:84,1,85,2|0,0:0|0:0,0:0:0:0:
352,168,35727,6,0,P|368:224|320:348,1,170,2|0,0:0|0:0,0:0:0:0:
256,268,36388,1,0,0:0:0:0:
174,328,36609,2,0,P|144:250|160:168,1,170,2|0,0:0|0:0,0:0:0:0:
256,128,37271,1,0,0:0:0:0:
351,96,37491,6,0,P|364:55|353:15,1,85,2|0,0:0|0:0,0:0:0:0:
412,176,37932,2,0,P|400:212|412:260,1,85,2|0,0:0|0:0,0:0:0:0:
504,296,38374,2,0,L|316:296,1,170,2|0,0:0|0:0,0:0:0:0:
256,228,39035,1,0,0:0:0:0:
178,296,39256,6,0,L|8:296,1,170,2|0,0:0|0:0,0:0:0:0:
84,108,40138,2,0,L|254:108,1,170,2|0,0:0|0:0,0:0:0:0:
344,152,40800,1,0,0:0:0:0:
424,216,41021,6,0,B|424:244|436:256|436:256|424:272|420:308,1,85,2|0,0:0|0:0,0:0:0:0:
328,332,41462,2,0,B|328:304|316:292|316:292|328:276|332:240,2,85,0|0|2,0:0|0:0|0:0,0:0:0:0:
508,236,42344,2,0,P|504:180|468:140,1,85,2|0,0:0|0:0,0:0:0:0:
404,100,42785,5,2,0:0:0:0:
204,56,43227,1,0,0:0:0:0:
160,256,43668,1,2,0:0:0:0:
356,304,44109,2,0,B|400:304|400:304|440:340,1,85
500,256,44550,6,0,L|428:192,1,85,2|0,0:0|0:0,0:0:0:0:
356,136,44991,2,0,B|344:96|344:96|360:40,1,85,2|0,0:0|0:0,0:0:0:0:
448,96,45432,2,0,L|248:96,1,170,2|0,0:0|0:0,0:0:0:0:
172,268,46094,1,0,0:0:0:0:
172,268,46315,6,0,L|372:268,2,170,2|0|2,0:0|0:0|0:0,0:0:0:0:
76,228,47418,1,0,0:0:0:0:
160,172,47638,2,0,P|176:128|172:80,1,85
256,28,48080,5,2,0:0:0:0:
337,90,48300,2,0,P|336:132|352:172,1,85,0|2,0:0|0:0,0:0:0:0:
384,268,48741,1,0,0:0:0:0:
384,268,48962,2,0,P|340:288|312:324,1,85,2|0,0:0|0:0,0:0:0:0:
128,268,49403,2,0,P|172:288|200:324,1,85
256,232,49844,5,2,0:0:0:0:
428,124,50285,1,0,0:0:0:0:
256,16,50727,1,2,0:0:0:0:
84,124,51168,2,0,P|76:160|96:216,1,85
184,244,51609,2,0,P|248:244|328:328,1,170,2|0,0:0|0:0,0:0:0:0:
488,192,52491,6,0,L|376:100,1,127.500004863739,2|0,0:0|0:0,0:0:0:0:
204,28,53374,5,8,0:0:0:0:
480,192,56462,6,0,P|444:192|392:160,1,85
328,100,56903,2,0,B|256:52|256:52|148:52,1,170,4|8,0:0|0:0,0:0:0:0:
100,244,57785,2,0,B|172:292|172:292|280:292,1,170,0|8,0:0|0:0,0:0:0:0:
336,228,58447,1,0,0:0:0:0:
336,228,58668,6,0,P|372:176|336:48,1,170,0|8,0:0|0:0,0:0:0:0:
260,48,59330,2,0,L|172:48,1,85,0|0,0:0|0:0,0:0:0:0:
192,148,59771,1,0,0:0:0:0:
192,148,59991,2,0,L|277:148,1,85,8|0,0:0|0:0,0:0:0:0:
368,192,60432,5,0,0:0:0:0:
228,340,60874,2,0,P|172:340|132:316,1,85,8|0,0:0|0:0,0:0:0:0:
92,244,61315,1,0,0:0:0:0:
92,144,61535,1,0,0:0:0:0:
146,56,61756,2,0,P|185:40|228:44,1,85,8|0,0:0|0:0,0:0:0:0:
316,96,62197,6,0,B|316:128|360:160|360:160|316:200|316:236,1,170,0|8,0:0|0:0,0:0:0:0:
236,296,62859,1,0,0:0:0:0:
148,348,63080,2,0,P|112:348|64:304,1,85
68,220,63521,2,0,P|104:220|152:264,1,85,8|0,0:0|0:0,0:0:0:0:
236,296,63962,6,0,L|396:172,1,170,0|8,0:0|0:0,0:0:0:0:
424,104,64624,1,0,0:0:0:0:
370,17,64844,2,0,P|330:5|286:17,1,85
243,107,65285,2,0,P|284:120|325:109,1,85,8|0,0:0|0:0,0:0:0:0:
176,32,65727,6,0,P|148:92|200:200,1,170,0|8,0:0|0:0,0:0:0:0:
256,256,66388,1,0,0:0:0:0:
331,185,66609,2,0,P|364:109|336:32,1,170,0|8,0:0|0:0,0:0:0:0:
244,72,67271,1,0,0:0:0:0:
152,32,67491,5,0,0:0:0:0:
28,192,67932,1,8,0:0:0:0:
152,352,68374,2,0,L|204:268,1,85
360,352,68815,2,0,L|308:268,1,85,8|0,0:0|0:0,0:0:0:0:
256,196,69256,5,0,0:0:0:0:
348,12,69697,2,0,B|388:12|388:12|432:44,2,85,8|0|0,0:0|0:0|0:0,0:0:0:0:
256,56,70359,1,0,0:0:0:0:
164,12,70580,2,0,B|124:12|124:12|80:44,1,85,8|0,0:0|0:0,0:0:0:0:
56,136,71021,6,0,B|56:224|56:224|120:296,1,170,4|8,0:0|0:0,0:0:0:0:
212,284,71682,1,0,0:0:0:0:
212,284,71903,2,0,B|212:196|212:196|148:124,1,170,0|8,0:0|0:0,0:0:0:0:
112,44,72565,1,0,0:0:0:0:
212,44,72785,6,0,B|272:44|272:44|324:68|324:68|380:68,1,170,0|8,0:0|0:0,0:0:0:0:
456,136,73447,1,0,0:0:0:0:
492,232,73668,2,0,B|492:272|492:272|464:324,1,85
372,292,74109,2,0,B|372:252|372:252|393:212,1,85,8|0,0:0|0:0,0:0:0:0:
456,136,74550,6,0,P|396:136|292:72,1,170,0|8,0:0|0:0,0:0:0:0:
212,36,75212,1,0,0:0:0:0:
120,80,75432,2,0,L|44:176,1,85
148,208,75874,2,0,L|200:141,1,85,8|0,0:0|0:0,0:0:0:0:
256,56,76315,5,0,0:0:0:0:
311,141,76535,2,0,L|364:208,1,85,0|8,0:0|0:0,0:0:0:0:
412,300,76977,1,0,0:0:0:0:
412,300,77197,2,0,B|372:300|372:300|324:332,1,85
100,300,77638,2,0,B|140:300|140:300|188:332,1,85,8|0,0:0|0:0,0:0:0:0:
256,260,78080,5,0,0:0:0:0:
328,68,78521,2,0,L|256:16,1,85,8|0,0:0|0:0,0:0:0:0:
200,100,78962,2,0,L|344:208,1,170,0|8,0:0|0:0,0:0:0:0:
412,272,79624,1,0,0:0:0:0:
328,328,79844,6,0,P|288:340|244:328,1,85
199,240,80285,2,0,P|240:227|281:238,1,85,8|0,0:0|0:0,0:0:0:0:
148,328,80727,2,0,L|84:256,1,85
71,104,81168,2,0,L|128:168,1,85,8|0,0:0|0:0,0:0:0:0:
200,240,81609,6,0,B|288:240|288:240|360:300,1,170,0|8,0:0|0:0,0:0:0:0:
500,152,82491,2,0,B|412:152|412:152|340:92,1,170,0|8,0:0|0:0,0:0:0:0:
256,56,83153,1,0,0:0:0:0:
162,99,83374,5,0,0:0:0:0:
128,300,83815,2,0,P|164:300|208:324,1,85,8|0,0:0|0:0,0:0:0:0:
305,322,84256,2,0,P|341:301|384:300,1,85,8|8,0:0|0:0,0:0:0:0:
472,356,84697,1,8,0:0:0:0:
484,332,84807,1,0,0:0:0:0:
488,308,84918,1,8,0:0:0:0:
484,284,85028,1,0,0:0:0:0:
476,260,85138,6,0,P|444:220|316:220,1,170,4|8,0:0|0:0,0:0:0:0:
256,280,85800,1,0,0:0:0:0:
180,348,86021,2,0,P|97:353|36:297,1,170,0|8,0:0|0:0,0:0:0:0:
165,181,86682,1,0,0:0:0:0:
165,181,86793,1,0,0:0:0:0:
165,181,86903,6,0,L|132:260,1,85
52,196,87344,1,8,0:0:0:0:
92,104,87565,2,0,P|148:44|256:44,1,170,8|0,0:0|0:0,0:0:0:0:
312,100,88227,2,0,P|344:112|408:100,1,85,8|0,0:0|0:0,0:0:0:0:
460,28,88668,6,0,P|480:76|436:204,1,170,0|8,0:0|0:0,0:0:0:0:
296,316,89550,2,0,B|256:330|256:330|208:314,1,85
144,244,89991,2,0,B|144:204|144:204|168:152,1,85,8|0,0:0|0:0,0:0:0:0:
256,124,90432,6,0,L|256:36,2,85,0|0|8,0:0|0:0|0:0,0:0:0:0:
349,163,91094,2,0,B|368:204|368:204|368:244,1,85
296,316,91535,1,8,0:0:0:0:
200,352,91756,2,0,P|160:352|116:316,1,85,8|0,0:0|0:0,0:0:0:0:
124,224,92197,6,0,P|156:168|140:56,1,170,0|8,0:0|0:0,0:0:0:0:
366,66,93080,2,0,P|351:148|388:224,1,170,0|8,0:0|0:0,0:0:0:0:
488,236,93741,1,0,0:0:0:0:
488,236,93852,1,0,0:0:0:0:
488,236,93962,6,0,L|304:304,1,170,0|8,0:0|0:0,0:0:0:0:
256,368,94624,1,0,0:0:0:0:
183,295,94844,2,0,B|143:281|143:281|95:297,1,85,0|8,0:0|0:0,0:0:0:0:
7,191,95285,2,0,B|47:205|47:205|88:192,1,85,8|0,0:0|0:0,0:0:0:0:
124,92,95727,5,8,0:0:0:0:
292,112,96168,1,8,0:0:0:0:
276,280,96609,1,8,0:0:0:0:
108,264,97050,1,8,0:0:0:0:
124,92,97491,6,0,B|168:92|168:92|220:68,1,85,2|0,0:0|0:0,0:0:0:0:
306,74,97932,2,0,B|344:92|344:92|388:92,1,85,2|0,0:0|0:0,0:0:0:0:
488,116,98374,1,8,0:0:0:0:
480,144,98484,1,0,0:0:0:0:
472,172,98594,1,0,0:0:0:0:
464,200,98705,1,0,0:0:0:0:
456,228,98815,2,0,L|436:284,3,42.5,8|0|0|0,0:0|0:0|0:0|0:0,0:0:0:0:
428,296,99256,6,0,P|392:328|328:328,1,101.999996887207,4|0,0:0|0:0,0:0:0:0:
256,272,99697,1,8,0:0:0:0:
171,332,99918,2,0,P|121:328|84:296,1,101.999996887207
72,196,100359,2,0,P|122:199|159:232,2,101.999996887207,0|8|0,0:0|0:0|0:0,0:0:0:0:
84,296,101021,6,0,L|164:100,1,203.999993774414,0|8,0:0|0:0,0:0:0:0:
256,72,101682,1,0,0:0:0:0:
350,107,101903,1,0,0:0:0:0:
448,144,102124,2,0,P|459:193|439:253,1,101.999996887207,0|8,0:0|0:0,0:0:0:0:
356,292,102565,1,8,0:0:0:0:
356,292,102675,1,0,0:0:0:0:
356,292,102785,6,0,P|344:242|364:182,1,101.999996887207,4|0,0:0|0:0,0:0:0:0:
451,47,103227,2,0,P|462:96|442:156,1,101.999996887207,8|0,0:0|0:0,0:0:0:0:
364,88,103668,2,0,L|252:60,1,101.999996887207
208,148,104109,2,0,L|306:172,1,101.999996887207,8|0,0:0|0:0,0:0:0:0:
388,236,104550,6,0,B|388:280|424:320|424:320|364:316|312:344,1,203.999993774414,0|8,0:0|0:0,0:0:0:0:
224,296,105212,2,0,P|176:280|124:300,1,101.999996887207
12,196,105653,2,0,P|60:212|108:196,1,101.999996887207,0|8,0:0|0:0,0:0:0:0:
128,88,106094,1,8,0:0:0:0:
232,88,106315,6,0,P|300:88|392:196,1,203.999993774414,4|8,0:0|0:0,0:0:0:0:
368,280,106977,1,0,0:0:0:0:
304,360,107197,2,0,L|192:320,1,101.999996887207,8|0,0:0|0:0,0:0:0:0:
116,284,107638,2,0,L|156:172,1,101.999996887207,8|0,0:0|0:0,0:0:0:0:
282,127,108080,6,0,L|248:224,1,101.999996887207,8|0,0:0|0:0,0:0:0:0:
348,244,108521,2,0,L|382:147,1,101.999996887207,8|0,0:0|0:0,0:0:0:0:
404,48,108962,2,0,P|348:48|304:24,1,101.999996887207,8|0,0:0|0:0,0:0:0:0:
108,48,109403,2,0,P|164:48|208:24,1,101.999996887207,8|0,0:0|0:0,0:0:0:0:
256,116,109844,6,0,L|256:224,1,101.999996887207,4|0,0:0|0:0,0:0:0:0:
316,300,110285,2,0,L|404:360,1,101.999996887207,8|0,0:0|0:0,0:0:0:0:
196,300,110727,2,0,L|108:360,1,101.999996887207,8|0,0:0|0:0,0:0:0:0:
60,268,111168,2,0,L|144:210,1,101.999996887207,8|0,0:0|0:0,0:0:0:0:
204,128,111609,6,0,P|212:84|180:24,1,101.999996887207,4|0,0:0|0:0,0:0:0:0:
322,32,112050,2,0,P|300:78|308:128,1,101.999996887207,8|0,0:0|0:0,0:0:0:0:
388,192,112491,2,0,L|308:272,1,101.999996887207,8|0,0:0|0:0,0:0:0:0:
124,192,112932,2,0,L|204:272,1,101.999996887207,8|0,0:0|0:0,0:0:0:0:
256,160,113374,5,4,0:0:0:0:
256,192,113484,12,0,119550,0:0:0:0:
