osu file format v14

[General]
AudioFilename: Cocaine.mp3
AudioLeadIn: 2000
PreviewTime: 14166
Countdown: 0
SampleSet: Soft
StackLeniency: 0.7
Mode: 0
LetterboxInBreaks: 0
WidescreenStoryboard: 0

[Editor]
DistanceSpacing: 1.4
BeatDivisor: 4
GridSize: 4
TimelineZoom: 1

[Metadata]
Title:Addictive
TitleUnicode:Addictive
Artist:Royal Republic
ArtistUnicode:Royal Republic
Creator:-Nya-
Version:Obsession
Source:
Tags:cut version save the nation
BeatmapID:857344
BeatmapSetID:393865

[Difficulty]
HPDrainRate:7
CircleSize:4
OverallDifficulty:7
ApproachRate:8.5
SliderMultiplier:1.6
SliderTickRate:1

[Events]
//Background and Video events
0,0,"Kiss.jpg",0,0
//Break Periods
//Storyboard Layer 0 (Background)
//Storyboard Layer 1 (Fail)
//Storyboard Layer 2 (Pass)
//Storyboard Layer 3 (Foreground)
//Storyboard Sound Samples

[TimingPoints]
490,441.176470588235,4,2,1,50,1,0
28504,-100,4,2,1,20,0,0
28725,-100,4,2,1,60,0,0
42622,-100,4,2,1,20,0,0
42842,-100,4,2,1,60,0,0
46151,-100,4,2,1,20,0,0
46372,-100,4,2,1,60,0,0
49681,-100,4,2,1,20,0,0
49901,-100,4,2,1,60,0,0
56960,-100,4,2,1,60,0,1
57070,-100,4,2,1,60,0,0
71078,-100,4,2,1,60,0,1
71188,-100,4,2,1,60,0,0
85195,-83.3333333333333,4,2,1,70,0,1
85306,-83.3333333333333,4,2,1,70,0,0
87842,-83.3333333333333,4,2,1,50,0,0
88284,-83.3333333333333,4,2,1,70,0,0
91372,-83.3333333333333,4,2,1,50,0,0
91813,-83.3333333333333,4,2,1,70,0,0
94901,-83.3333333333333,4,2,1,50,0,0
95342,-83.3333333333333,4,2,1,70,0,0
99313,-71.4285714285714,4,2,1,80,0,1
106151,-71.4285714285714,4,2,1,80,0,0
106372,-71.4285714285714,4,2,1,80,0,1
113210,-71.4285714285714,4,2,1,80,0,0
113431,-71.4285714285714,4,2,1,80,0,1
113651,-71.4285714285714,4,2,1,5,0,0

[Colours]
Combo1 : 255,164,209
Combo2 : 255,136,136
Combo3 : 255,111,255
Combo4 : 176,98,255

[HitObjects]
256,192,490,5,0,0:0:0:0:
256,176,931,1,0,0:0:0:0:
256,160,1372,1,0,0:0:0:0:
256,144,1813,1,0,0:0:0:0:
416,140,2254,5,0,0:0:0:0:
416,156,2695,1,0,0:0:0:0:
416,172,3137,1,0,0:0:0:0:
416,188,3578,1,0,0:0:0:0:
420,348,4019,5,0,0:0:0:0:
404,348,4460,1,0,0:0:0:0:
388,348,4901,1,0,0:0:0:0:
372,348,5342,1,0,0:0:0:0:
212,344,5784,5,0,0:0:0:0:
200,332,6225,1,0,0:0:0:0:
188,320,6666,1,0,0:0:0:0:
176,308,7107,1,0,0:0:0:0:
368,52,7548,6,0,P|404:92|404:140,1,80,8|0,0:0|0:0,0:0:0:0:
356,216,7989,1,8,0:0:0:0:
280,296,8210,1,0,0:0:0:0:
128,240,8431,2,0,P|92:200|88:168,1,80,8|0,0:0|0:0,0:0:0:0:
144,80,8872,1,8,0:0:0:0:
252,48,9092,1,0,0:0:0:0:
388,132,9313,6,0,L|428:216,1,80,8|0,0:0|0:0,0:0:0:0:
396,312,9754,1,8,0:0:0:0:
280,296,9975,1,0,0:0:0:0:
124,324,10195,2,0,L|44:356,1,80,8|0,0:0|0:0,0:0:0:0:
28,244,10637,1,8,0:0:0:0:
48,132,10857,1,0,0:0:0:0:
184,48,11078,6,0,P|236:60|280:48,1,80,8|0,0:0|0:0,0:0:0:0:
372,40,11519,1,8,0:0:0:0:
456,112,11739,1,0,0:0:0:0:
436,272,11960,2,0,L|376:348,1,80,8|0,0:0|0:0,0:0:0:0:
276,352,12401,1,8,0:0:0:0:
168,320,12622,1,0,0:0:0:0:
136,164,12842,6,0,P|176:132|192:92,1,80,8|0,0:0|0:0,0:0:0:0:
264,24,13284,1,8,0:0:0:0:
368,68,13504,1,0,0:0:0:0:
436,212,13725,2,0,L|352:268,1,80,8|0,0:0|0:0,0:0:0:0:
260,272,14166,1,8,0:0:0:0:
148,236,14387,1,0,0:0:0:0:
124,80,14607,6,0,P|160:44|196:28,1,80,8|0,0:0|0:0,0:0:0:0:
252,124,15048,2,0,P|301:110|340:114,1,80,8|0,0:0|0:0,0:0:0:0:
332,224,15489,2,0,P|381:237|413:260,1,80,8|0,0:0|0:0,0:0:0:0:
468,344,15931,2,0,P|504:300|512:252,1,80,8|0,0:0|0:0,0:0:0:0:
476,120,16372,6,0,L|416:40,1,80,8|0,0:0|0:0,0:0:0:0:
320,32,16813,1,8,0:0:0:0:
252,124,17034,1,0,0:0:0:0:
156,68,17254,2,0,L|106:130,1,80,8|0,0:0|0:0,0:0:0:0:
64,236,17695,1,8,0:0:0:0:
96,344,17916,1,0,0:0:0:0:
256,312,18137,6,0,L|328:268,1,80,8|0,0:0|0:0,0:0:0:0:
332,160,18578,2,0,L|404:116,1,80,8|0,0:0|0:0,0:0:0:0:
340,24,19019,2,0,L|271:65,1,80,8|0,0:0|0:0,0:0:0:0:
164,40,19460,2,0,L|95:81,1,80,8|0,0:0|0:0,0:0:0:0:
92,192,19901,5,8,0:0:0:0:
168,324,20122,1,0,0:0:0:0:
168,192,20342,1,8,0:0:0:0:
91,323,20563,1,0,0:0:0:0:
206,258,20784,1,8,0:0:0:0:
53,258,21004,1,0,0:0:0:0:
206,258,21225,2,0,L|286:222,1,80,8|0,0:0|0:0,0:0:0:0:
392,112,21666,6,0,P|368:76|332:60,1,80,8|0,0:0|0:0,0:0:0:0:
224,56,22107,1,8,0:0:0:0:
168,152,22328,1,0,0:0:0:0:
206,258,22548,2,0,P|262:262|294:238,1,80,8|0,0:0|0:0,0:0:0:0:
380,200,22989,1,8,0:0:0:0:
476,256,23210,1,0,0:0:0:0:
336,336,23431,6,0,L|248:272,1,80,8|0,0:0|0:0,0:0:0:0:
188,216,23872,1,8,0:0:0:0:
152,108,24092,1,0,0:0:0:0:
248,56,24313,2,0,L|312:103,1,80,8|0,0:0|0:0,0:0:0:0:
416,140,24754,1,8,0:0:0:0:
460,244,24975,1,0,0:0:0:0:
324,324,25195,6,0,P|284:320|236:328,1,80,8|0,0:0|0:0,0:0:0:0:
316,236,25637,2,0,P|283:212|237:195,1,80,8|0,0:0|0:0,0:0:0:0:
353,155,26078,2,0,P|336:118|305:80,1,80,8|0,0:0|0:0,0:0:0:0:
425,103,26519,2,0,P|428:63|420:15,1,80,8|0,0:0|0:0,0:0:0:0:
474,166,26960,6,0,P|468:205|471:245,1,80,8|0,0:0|0:0,0:0:0:0:
440,356,27401,1,8,0:0:0:0:
312,256,27622,1,0,0:0:0:0:
472,246,27842,1,8,0:0:0:0:
292,360,28063,1,0,0:0:0:0:
312,256,28284,2,0,P|284:196|264:184,1,80,8|4,0:0|0:0,0:0:0:0:
116,180,28725,6,0,L|60:248,1,80,8|0,0:0|0:0,0:0:0:0:
224,212,29166,2,0,L|274:150,1,80,8|0,0:0|0:0,0:0:0:0:
280,308,29607,2,0,L|224:376,1,80,8|0,0:0|0:0,0:0:0:0:
384,336,30048,2,0,L|434:274,1,80,8|0,0:0|0:0,0:0:0:0:
432,112,30489,6,0,P|380:104|352:84,1,80,8|0,0:0|0:0,0:0:0:0:
260,40,30931,1,8,0:0:0:0:
160,88,31151,1,0,0:0:0:0:
120,192,31372,2,0,P|116:256|112:276,1,80,8|0,0:0|0:0,0:0:0:0:
196,348,31813,1,0,0:0:0:0:
308,328,32034,1,0,0:0:0:0:
360,176,32254,6,0,P|324:132|284:124,1,80,8|0,0:0|0:0,0:0:0:0:
160,88,32695,2,0,P|196:132|232:148,1,80,8|0,0:0|0:0,0:0:0:0:
160,12,33137,2,0,P|124:20|88:60,1,80,8|0,0:0|0:0,0:0:0:0:
72,156,33578,2,0,L|100:244,1,80,8|0,0:0|0:0,0:0:0:0:
192,292,34019,5,8,0:0:0:0:
312,192,34239,1,0,0:0:0:0:
152,220,34460,1,8,0:0:0:0:
352,260,34681,1,0,0:0:0:0:
192,292,34901,2,0,P|176:336|180:376,1,80,8|0,0:0|0:0,0:0:0:0:
264,236,35342,2,0,P|280:192|276:152,1,80,8|0,0:0|0:0,0:0:0:0:
404,60,35784,6,0,L|396:156,1,80,8|0,0:0|0:0,0:0:0:0:
364,248,36225,1,8,0:0:0:0:
272,312,36445,1,0,0:0:0:0:
124,248,36666,2,0,P|108:204|112:164,1,80,8|0,0:0|0:0,0:0:0:0:
140,64,37107,1,8,0:0:0:0:
248,36,37328,1,0,0:0:0:0:
400,100,37548,6,0,P|420:148|420:188,1,80,8|0,0:0|0:0,0:0:0:0:
364,272,37989,1,8,0:0:0:0:
256,296,38210,1,0,0:0:0:0:
100,260,38431,2,0,L|48:176,1,80,8|0,0:0|0:0,0:0:0:0:
120,100,38872,1,8,0:0:0:0:
232,116,39092,1,0,0:0:0:0:
380,180,39313,6,0,P|392:124|384:92,1,80,8|0,0:0|0:0,0:0:0:0:
304,224,39754,2,0,P|300:263|311:301,1,80,8|0,0:0|0:0,0:0:0:0:
204,336,40195,2,0,L|124:364,1,80,8|0,0:0|0:0,0:0:0:0:
56,276,40637,1,8,0:0:0:0:
56,164,40857,1,0,0:0:0:0:
172,52,41078,6,0,P|212:52|252:36,1,80,8|0,0:0|0:0,0:0:0:0:
360,56,41519,1,8,0:0:0:0:
328,220,41739,1,0,0:0:0:0:
448,124,41960,1,8,0:0:0:0:
292,132,42181,1,0,0:0:0:0:
436,220,42401,2,0,L|452:308,1,80,8|4,0:0|0:0,0:0:0:0:
300,352,42842,6,0,P|244:348|200:312,1,80,8|0,0:0|0:0,0:0:0:0:
164,244,43284,2,0,P|218:228|272:247,1,80,8|0,0:0|0:0,0:0:0:0:
348,264,43725,2,0,P|352:216|344:184,1,80
384,80,44166,2,0,P|430:111|450:164,1,80,8|0,0:0|0:0,0:0:0:0:
444,244,44607,5,8,0:0:0:0:
284,336,44828,1,0,0:0:0:0:
432,352,45048,1,8,0:0:0:0:
300,228,45269,1,0,0:0:0:0:
444,244,45489,2,0,P|424:200|384:176,1,80,8|0,0:0|0:0,0:0:0:0:
255,165,45931,2,0,P|275:209|315:233,1,80,8|4,0:0|0:0,0:0:0:0:
256,80,46372,6,0,P|212:92|176:132,1,80,8|0,0:0|0:0,0:0:0:0:
140,212,46813,1,8,0:0:0:0:
188,312,47034,1,0,0:0:0:0:
292,276,47254,2,0,P|348:260|380:268,1,80,8|0,0:0|0:0,0:0:0:0:
476,292,47695,1,8,0:0:0:0:
480,180,47916,1,0,0:0:0:0:
356,80,48137,6,0,L|276:52,1,80,8|0,0:0|0:0,0:0:0:0:
112,64,48578,2,0,L|187:90,1,80
272,212,49019,2,0,L|192:184,1,80,8|0,0:0|0:0,0:0:0:0:
44,236,49460,2,0,L|119:262,1,80,0|4,0:0|0:0,0:0:0:0:
276,300,49901,5,8,0:0:0:0:
396,232,50122,1,0,0:0:0:0:
300,140,50342,1,8,0:0:0:0:
344,280,50563,1,0,0:0:0:0:
300,140,50784,2,0,P|252:144|208:120,1,80,8|0,0:0|0:0,0:0:0:0:
112,108,51225,2,0,L|64:184,1,80,8|0,0:0|0:0,0:0:0:0:
64,288,51666,5,8,0:0:0:0:
212,220,51887,1,0,0:0:0:0:
112,108,52107,1,0,0:0:0:0:
152,284,52328,1,0,0:0:0:0:
192,108,52548,1,8,0:0:0:0:
396,16,52989,2,0,P|412:56|412:148,1,120
364,160,53431,6,0,L|384:324,1,160,2|2,0:0|0:0,0:0:0:0:
280,360,54092,1,0,0:0:0:0:
188,300,54313,2,0,P|144:280|96:268,1,80,2|0,0:0|0:0,0:0:0:0:
20,212,54754,1,2,0:0:0:0:
88,124,54975,1,0,0:0:0:0:
240,80,55195,6,0,P|284:64|336:36,1,80,2|0,0:0|0:0,0:0:0:0:
372,136,55637,2,0,P|416:120|468:92,1,80,2|0,0:0|0:0,0:0:0:0:
376,232,56078,2,0,P|339:249|302:262,1,80,2|0,0:0|0:0,0:0:0:0:
192,292,56519,1,8,3:3:0:0:
96,236,56739,1,0,0:0:0:0:
128,80,56960,6,0,L|48:40,1,80,4|0,0:0|0:0,0:0:0:0:
216,52,57401,2,0,L|287:87,1,80,2|0,0:0|0:0,0:0:0:0:
348,236,57842,2,0,P|344:284|368:328,1,80,8|0,0:0|0:0,0:0:0:0:
456,264,58284,2,0,P|468:226|463:187,1,80,10|0,0:0|0:0,0:0:0:0:
432,80,58725,5,8,0:0:0:0:
272,136,58945,1,0,0:0:0:0:
372,28,59166,1,2,0:0:0:0:
328,192,59387,1,0,0:0:0:0:
372,28,59607,2,0,P|308:32|280:28,1,80,8|0,0:0|0:0,0:0:0:0:
180,20,60048,1,2,0:0:0:0:
92,88,60269,1,0,0:0:0:0:
108,248,60489,6,0,P|112:300|96:336,1,80,8|0,0:0|0:0,0:0:0:0:
24,200,60931,2,0,P|18:160|29:122,1,80,2|0,0:0|0:0,0:0:0:0:
132,164,61372,2,0,P|172:192|188:224,1,80,8|0,0:0|0:0,0:0:0:0:
216,328,61813,2,0,L|312:300,1,80,2|0,0:0|0:0,0:0:0:0:
400,280,62254,5,8,0:0:0:0:
392,120,62475,1,0,0:0:0:0:
472,240,62695,1,2,0:0:0:0:
328,164,62916,1,0,0:0:0:0:
464,160,63137,1,8,0:0:0:0:
332,240,63357,1,0,0:0:0:0:
392,120,63578,2,0,P|360:84|312:76,1,80,2|0,0:0|0:0,0:0:0:0:
172,80,64019,6,0,L|112:148,1,80,8|0,0:0|0:0,0:0:0:0:
96,300,64460,2,0,L|148:240,1,80,2|0,0:0|0:0,0:0:0:0:
308,220,64901,2,0,L|255:279,1,80,8|0,0:0|0:0,0:0:0:0:
340,352,65342,1,2,0:0:0:0:
448,316,65563,1,0,0:0:0:0:
464,156,65784,6,0,P|444:100|428:84,1,80,8|0,0:0|0:0,0:0:0:0:
324,120,66225,2,0,P|268:99|245:101,1,80,2|0,0:0|0:0,0:0:0:0:
204,202,66666,2,0,P|152:231|139:249,1,80,8|0,0:0|0:0,0:0:0:0:
232,312,67107,1,2,0:0:0:0:
136,368,67328,1,0,0:0:0:0:
68,224,67548,6,0,L|36:148,1,80,8|0,0:0|0:0,0:0:0:0:
72,44,67989,1,2,0:0:0:0:
232,112,68210,1,0,0:0:0:0:
72,120,68431,1,8,0:0:0:0:
232,40,68651,1,0,0:0:0:0:
72,120,68872,2,0,L|156:160,1,80,2|0,0:0|0:0,0:0:0:0:
280,240,69313,6,0,P|284:284|268:336,1,80,8|0,0:0|0:0,0:0:0:0:
180,192,69754,2,0,P|171:152|176:113,1,80,2|0,0:0|0:0,0:0:0:0:
256,36,70195,1,8,0:0:0:0:
364,68,70416,1,0,0:0:0:0:
408,172,70637,2,0,L|432:264,1,80,2|0,0:0|0:0,0:0:0:0:
300,348,71078,6,0,L|200:340,1,80,4|0,0:0|0:0,0:0:0:0:
196,232,71519,2,0,L|96:224,1,80,2|0,0:0|0:0,0:0:0:0:
16,112,71960,2,0,L|95:118,1,80,8|0,0:0|0:0,0:0:0:0:
168,32,72401,2,0,L|247:38,1,80,2|0,0:0|0:0,0:0:0:0:
348,92,72842,5,8,0:0:0:0:
368,264,73063,1,0,0:0:0:0:
440,168,73284,1,2,0:0:0:0:
284,188,73504,1,0,0:0:0:0:
368,264,73725,2,0,L|336:344,1,80,8|0,0:0|0:0,0:0:0:0:
232,376,74166,1,2,0:0:0:0:
124,344,74387,1,0,0:0:0:0:
120,184,74607,6,0,P|124:120|144:88,1,80,8|0,0:0|0:0,0:0:0:0:
244,108,75048,2,0,P|305:89|342:97,1,80,2|0,0:0|0:0,0:0:0:0:
359,196,75489,2,0,P|397:247|402:284,1,80,8|0,0:0|0:0,0:0:0:0:
412,372,75931,1,2,0:0:0:0:
504,308,76151,1,0,0:0:0:0:
468,152,76372,5,8,0:0:0:0:
372,96,76592,1,0,0:0:0:0:
264,128,76813,2,0,P|232:164|196:180,1,80,2|0,0:0|0:0,0:0:0:0:
102,214,77254,2,0,P|121:249|160:276,1,80,8|0,0:0|0:0,0:0:0:0:
252,324,77695,1,2,0:0:0:0:
340,252,77916,1,0,0:0:0:0:
372,96,78137,6,0,L|316:20,1,80,8|0,0:0|0:0,0:0:0:0:
212,20,78578,1,2,0:0:0:0:
108,60,78798,1,0,0:0:0:0:
102,214,79019,2,0,P|134:250|174:274,1,80,8|0,0:0|0:0,0:0:0:0:
252,324,79460,1,2,0:0:0:0:
340,252,79681,1,0,0:0:0:0:
448,136,79901,6,0,L|468:48,1,80,8|0,0:0|0:0,0:0:0:0:
364,96,80342,2,0,L|320:16,1,80,2|0,0:0|0:0,0:0:0:0:
264,104,80784,2,0,L|184:72,1,80,8|0,0:0|0:0,0:0:0:0:
220,184,81225,2,0,L|156:252,1,80,2|0,0:0|0:0,0:0:0:0:
212,344,81666,5,8,0:0:0:0:
360,268,81887,1,0,0:0:0:0:
232,268,82107,1,2,0:0:0:0:
388,344,82328,1,0,0:0:0:0:
232,268,82548,2,0,P|280:232|284:184,1,80,8|0,0:0|0:0,0:0:0:0:
264,104,82989,2,0,P|216:140|212:188,1,80,2|0,0:0|0:0,0:0:0:0:
368,124,83431,6,0,P|364:72|344:40,1,80,8|0,0:0|0:0,0:0:0:0:
240,24,83872,1,2,0:0:0:0:
140,76,84092,1,0,0:0:0:0:
136,236,84313,1,2,0:0:0:0:
224,340,84534,1,2,0:0:0:0:
344,280,84754,5,8,0:0:0:0:
378,259,84864,1,8,0:0:0:0:
398,225,84974,1,8,0:0:0:0:
401,186,85084,1,8,0:0:0:0:
392,148,85195,6,0,P|356:116|304:104,1,95.9999970703126,4|0,0:0|0:0,0:0:0:0:
140,76,85637,2,0,P|176:108|232:124,1,95.9999970703126,2|0,0:0|0:0,0:0:0:0:
332,200,86078,1,8,0:0:0:0:
232,292,86298,1,0,0:0:0:0:
352,356,86519,2,0,P|400:344|452:328,1,95.9999970703126,2|0,0:0|0:0,0:0:0:0:
436,140,86960,5,8,0:0:0:0:
320,72,87181,1,0,0:0:0:0:
184,72,87401,2,0,P|124:96|104:120,1,95.9999970703126,2|0,0:0|0:0,0:0:0:0:
60,248,87842,1,8,1:1:0:0:
132,364,88063,1,8,1:1:0:0:
252,304,88284,2,0,L|336:224,1,95.9999970703126,2|0,0:0|0:0,0:0:0:0:
276,52,88725,6,0,P|208:60|184:72,1,95.9999970703126,8|0,0:0|0:0,0:0:0:0:
64,172,89166,2,0,P|132:164|156:152,1,95.9999970703126,2|0,0:0|0:0,0:0:0:0:
292,156,89607,1,8,0:0:0:0:
396,244,89828,1,0,0:0:0:0:
308,344,90048,2,0,P|220:348|204:352,1,95.9999970703126,2|0,0:0|0:0,0:0:0:0:
44,256,90489,5,8,0:0:0:0:
116,92,90710,1,0,0:0:0:0:
132,256,90931,1,2,0:0:0:0:
28,96,91151,1,0,0:0:0:0:
132,255,91372,1,8,1:1:0:0:
204,140,91593,1,8,1:1:0:0:
316,68,91814,2,0,P|360:64|416:92,1,95.9999970703126,2|0,0:0|0:0,0:0:0:0:
436,272,92254,6,0,L|460:380,1,95.9999970703126,8|0,0:0|0:0,0:0:0:0:
324,248,92695,2,0,L|303:154,1,95.9999970703126,2|0,0:0|0:0,0:0:0:0:
208,272,93137,2,0,L|232:380,1,95.9999970703126,8|0,0:0|0:0,0:0:0:0:
96,348,93578,1,2,0:0:0:0:
28,232,93798,1,0,0:0:0:0:
140,80,94019,6,0,P|184:56|216:24,1,95.9999970703126,8|0,0:0|0:0,0:0:0:0:
352,24,94460,2,0,P|386:57|428:80,1,95.9999970703126,2|0,0:0|0:0,0:0:0:0:
488,200,94901,1,8,1:1:0:0:
436,324,95122,1,8,1:1:0:0:
304,340,95342,2,0,P|248:336|208:308,1,95.9999970703126,2|0,0:0|0:0,0:0:0:0:
136,140,95784,6,0,L|112:40,1,95.9999970703126,2|0,0:0|0:0,0:0:0:0:
256,164,96225,2,0,L|232:64,1,95.9999970703126,2|0,0:0|0:0,0:0:0:0:
372,184,96666,2,0,L|348:84,1,95.9999970703126,2|0,0:0|0:0,0:0:0:0:
496,216,97107,2,0,L|472:116,1,95.9999970703126,2|0,0:0|0:0,0:0:0:0:
408,304,97548,5,8,0:0:0:0:
240,232,97769,1,8,0:0:0:0:
372,184,97989,1,8,0:0:0:0:
288,336,98210,1,8,0:0:0:0:
372,184,98431,5,2,0:0:0:0:
342,146,98541,1,2,0:0:0:0:
304,117,98651,1,2,0:0:0:0:
260,98,98761,1,2,0:0:0:0:
212,92,98872,1,2,0:0:0:0:
165,98,98982,1,2,0:0:0:0:
120,116,99092,1,2,0:0:0:0:
82,145,99203,1,2,0:0:0:0:
68,192,99313,6,0,P|72:252|100:304,1,111.999996582031,4|0,0:0|0:0,0:0:0:0:
252,300,99754,2,0,P|276:249|278:194,1,111.999996582031,8|0,3:3|0:0,0:0:0:0:
165,98,100195,1,8,0:0:0:0:
360,116,100416,1,0,0:0:0:0:
180,176,100637,1,8,3:3:0:0:
344,40,100857,1,0,0:0:0:0:
476,204,101078,6,0,P|468:276|480:312,1,111.999996582031,8|0,0:0|0:0,0:0:0:0:
324,340,101519,2,0,L|212:324,1,111.999996582031,8|0,3:3|0:0,0:0:0:0:
72,256,101960,2,0,P|56:184|56:140,1,111.999996582031,8|0,0:0|0:0,0:0:0:0:
172,44,102401,1,8,3:3:0:0:
328,52,102622,1,8,3:3:0:0:
420,256,102842,6,0,P|356:256|304:260,1,111.999996582031,4|0,0:0|0:0,0:0:0:0:
152,276,103284,1,8,3:3:0:0:
72,104,103504,1,0,0:0:0:0:
44,256,103725,1,8,0:0:0:0:
176,116,103945,1,0,0:0:0:0:
152,276,104166,2,0,L|236:184,1,111.999996582031,8|0,3:3|0:0,0:0:0:0:
412,64,104607,6,0,P|428:124|452:188,1,111.999996582031,8|0,0:0|0:0,0:0:0:0:
300,196,105048,2,0,P|343:239|396:283,1,111.999996582031,8|0,3:3|0:0,0:0:0:0:
232,348,105489,2,0,P|291:364|359:375,1,111.999996582031,8|0,0:0|0:0,0:0:0:0:
492,324,105931,1,8,3:3:0:0:
444,170,106151,1,8,3:3:0:0:
244,64,106372,6,0,P|176:64|136:96,1,111.999996582031,4|0,0:0|0:0,0:0:0:0:
292,140,106813,2,0,P|360:140|400:108,1,111.999996582031,8|0,3:3|0:0,0:0:0:0:
492,236,107254,1,8,0:0:0:0:
376,340,107475,1,0,0:0:0:0:
220,332,107695,2,0,L|124:264,1,111.999996582031,8|0,3:3|0:0,0:0:0:0:
112,44,108137,6,0,P|176:52|244:36,1,111.999996582031,4|0,0:0|0:0,0:0:0:0:
332,156,108578,2,0,P|288:190|236:211,1,111.999996582031,8|0,3:3|0:0,0:0:0:0:
120,316,109019,1,8,0:0:0:0:
276,340,109239,1,0,0:0:0:0:
432,320,109460,2,0,L|472:208,1,111.999996582031,8|0,3:3|0:0,0:0:0:0:
324,44,109901,6,0,L|184:28,1,111.999996582031,4|0,0:0|0:0,0:0:0:0:
212,188,110342,2,0,L|72:172,1,111.999996582031,4|0,0:0|0:0,0:0:0:0:
160,320,110784,2,0,L|271:332,1,111.999996582031,4|0,0:0|0:0,0:0:0:0:
328,184,111225,2,0,L|439:196,1,111.999996582031,4|0,0:0|0:0,0:0:0:0:
292,28,111666,5,4,0:0:0:0:
136,148,111887,1,0,0:0:0:0:
296,156,112107,1,4,0:0:0:0:
136,28,112328,1,0,0:0:0:0:
208,228,112548,2,0,L|268:336,1,111.999996582031,4|0,0:0|0:0,0:0:0:0:
380,220,112989,2,0,L|325:122,1,111.999996582031,4|0,0:0|0:0,0:0:0:0:
212,16,113431,5,4,0:0:0:0:
256,192,113651,12,0,119828,0:0:0:0:
