osu file format v14

[General]
AudioFilename: Cocaine.mp3
AudioLeadIn: 2000
PreviewTime: 14166
Countdown: 0
SampleSet: Soft
StackLeniency: 0.7
Mode: 0
LetterboxInBreaks: 0
WidescreenStoryboard: 0

[Editor]
DistanceSpacing: 1.3
BeatDivisor: 4
GridSize: 4
TimelineZoom: 1

[Metadata]
Title:Addictive
TitleUnicode:Addictive
Artist:Royal Republic
ArtistUnicode:Royal Republic
Creator:-Nya-
Version:Normal
Source:
Tags:cut version save the nation
BeatmapID:861314
BeatmapSetID:393865

[Difficulty]
HPDrainRate:4
CircleSize:3.5
OverallDifficulty:4
ApproachRate:5
SliderMultiplier:1.2
SliderTickRate:1

[Events]
//Background and Video events
0,0,"Kiss.jpg",0,0
//Break Periods
//Storyboard Layer 0 (Background)
//Storyboard Layer 1 (Fail)
//Storyboard Layer 2 (Pass)
//Storyboard Layer 3 (Foreground)
//Storyboard Sound Samples

[TimingPoints]
490,441.176470588235,4,2,1,50,1,0
28504,-100,4,2,1,20,0,0
28725,-100,4,2,1,60,0,0
42622,-100,4,2,1,20,0,0
42842,-100,4,2,1,60,0,0
46151,-100,4,2,1,20,0,0
46372,-100,4,2,1,60,0,0
49681,-100,4,2,1,20,0,0
49901,-100,4,2,1,60,0,0
56960,-100,4,2,1,60,0,1
57070,-100,4,2,1,60,0,0
71078,-100,4,2,1,60,0,1
71188,-100,4,2,1,60,0,0
85195,-100,4,2,1,70,0,1
85306,-100,4,2,1,70,0,0
87842,-100,4,2,1,50,0,0
88284,-100,4,2,1,70,0,0
91372,-100,4,2,1,50,0,0
91813,-100,4,2,1,70,0,0
94901,-100,4,2,1,50,0,0
95342,-100,4,2,1,70,0,0
99313,-100,4,2,1,80,0,1
106151,-100,4,2,1,80,0,0
106372,-100,4,2,1,80,0,1
113210,-100,4,2,1,80,0,0
113431,-100,4,2,1,80,0,1
113651,-100,4,2,1,5,0,0

[Colours]
Combo1 : 255,164,209
Combo2 : 255,136,136
Combo3 : 255,111,255
Combo4 : 176,98,255

[HitObjects]
104,64,490,6,0,P|168:76|228:60,1,120,0|0,0:0|0:0,0:0:0:0:
372,100,1372,2,0,L|380:220,1,120
284,344,2254,2,0,P|236:336|164:348,1,120
52,240,3137,2,0,L|8:124,1,120
164,96,4019,6,0,L|216:216,1,120
364,240,4901,2,0,B|428:236|428:236|484:244,1,120
496,88,5784,2,0,L|364:64,1,120,0|0,0:0|0:0,0:0:0:0:
220,68,6666,2,0,P|164:100|96:104,1,120,0|0,0:0|0:0,0:0:0:0:
68,256,7548,6,0,L|136:364,1,120,8|8,0:0|0:0,0:0:0:0:
212,356,8210,1,0,0:0:0:0:
288,332,8431,2,0,P|320:296|340:224,1,120,8|8,0:0|0:0,0:0:0:0:
328,72,9313,2,0,B|304:44|304:44|216:28,1,120,8|8,0:0|0:0,0:0:0:0:
144,36,9975,1,0,0:0:0:0:
96,96,10195,2,0,P|88:144|96:216,1,120,8|8,0:0|0:0,0:0:0:0:
236,280,11078,6,0,B|296:264|296:264|364:264,1,120,8|8,0:0|0:0,0:0:0:0:
432,272,11739,1,0,0:0:0:0:
448,196,11960,2,0,L|416:72,1,120,8|8,0:0|0:0,0:0:0:0:
264,48,12842,1,8,0:0:0:0:
116,96,13284,1,8,0:0:0:0:
100,252,13725,1,8,0:0:0:0:
232,336,14166,2,0,L|300:356,1,60,8|0,0:0|0:0,0:0:0:0:
368,352,14607,6,0,P|388:304|372:232,1,120,8|8,0:0|0:0,0:0:0:0:
264,128,15489,2,0,P|244:80|260:8,1,120,8|8,0:0|0:0,0:0:0:0:
404,60,16372,2,0,L|484:152,2,120,8|8|8,0:0|0:0|0:0,0:0:0:0:
255,14,17695,2,0,L|191:42,1,60,8|0,0:0|0:0,0:0:0:0:
140,88,18137,6,0,P|124:176|136:208,1,120,8|8,0:0|0:0,0:0:0:0:
240,316,19019,2,0,P|300:328|368:308,1,120,8|8,0:0|0:0,0:0:0:0:
412,168,19901,2,0,P|428:108|440:48,2,120,8|8|0,0:0|0:0|0:0,0:0:0:0:
292,68,21225,2,0,P|262:64|232:69,1,60,8|0,0:0|0:0,0:0:0:0:
160,96,21666,6,0,L|176:236,1,120,8|8,0:0|0:0,0:0:0:0:
188,292,22328,1,0,0:0:0:0:
168,368,22548,2,0,B|124:356|112:312|112:312|72:276,1,120,8|8,0:0|0:0,0:0:0:0:
44,136,23431,2,0,L|76:16,2,120,8|8|8,0:0|0:0|0:0,0:0:0:0:
44,292,24754,2,0,L|80:352,1,60,8|0,0:0|0:0,0:0:0:0:
152,364,25195,6,0,P|208:348|272:364,1,120,8|8,0:0|0:0,0:0:0:0:
408,296,26078,2,0,B|436:240|436:240|444:180,1,120,8|8,0:0|0:0,0:0:0:0:
432,108,26739,1,0,0:0:0:0:
360,80,26960,2,0,P|312:60|248:20,1,120,8|8,0:0|0:0,0:0:0:0:
100,48,27842,1,8,0:0:0:0:
40,192,28284,2,0,L|64:256,1,60,8|4,0:0|0:0,0:0:0:0:
100,316,28725,6,0,P|168:312|220:328,2,120,8|8|8,0:0|0:0|0:0,0:0:0:0:
124,160,30048,1,8,0:0:0:0:
268,96,30489,2,0,P|328:68|368:20,1,120,8|8,0:0|0:0,0:0:0:0:
440,40,31151,1,0,0:0:0:0:
452,116,31372,2,0,P|464:208|476:256,1,120,8|0,0:0|0:0,0:0:0:0:
480,312,32034,1,0,0:0:0:0:
408,340,32254,6,0,B|332:340|332:340|284:352,2,120,8|8|8,0:0|0:0|0:0,0:0:0:0:
392,184,33578,2,0,L|332:132,1,60,8|0,0:0|0:0,0:0:0:0:
280,100,34019,2,0,P|236:108|168:168,1,120,8|8,0:0|0:0,0:0:0:0:
96,280,34901,2,0,L|12:172,1,120,8|8,0:0|0:0,0:0:0:0:
28,108,35563,1,0,0:0:0:0:
88,56,35784,6,0,P|132:40|212:88,1,120,8|8,0:0|0:0,0:0:0:0:
244,128,36445,1,0,0:0:0:0:
288,192,36666,2,0,P|340:217|397:202,1,120,8|8,0:0|0:0,0:0:0:0:
488,328,37548,2,0,P|396:352|348:352,1,120,8|8,0:0|0:0,0:0:0:0:
296,332,38210,1,0,0:0:0:0:
220,308,38431,2,0,P|128:284|80:284,1,120,8|8,0:0|0:0,0:0:0:0:
36,320,39092,1,0,0:0:0:0:
24,244,39313,6,0,B|12:188|12:188|12:120,2,120,8|8|8,0:0|0:0|0:0,0:0:0:0:
180,220,40637,2,0,L|240:188,1,60,8|0,0:0|0:0,0:0:0:0:
300,152,41078,1,8,0:0:0:0:
384,20,41519,1,8,0:0:0:0:
228,16,41960,1,8,0:0:0:0:
128,136,42401,2,0,L|76:184,1,60,8|4,0:0|0:0,0:0:0:0:
40,240,42842,6,0,P|70:291|120:322,1,120,8|8,0:0|0:0,0:0:0:0:
276,348,43725,2,0,L|320:304,1,60,8|0,0:0|0:0,0:0:0:0:
396,308,44166,2,0,L|440:352,1,60,8|0,0:0|0:0,0:0:0:0:
512,332,44607,2,0,B|523:258|523:258|511:214,1,120,8|8,0:0|0:0,0:0:0:0:
392,116,45489,2,0,P|334:132|275:124,1,120,8|8,0:0|0:0,0:0:0:0:
204,92,46151,1,4,0:0:0:0:
136,128,46372,6,0,L|173:241,1,120,8|8,0:0|0:0,0:0:0:0:
288,348,47254,2,0,P|317:344|347:342,1,60,8|0,0:0|0:0,0:0:0:0:
412,300,47695,2,0,P|431:277|444:250,1,60,8|0,0:0|0:0,0:0:0:0:
476,180,48137,2,0,P|477:120|446:70,2,120,8|0|8,0:0|0:0|0:0,0:0:0:0:
328,232,49460,2,0,L|252:264,1,60,0|4,0:0|0:0,0:0:0:0:
200,284,49901,6,0,B|160:308|120:304|120:304|60:320,2,120,8|8|8,0:0|0:0|0:0,0:0:0:0:
148,136,51225,2,0,L|72:120,1,60,8|0,0:0|0:0,0:0:0:0:
16,100,51666,2,0,P|36:44|104:0,2,120,8|8|8,0:0|0:0|0:0,0:0:0:0:
320,168,53431,6,0,P|376:152|408:84,1,120,2|2,0:0|0:0,0:0:0:0:
252,120,54313,2,0,L|216:180,1,60,2|0,0:0|0:0,0:0:0:0:
188,240,54754,2,0,L|120:272,1,60,2|0,0:0|0:0,0:0:0:0:
60,288,55195,2,0,B|44:252|56:224|56:224|40:188|56:152,1,120,2|2,0:0|0:0,0:0:0:0:
156,56,56078,2,0,L|236:40,1,60,2|0,0:0|0:0,0:0:0:0:
292,44,56519,2,0,L|350:55,1,60,8|0,0:0|0:0,0:0:0:0:
424,84,56960,6,0,P|384:127|308:120,1,120,4|2,0:0|0:0,0:0:0:0:
204,224,57842,2,0,L|177:340,1,120,8|10,0:0|0:0,0:0:0:0:
52,252,58725,2,0,B|28:232|28:232|0:144,1,120,8|2,0:0|0:0,0:0:0:0:
24,72,59387,1,0,0:0:0:0:
96,44,59607,2,0,P|144:72|200:124,1,120,8|2,0:0|0:0,0:0:0:0:
252,168,60269,1,0,0:0:0:0:
324,200,60489,6,0,L|404:100,2,120,8|2|8,0:0|0:0|0:0,0:0:0:0:
172,164,61813,2,0,L|220:100,1,60,2|0,0:0|0:0,0:0:0:0:
252,52,62254,2,0,P|208:28|116:24,1,120,8|2,0:0|0:0,0:0:0:0:
64,40,62916,1,0,0:0:0:0:
56,116,63137,2,0,P|56:200|60:260,1,120,8|2,0:0|0:0,0:0:0:0:
64,312,63798,1,0,0:0:0:0:
136,340,64019,6,0,P|184:332|268:348,1,120,8|2,0:0|0:0,0:0:0:0:
332,352,64681,1,0,0:0:0:0:
400,316,64901,2,0,L|472:192,1,120,8|2,0:0|0:0,0:0:0:0:
412,64,65784,2,0,B|352:56|352:56|292:20,2,120,8|2|8,0:0|0:0|0:0,0:0:0:0:
364,212,67107,2,0,L|320:264,1,60,2|0,0:0|0:0,0:0:0:0:
284,324,67548,6,0,P|216:312|168:272,1,120,8|2,0:0|0:0,0:0:0:0:
232,136,68431,2,0,P|183:102|124:94,1,120,8|2,0:0|0:0,0:0:0:0:
48,84,69092,1,0,0:0:0:0:
84,16,69313,2,0,L|216:20,1,120,8|2,0:0|0:0,0:0:0:0:
352,64,70195,1,8,0:0:0:0:
408,208,70637,2,0,L|396:280,1,60,2|0,0:0|0:0,0:0:0:0:
372,340,71078,6,0,B|292:328|292:328|232:332,1,120,4|2,0:0|0:0,0:0:0:0:
100,308,71960,2,0,P|100:248|84:188,1,120,8|2,0:0|0:0,0:0:0:0:
116,36,72842,2,0,P|176:12|240:16,1,120,8|2,0:0|0:0,0:0:0:0:
292,60,73504,1,0,0:0:0:0:
332,128,73725,2,0,L|388:244,1,120,8|2,0:0|0:0,0:0:0:0:
416,308,74387,1,0,0:0:0:0:
348,344,74607,6,0,L|220:360,2,120,8|2|8,0:0|0:0|0:0,0:0:0:0:
476,252,75931,2,0,L|496:196,1,60,2|0,0:0|0:0,0:0:0:0:
488,116,76372,2,0,P|472:80|392:36,1,120,8|2,0:0|0:0,0:0:0:0:
264,100,77254,2,0,P|224:164|168:208,1,120,8|2,0:0|0:0,0:0:0:0:
96,316,78137,6,0,P|136:356|208:352,1,120,8|2,0:0|0:0,0:0:0:0:
264,320,78798,1,0,0:0:0:0:
312,256,79019,2,0,L|364:140,1,120,8|2,0:0|0:0,0:0:0:0:
248,40,79901,2,0,B|208:44|184:36|184:36|144:44|112:36,1,120,8|2,0:0|0:0,0:0:0:0:
52,32,80563,1,0,0:0:0:0:
44,108,80784,2,0,L|24:240,1,120,8|2,0:0|0:0,0:0:0:0:
60,296,81445,1,0,0:0:0:0:
140,300,81666,6,0,P|196:300|272:332,2,120,8|2|8,0:0|0:0|0:0,0:0:0:0:
132,144,82989,2,0,L|164:84,1,60,2|0,0:0|0:0,0:0:0:0:
204,24,83431,2,0,B|260:32|260:32|320:68,1,120,8|2,0:0|0:0,0:0:0:0:
364,124,84092,1,0,0:0:0:0:
376,200,84313,2,0,L|360:272,1,60,2|2,0:0|0:0,0:0:0:0:
288,280,84754,2,0,L|272:352,1,60,8|8,0:0|0:0,0:0:0:0:
200,356,85195,6,0,P|152:360|72:336,1,120,4|2,0:0|0:0,0:0:0:0:
40,192,86078,2,0,L|52:104,1,60,8|0,0:0|0:0,0:0:0:0:
120,104,86519,2,0,L|132:16,1,60,2|0,0:0|0:0,0:0:0:0:
204,32,86960,2,0,B|280:48|280:48|344:48,1,120,8|2,0:0|0:0,0:0:0:0:
464,108,87842,2,0,L|480:172,2,60,8|8|2,1:1|1:1|0:0,0:0:0:0:
308,112,88725,6,0,P|304:160|316:256,1,120,8|2,0:0|0:0,0:0:0:0:
204,348,89607,2,0,P|168:340|144:312,1,60,8|0,0:0|0:0,0:0:0:0:
112,256,90048,2,0,P|88:237|59:233,1,60,2|0,0:0|0:0,0:0:0:0:
24,164,90489,2,0,P|32:84|64:48,1,120,8|2,0:0|0:0,0:0:0:0:
212,44,91372,2,0,L|256:88,2,60,8|8|2,1:1|1:1|0:0,0:0:0:0:
132,40,92034,1,0,0:0:0:0:
132,116,92254,6,0,P|132:164|144:256,1,120,8|2,0:0|0:0,0:0:0:0:
288,284,93137,2,0,P|336:264|400:288,1,120,8|2,0:0|0:0,0:0:0:0:
456,340,93798,1,0,0:0:0:0:
480,264,94019,2,0,L|464:132,1,120,8|2,0:0|0:0,0:0:0:0:
328,72,94901,2,0,L|256:48,2,60,8|8|2,1:1|1:1|0:0,0:0:0:0:
332,152,95563,1,0,0:0:0:0:
256,172,95784,6,0,P|200:164|144:120,1,120,2|2,0:0|0:0,0:0:0:0:
104,276,96666,2,0,L|248:296,1,120,2|2,0:0|0:0,0:0:0:0:
380,292,97548,2,0,B|364:260|380:228|380:228|360:196|372:152,2,120,8|8|2,0:0|0:0|0:0,0:0:0:0:
224,268,98872,2,0,L|196:212,1,60,2|2,0:0|0:0,0:0:0:0:
172,140,99313,6,0,P|160:104|96:44,1,120,4|8,0:0|3:3,0:0:0:0:
28,24,99975,1,0,0:0:0:0:
24,100,100195,2,0,L|20:220,1,120,8|8,0:0|3:3,0:0:0:0:
28,296,100857,1,0,0:0:0:0:
100,324,101078,2,0,B|160:316|160:316|220:320,1,120,8|8,0:0|3:3,0:0:0:0:
376,340,101960,2,0,P|408:272|396:224,1,120,8|8,0:0|3:3,0:0:0:0:
360,164,102622,1,8,3:3:0:0:
300,112,102842,6,0,P|252:80|184:92,1,120,4|8,0:0|3:3,0:0:0:0:
88,204,103725,2,0,L|112:284,1,60,8|0,0:0|0:0,0:0:0:0:
52,316,104166,2,0,L|76:396,1,60,8|0,3:3|0:0,0:0:0:0:
148,376,104607,2,0,B|188:376|208:352|208:352|240:352|268:324,1,120,8|8,0:0|3:3,0:0:0:0:
336,200,105489,2,0,P|352:140|336:84,1,120,8|8,0:0|3:3,0:0:0:0:
276,36,106151,1,8,3:3:0:0:
208,76,106372,6,0,B|164:92|164:92|88:88,1,120,4|8,0:0|3:3,0:0:0:0:
64,240,107254,2,0,L|184:248,1,120,8|8,0:0|3:3,0:0:0:0:
260,252,107916,1,0,0:0:0:0:
336,276,108137,2,0,B|344:240|328:208|328:208|352:160,1,120,4|8,0:0|3:3,0:0:0:0:
444,40,109019,2,0,L|492:172,1,120,8|8,0:0|3:3,0:0:0:0:
336,200,109901,6,0,P|296:200|264:212,2,60,4|0|4,0:0|0:0|0:0,0:0:0:0:
444,312,110784,2,0,P|484:312|516:324,2,60,4|0|4,0:0|0:0|0:0,0:0:0:0:
288,320,111666,2,0,P|229:310|173:330,2,120,4|4|4,0:0|0:0|0:0,0:0:0:0:
360,292,112769,1,0,0:0:0:0:
416,240,112989,1,4,0:0:0:0:
256,192,113431,12,0,119828,0:0:0:0:
