osu file format v14

[General]
AudioFilename: Cocaine.mp3
AudioLeadIn: 2000
PreviewTime: 14166
Countdown: 0
SampleSet: Soft
StackLeniency: 0.7
Mode: 0
LetterboxInBreaks: 0
WidescreenStoryboard: 0

[Editor]
DistanceSpacing: 1.7
BeatDivisor: 4
GridSize: 4
TimelineZoom: 1

[Metadata]
Title:Addictive
TitleUnicode:Addictive
Artist:Royal Republic
ArtistUnicode:Royal Republic
Creator:-Nya-
Version:Hard
Source:
Tags:cut version save the nation
BeatmapID:858602
BeatmapSetID:393865

[Difficulty]
HPDrainRate:6
CircleSize:4
OverallDifficulty:6
ApproachRate:7.5
SliderMultiplier:1.4
SliderTickRate:1

[Events]
//Background and Video events
0,0,"Kiss.jpg",0,0
//Break Periods
//Storyboard Layer 0 (Background)
//Storyboard Layer 1 (Fail)
//Storyboard Layer 2 (Pass)
//Storyboard Layer 3 (Foreground)
//Storyboard Sound Samples

[TimingPoints]
490,441.176470588235,4,2,1,50,1,0
28504,-100,4,2,1,20,0,0
28725,-100,4,2,1,60,0,0
42622,-100,4,2,1,20,0,0
42842,-100,4,2,1,60,0,0
46151,-100,4,2,1,20,0,0
46372,-100,4,2,1,60,0,0
49681,-100,4,2,1,20,0,0
49901,-100,4,2,1,60,0,0
56960,-100,4,2,1,60,0,1
57070,-100,4,2,1,60,0,0
71078,-100,4,2,1,60,0,1
71188,-100,4,2,1,60,0,0
85195,-100,4,2,1,70,0,1
85306,-100,4,2,1,70,0,0
87842,-100,4,2,1,50,0,0
88284,-100,4,2,1,70,0,0
91372,-100,4,2,1,50,0,0
91813,-100,4,2,1,70,0,0
94901,-100,4,2,1,50,0,0
95342,-100,4,2,1,70,0,0
99313,-83.3333333333333,4,2,1,80,0,1
106151,-83.3333333333333,4,2,1,80,0,0
106372,-83.3333333333333,4,2,1,80,0,1
113210,-83.3333333333333,4,2,1,80,0,0
113431,-83.3333333333333,4,2,1,80,0,1
113651,-83.3333333333333,4,2,1,5,0,0

[Colours]
Combo1 : 255,164,209
Combo2 : 255,136,136
Combo3 : 255,111,255
Combo4 : 176,98,255

[HitObjects]
160,124,490,5,0,0:0:0:0:
356,124,931,1,0,0:0:0:0:
356,319,1372,1,0,0:0:0:0:
160,319,1813,1,0,0:0:0:0:
160,89,2254,5,0,0:0:0:0:
380,128,2695,1,0,0:0:0:0:
342,345,3137,1,0,0:0:0:0:
122,306,3578,1,0,0:0:0:0:
148,63,4019,5,0,0:0:0:0:
400,107,4460,1,0,0:0:0:0:
363,350,4902,1,0,0:0:0:0:
101,304,5342,1,0,0:0:0:0:
136,40,5784,5,0,0:0:0:0:
420,90,6225,1,0,0:0:0:0:
378,356,6667,1,0,0:0:0:0:
84,304,7107,1,0,0:0:0:0:
84,304,7548,6,0,P|112:332|228:328,1,140,8|8,0:0|0:0,0:0:0:0:
300,312,8210,1,0,0:0:0:0:
364,236,8431,2,0,L|372:164,1,70,8|0,0:0|0:0,0:0:0:0:
352,72,8872,1,8,0:0:0:0:
260,36,9092,1,0,0:0:0:0:
172,84,9313,6,0,L|164:153,1,70,8|0,0:0|0:0,0:0:0:0:
156,252,9754,1,8,0:0:0:0:
192,344,9975,1,0,0:0:0:0:
288,348,10195,2,0,P|280:300|248:264,1,70,8|0,0:0|0:0,0:0:0:0:
236,188,10637,2,0,L|304:144,1,70,8|0,0:0|0:0,0:0:0:0:
384,104,11078,5,8,0:0:0:0:
460,164,11298,1,0,0:0:0:0:
424,256,11519,2,0,P|420:308|436:348,1,70,8|0,0:0|0:0,0:0:0:0:
336,260,11960,2,0,P|341:225|336:191,1,70,8|0,0:0|0:0,0:0:0:0:
288,104,12401,1,8,0:0:0:0:
236,188,12622,1,0,0:0:0:0:
208,284,12842,6,0,L|192:360,1,70,8|0,0:0|0:0,0:0:0:0:
96,332,13284,2,0,L|110:263,1,70,8|0,0:0|0:0,0:0:0:0:
124,168,13725,2,0,P|100:132|72:112,1,70,8|0,0:0|0:0,0:0:0:0:
56,20,14166,1,8,0:0:0:0:
148,52,14387,1,0,0:0:0:0:
288,60,14607,6,0,L|384:52,1,70,8|0,0:0|0:0,0:0:0:0:
364,152,15048,2,0,L|294:157,1,70,8|0,0:0|0:0,0:0:0:0:
304,256,15489,2,0,L|373:250,1,70,8|0,0:0|0:0,0:0:0:0:
384,348,15931,2,0,L|314:353,1,70,8|0,0:0|0:0,0:0:0:0:
176,360,16372,6,0,P|92:332|72:276,1,140,8|8,0:0|0:0,0:0:0:0:
116,200,17034,1,0,0:0:0:0:
132,104,17254,2,0,P|92:48|24:32,1,140,8|8,0:0|0:0,0:0:0:0:
36,132,17916,1,0,0:0:0:0:
156,204,18137,6,0,P|192:200|236:204,1,70,8|0,0:0|0:0,0:0:0:0:
308,260,18578,2,0,P|344:264|388:260,1,70,8|0,0:0|0:0,0:0:0:0:
416,172,19019,2,0,P|381:169|346:173,1,70,8|0,0:0|0:0,0:0:0:0:
264,116,19460,2,0,P|256:80|272:32,1,70,8|0,0:0|0:0,0:0:0:0:
360,32,19901,5,8,0:0:0:0:
444,80,20122,1,0,0:0:0:0:
416,172,20342,2,0,P|416:212|432:252,1,70,8|0,0:0|0:0,0:0:0:0:
492,312,20784,2,0,P|492:352|476:392,1,70,8|0,0:0|0:0,0:0:0:0:
384,364,21225,1,8,0:0:0:0:
292,328,21445,1,0,0:0:0:0:
216,268,21666,6,0,B|208:216|208:216|240:112,1,140,8|8,0:0|0:0,0:0:0:0:
252,36,22328,1,0,0:0:0:0:
156,24,22548,2,0,P|88:60|72:120,1,140,8|8,0:0|0:0,0:0:0:0:
100,212,23210,1,0,0:0:0:0:
136,304,23431,6,0,L|180:368,1,70,8|0,0:0|0:0,0:0:0:0:
272,340,23872,2,0,L|232:282,1,70,8|0,0:0|0:0,0:0:0:0:
284,200,24313,2,0,B|320:184|336:152|336:152|376:136|408:96,1,140,8|8,0:0|0:0,0:0:0:0:
460,44,24975,1,0,0:0:0:0:
320,32,25195,6,0,P|272:40|240:56,1,70,8|0,0:0|0:0,0:0:0:0:
156,24,25637,2,0,P|131:65|122:100,1,70,8|0,0:0|0:0,0:0:0:0:
48,148,26078,2,0,P|65:192|87:220,1,70,8|0,0:0|0:0,0:0:0:0:
144,284,26519,1,8,0:0:0:0:
240,280,26739,1,0,0:0:0:0:
324,232,26960,6,0,L|392:100,1,140,8|8,0:0|0:0,0:0:0:0:
480,140,27622,1,0,0:0:0:0:
496,236,27842,2,0,P|492:288|452:368,1,140,8|8,0:0|0:0,0:0:0:0:
356,364,28504,1,4,0:0:0:0:
220,332,28725,6,0,L|132:304,1,70,8|0,0:0|0:0,0:0:0:0:
136,216,29166,2,0,L|48:188,1,70,8|0,0:0|0:0,0:0:0:0:
100,100,29607,2,0,L|166:121,1,70,8|0,0:0|0:0,0:0:0:0:
252,68,30048,2,0,L|318:89,1,70,8|0,0:0|0:0,0:0:0:0:
432,172,30489,6,0,P|444:208|440:248,1,70,8|0,0:0|0:0,0:0:0:0:
400,328,30931,1,8,0:0:0:0:
304,340,31151,1,0,0:0:0:0:
208,328,31372,2,0,L|144:272,1,70,8|0,0:0|0:0,0:0:0:0:
80,216,31813,1,0,0:0:0:0:
104,120,32034,1,0,0:0:0:0:
232,64,32254,6,0,P|272:72|328:68,1,70,8|0,0:0|0:0,0:0:0:0:
344,160,32695,2,0,P|375:134|408:89,1,70,8|0,0:0|0:0,0:0:0:0:
404,12,33137,2,0,P|432:20|480:60,1,70,8|0,0:0|0:0,0:0:0:0:
480,144,33578,1,8,0:0:0:0:
472,240,33798,1,0,0:0:0:0:
368,332,34019,6,0,P|316:352|212:340,1,140,8|8,0:0|0:0,0:0:0:0:
140,316,34681,1,0,0:0:0:0:
100,228,34901,2,0,L|68:84,1,140,8|8,0:0|0:0,0:0:0:0:
136,20,35563,1,0,0:0:0:0:
276,32,35784,6,0,B|332:68|332:68|408:88,1,140,8|8,0:0|0:0,0:0:0:0:
480,148,36445,1,0,0:0:0:0:
464,244,36666,2,0,P|436:296|392:368,1,140,8|8,0:0|0:0,0:0:0:0:
296,360,37328,1,0,0:0:0:0:
168,300,37548,6,0,P|124:244|52:228,1,140,8|8,0:0|0:0,0:0:0:0:
28,136,38210,1,0,0:0:0:0:
112,84,38431,2,0,L|260:52,1,140,8|8,0:0|0:0,0:0:0:0:
344,40,39092,1,0,0:0:0:0:
432,148,39313,6,0,L|452:236,1,70,8|0,0:0|0:0,0:0:0:0:
348,208,39754,2,0,L|368:296,1,70,8|0,0:0|0:0,0:0:0:0:
268,260,40195,2,0,L|288:348,1,70,8|0,0:0|0:0,0:0:0:0:
188,348,40637,1,8,0:0:0:0:
124,276,40857,1,0,0:0:0:0:
144,136,41078,6,0,B|160:96|192:84|192:84|216:48|264:36,1,140,8|8,0:0|0:0,0:0:0:0:
340,44,41739,1,0,0:0:0:0:
412,112,41960,2,0,L|464:172,1,70,8|0,0:0|0:0,0:0:0:0:
364,196,42401,2,0,L|416:256,1,70,8|4,0:0|0:0,0:0:0:0:
312,352,42842,6,0,B|244:348|244:348|160:356,1,140,8|8,0:0|0:0,0:0:0:0:
76,340,43504,1,0,0:0:0:0:
60,244,43725,2,0,L|48:152,1,70,8|0,0:0|0:0,0:0:0:0:
132,120,44166,2,0,L|140:48,1,70,8|0,0:0|0:0,0:0:0:0:
236,32,44607,6,0,P|268:56|288:92,1,70,8|0,0:0|0:0,0:0:0:0:
300,180,45048,1,8,0:0:0:0:
248,264,45269,1,0,0:0:0:0:
308,340,45489,2,0,P|352:320|372:276,1,70,8|0,0:0|0:0,0:0:0:0:
416,192,45931,2,0,P|372:212|352:256,1,70,8|4,0:0|0:0,0:0:0:0:
488,220,46372,6,0,P|480:148|420:112,1,140,8|8,0:0|0:0,0:0:0:0:
340,160,47034,1,0,0:0:0:0:
244,164,47254,2,0,P|188:128|184:112,1,70,8|0,0:0|0:0,0:0:0:0:
96,160,47695,2,0,P|88:104|96:80,1,70,8|0,0:0|0:0,0:0:0:0:
220,32,48137,6,0,L|296:16,1,70,8|0,0:0|0:0,0:0:0:0:
388,24,48578,2,0,L|456:38,1,70
480,132,49019,1,8,0:0:0:0:
480,228,49239,1,0,0:0:0:0:
416,304,49460,1,0,0:0:0:0:
316,304,49681,1,4,0:0:0:0:
188,248,49901,6,0,L|124:196,1,70,8|0,0:0|0:0,0:0:0:0:
116,84,50342,2,0,L|170:128,1,70,8|0,0:0|0:0,0:0:0:0:
248,188,50784,2,0,P|268:256|224:328,1,140,8|8,0:0|0:0,0:0:0:0:
148,348,51445,1,0,0:0:0:0:
28,272,51666,6,0,B|16:220|16:220|16:128,1,140,8|8,0:0|0:0,0:0:0:0:
32,36,52328,1,0,0:0:0:0:
128,28,52548,1,8,0:0:0:0:
308,100,52989,2,0,L|336:212,1,105
348,248,53431,6,0,P|340:296|244:304,1,140,2|2,0:0|0:0,0:0:0:0:
224,224,54092,1,0,0:0:0:0:
156,296,54313,2,0,L|108:348,1,70,2|0,0:0|0:0,0:0:0:0:
36,284,54754,2,0,L|84:232,1,70,2|0,0:0|0:0,0:0:0:0:
164,116,55195,6,0,P|200:84|296:104,1,140,2|2,0:0|0:0,0:0:0:0:
344,176,55857,1,0,0:0:0:0:
408,252,56078,2,0,P|436:212|444:180,1,70,2|0,0:0|0:0,0:0:0:0:
428,96,56519,2,0,L|368:28,1,70,8|0,3:3|0:0,0:0:0:0:
244,28,56960,6,0,P|192:32|164:24,1,70,4|0,0:0|0:0,0:0:0:0:
96,84,57401,2,0,L|52:168,1,70,2|0,0:0|0:0,0:0:0:0:
88,272,57842,2,0,L|120:209,1,70,8|0,0:0|0:0,0:0:0:0:
244,144,58284,2,0,L|200:228,1,70,10|0,0:0|0:0,0:0:0:0:
188,300,58725,6,0,P|232:332|336:316,1,140,8|2,0:0|0:0,0:0:0:0:
392,268,59387,1,0,0:0:0:0:
408,172,59607,2,0,L|360:28,1,140,8|2,0:0|0:0,0:0:0:0:
268,24,60269,1,0,0:0:0:0:
140,76,60489,6,0,P|96:96|72:136,1,70,8|0,0:0|0:0,0:0:0:0:
60,208,60931,2,0,P|63:256|93:292,1,70,2|0,0:0|0:0,0:0:0:0:
152,336,61372,2,0,P|198:348|242:333,1,70,8|0,0:0|0:0,0:0:0:0:
308,300,61813,2,0,P|336:260|336:214,1,70,2|0,0:0|0:0,0:0:0:0:
260,124,62254,6,0,B|284:40|284:40|336:16,1,140,8|2,0:0|0:0,0:0:0:0:
424,56,62916,1,0,0:0:0:0:
404,152,63137,2,0,P|408:200|424:224,1,70,8|0,0:0|0:0,0:0:0:0:
468,304,63578,2,0,L|380:316,1,70,2|0,0:0|0:0,0:0:0:0:
260,284,64019,6,0,P|200:276|120:292,1,140,8|2,0:0|0:0,0:0:0:0:
44,348,64681,1,0,0:0:0:0:
40,252,64901,2,0,P|40:160|36:112,1,140,8|2,0:0|0:0,0:0:0:0:
40,16,65563,1,0,0:0:0:0:
180,32,65784,6,0,B|220:40|248:32|248:32|280:48|344:48,1,140,8|2,0:0|0:0,0:0:0:0:
412,68,66445,1,0,0:0:0:0:
432,164,66666,2,0,L|456:316,1,140,8|2,0:0|0:0,0:0:0:0:
368,352,67328,1,0,0:0:0:0:
228,344,67548,6,0,L|160:312,1,70,8|0,0:0|0:0,0:0:0:0:
192,220,67989,2,0,L|156:156,1,70,2|0,0:0|0:0,0:0:0:0:
256,140,68431,2,0,L|280:64,1,70,8|0,0:0|0:0,0:0:0:0:
356,132,68872,2,0,L|424:108,1,70,2|0,0:0|0:0,0:0:0:0:
453,247,69313,6,0,P|421:311|349:359,1,140,8|2,0:0|0:0,0:0:0:0:
268,356,69975,1,0,0:0:0:0:
172,340,70195,2,0,P|136:324|112:304,1,70,8|0,0:0|0:0,0:0:0:0:
104,208,70637,2,0,P|76:186|44:172,1,70,2|0,0:0|0:0,0:0:0:0:
88,40,71078,6,0,L|168:32,1,70,4|0,0:0|0:0,0:0:0:0:
244,80,71519,2,0,L|324:72,1,70,2|0,0:0|0:0,0:0:0:0:
396,128,71960,2,0,L|476:120,1,70,8|0,0:0|0:0,0:0:0:0:
480,220,72401,2,0,L|410:226,1,70,2|0,0:0|0:0,0:0:0:0:
312,240,72842,6,0,P|288:288|300:372,1,140,8|2,0:0|0:0,0:0:0:0:
204,384,73504,1,0,0:0:0:0:
108,368,73725,2,0,P|122:300|95:236,1,140,8|2,0:0|0:0,0:0:0:0:
16,180,74387,1,0,0:0:0:0:
96,64,74607,6,0,P|132:48|176:48,1,70,8|0,0:0|0:0,0:0:0:0:
292,96,75048,2,0,P|256:112|212:112,1,70,2|0,0:0|0:0,0:0:0:0:
144,172,75489,2,0,L|196:252,1,70,8|0,0:0|0:0,0:0:0:0:
248,304,75931,1,2,0:0:0:0:
340,276,76151,1,0,0:0:0:0:
368,140,76372,6,0,P|376:72|312:8,1,140,8|2,0:0|0:0,0:0:0:0:
236,32,77034,1,0,0:0:0:0:
156,84,77254,2,0,L|104:152,1,70,8|0,0:0|0:0,0:0:0:0:
160,224,77695,2,0,L|108:292,1,70,2|0,0:0|0:0,0:0:0:0:
244,340,78137,6,0,L|328:200,1,140,8|2,0:0|0:0,0:0:0:0:
360,132,78798,1,0,0:0:0:0:
428,64,79019,2,0,P|364:36|280:76,1,140,8|2,0:0|0:0,0:0:0:0:
244,136,79681,1,0,0:0:0:0:
176,260,79901,6,0,B|152:292|124:308|124:308|160:344|172:384,1,140,8|2,0:0|0:0,0:0:0:0:
264,360,80563,1,0,0:0:0:0:
360,336,80784,2,0,P|404:284|404:196,1,140,8|2,0:0|0:0,0:0:0:0:
360,132,81445,1,0,0:0:0:0:
236,68,81666,6,0,P|168:64|152:68,1,70,8|0,0:0|0:0,0:0:0:0:
124,152,82107,2,0,P|89:154|54:148,1,70,2|0,0:0|0:0,0:0:0:0:
24,244,82548,2,0,L|80:304,1,70,8|0,0:0|0:0,0:0:0:0:
168,292,82989,2,0,L|224:352,1,70,2|0,0:0|0:0,0:0:0:0:
356,352,83431,6,0,B|392:328|396:292|396:292|432:268|432:220,1,140,8|2,0:0|0:0,0:0:0:0:
424,140,84092,1,0,0:0:0:0:
368,60,84313,1,2,0:0:0:0:
268,64,84534,1,2,0:0:0:0:
248,160,84754,2,0,L|192:192,3,35,8|8|8|8,0:0|0:0|0:0|0:0,0:0:0:0:
180,212,85195,6,0,P|200:241|229:261,1,70,4|0,0:0|0:0,0:0:0:0:
320,296,85637,1,2,0:0:0:0:
412,264,85857,1,0,0:0:0:0:
508,292,86078,2,0,L|488:372,1,70,8|0,0:0|0:0,0:0:0:0:
392,364,86519,1,2,0:0:0:0:
320,296,86739,1,0,0:0:0:0:
236,184,86960,6,0,P|228:136|228:104,1,70,8|0,0:0|0:0,0:0:0:0:
300,48,87401,1,2,0:0:0:0:
396,76,87622,1,0,0:0:0:0:
444,160,87842,1,8,1:1:0:0:
432,256,88063,1,8,1:1:0:0:
364,328,88284,2,0,P|332:343|298:347,1,70,2|0,0:0|0:0,0:0:0:0:
144,340,88725,6,0,B|96:304|96:304|60:228,1,140,8|2,0:0|0:0,0:0:0:0:
28,140,89387,1,0,0:0:0:0:
104,80,89607,2,0,L|176:32,1,70,8|0,0:0|0:0,0:0:0:0:
252,84,90048,2,0,L|324:36,1,70,2|0,0:0|0:0,0:0:0:0:
444,84,90489,5,8,0:0:0:0:
484,172,90710,1,0,0:0:0:0:
468,268,90931,2,0,P|444:300|412:316,1,70,2|0,0:0|0:0,0:0:0:0:
324,340,91371,1,8,1:1:0:0:
228,328,91592,1,8,1:1:0:0:
124,232,91813,6,0,L|88:160,1,70,2|0,0:0|0:0,0:0:0:0:
140,84,92254,2,0,P|180:52|192:32,1,70,8|0,0:0|0:0,0:0:0:0:
288,40,92695,2,0,P|295:73|292:108,1,70,2|0,0:0|0:0,0:0:0:0:
392,112,93137,2,0,P|412:84|441:64,1,70,8|0,0:0|0:0,0:0:0:0:
480,152,93578,1,2,0:0:0:0:
468,248,93798,1,0,0:0:0:0:
336,296,94019,6,0,L|272:328,1,70,8|0,0:0|0:0,0:0:0:0:
204,260,94460,2,0,L|140:292,1,70,2|0,0:0|0:0,0:0:0:0:
52,248,94901,1,8,1:1:0:0:
24,152,95122,1,8,1:1:0:0:
64,64,95343,2,0,L|126:32,1,70,2|0,0:0|0:0,0:0:0:0:
224,28,95784,6,0,P|264:36|296:32,1,70,2|0,0:0|0:0,0:0:0:0:
380,80,96225,2,0,L|428:140,1,70,2|0,0:0|0:0,0:0:0:0:
392,248,96666,2,0,L|348:193,1,70,2|0,0:0|0:0,0:0:0:0:
220,160,97107,2,0,L|268:220,1,70,2|0,0:0|0:0,0:0:0:0:
204,340,97548,5,8,0:0:0:0:
204,340,97989,1,8,0:0:0:0:
204,340,98431,2,0,L|152:300,3,35,2|2|2|2,0:0|0:0|0:0|0:0,0:0:0:0:
128,320,98872,2,0,L|76:280,3,35,2|2|2|2,0:0|0:0|0:0|0:0,0:0:0:0:
68,272,99313,6,0,P|52:224|56:172,1,83.9999974365235,4|0,0:0|0:0,0:0:0:0:
148,120,99754,2,0,P|164:72|160:20,1,83.9999974365235,8|0,3:3|0:0,0:0:0:0:
280,28,100195,1,8,0:0:0:0:
384,80,100416,1,0,0:0:0:0:
424,192,100637,1,8,3:3:0:0:
384,304,100857,1,0,0:0:0:0:
224,332,101078,6,0,L|128:340,1,83.9999974365235,8|0,0:0|0:0,0:0:0:0:
136,220,101519,2,0,L|219:213,1,83.9999974365235,8|0,3:3|0:0,0:0:0:0:
208,96,101960,2,0,L|112:104,1,83.9999974365235,8|0,0:0|0:0,0:0:0:0:
8,108,102401,1,8,3:3:0:0:
88,20,102622,1,8,3:3:0:0:
256,24,102842,6,0,L|360:52,1,83.9999974365235,4|0,0:0|0:0,0:0:0:0:
412,136,103284,2,0,P|424:184|416:232,1,83.9999974365235,8|0,3:3|0:0,0:0:0:0:
304,240,103725,2,0,P|301:281|312:321,1,83.9999974365235,8|0,0:0|0:0,0:0:0:0:
420,372,104166,1,8,3:3:0:0:
472,268,104387,1,0,0:0:0:0:
440,104,104607,6,0,L|272:76,1,167.999994873047,8|8,0:0|3:3,0:0:0:0:
156,80,105269,1,0,0:0:0:0:
128,192,105489,1,8,0:0:0:0:
156,308,105710,1,0,0:0:0:0:
264,356,105931,2,0,P|268:308|264:268,1,83.9999974365235,8|8,3:3|3:3,0:0:0:0:
248,104,106372,6,0,P|196:156|104:124,1,167.999994873047,4|8,0:0|3:3,0:0:0:0:
48,32,107034,1,0,0:0:0:0:
20,144,107254,2,0,L|16:328,1,167.999994873047,8|8,0:0|3:3,0:0:0:0:
128,352,107916,1,0,0:0:0:0:
296,340,108137,6,0,P|348:312|464:300,1,167.999994873047,4|8,0:0|3:3,0:0:0:0:
500,192,108798,1,0,0:0:0:0:
420,104,109019,2,0,B|320:72|320:72|260:32,1,167.999994873047,8|8,0:0|3:3,0:0:0:0:
152,24,109681,1,0,0:0:0:0:
100,156,109901,6,0,L|84:248,1,83.9999974365235,4|0,0:0|0:0,0:0:0:0:
176,312,110342,2,0,L|190:229,1,83.9999974365235,4|0,0:0|0:0,0:0:0:0:
292,204,110784,2,0,L|277:286,1,83.9999974365235,4|0,0:0|0:0,0:0:0:0:
368,344,111225,2,0,L|382:261,1,83.9999974365235,4|0,0:0|0:0,0:0:0:0:
400,120,111666,5,4,0:0:0:0:
304,52,111887,1,0,0:0:0:0:
188,60,112107,1,4,0:0:0:0:
120,156,112328,1,0,0:0:0:0:
88,268,112548,2,0,P|136:268|192:244,1,83.9999974365235,4|0,0:0|0:0,0:0:0:0:
252,172,112989,2,0,L|248:88,1,83.9999974365235,4|0,0:0|0:0,0:0:0:0:
112,40,113431,5,4,0:0:0:0:
256,192,113651,12,0,119828,0:0:0:0:
