osu file format v14

[General]
AudioFilename: Cocaine.mp3
AudioLeadIn: 2000
PreviewTime: 14166
Countdown: 0
SampleSet: Soft
StackLeniency: 0.7
Mode: 0
LetterboxInBreaks: 0
WidescreenStoryboard: 0

[Editor]
DistanceSpacing: 1.2
BeatDivisor: 4
GridSize: 4
TimelineZoom: 1

[Metadata]
Title:Addictive
TitleUnicode:Addictive
Artist:Royal Republic
ArtistUnicode:Royal Republic
Creator:-Nya-
Version:Easy
Source:
Tags:cut version save the nation
BeatmapID:861313
BeatmapSetID:393865

[Difficulty]
HPDrainRate:2
CircleSize:3
OverallDifficulty:2
ApproachRate:3
SliderMultiplier:1
SliderTickRate:1

[Events]
//Background and Video events
0,0,"Kiss.jpg",0,0
//Break Periods
//Storyboard Layer 0 (Background)
//Storyboard Layer 1 (Fail)
//Storyboard Layer 2 (Pass)
//Storyboard Layer 3 (Foreground)
//Storyboard Sound Samples

[TimingPoints]
490,441.176470588235,4,2,1,50,1,0
28725,-100,4,2,1,60,0,0
56960,-100,4,2,1,60,0,1
57070,-100,4,2,1,60,0,0
71078,-100,4,2,1,60,0,1
71188,-100,4,2,1,60,0,0
85195,-100,4,2,1,70,0,1
85306,-100,4,2,1,70,0,0
87842,-100,4,2,1,50,0,0
88284,-100,4,2,1,70,0,0
91372,-100,4,2,1,50,0,0
91813,-100,4,2,1,70,0,0
94901,-100,4,2,1,50,0,0
95342,-100,4,2,1,70,0,0
99313,-100,4,2,1,80,0,1
106151,-100,4,2,1,80,0,0
106372,-100,4,2,1,80,0,1
113210,-100,4,2,1,80,0,0
113431,-100,4,2,1,80,0,1
113651,-100,4,2,1,5,0,0

[Colours]
Combo1 : 255,164,209
Combo2 : 255,136,136
Combo3 : 255,111,255
Combo4 : 176,98,255

[HitObjects]
80,56,490,6,0,P|128:68|188:52,1,100
296,56,1372,2,0,L|336:164,1,100
340,268,2254,2,0,L|300:376,1,100
184,360,3137,2,0,P|144:344|88:340,1,100
56,224,4019,6,0,B|52:172|52:172|36:116,1,100,0|0,0:0|0:0,0:0:0:0:
120,40,4901,2,0,L|156:152,1,100,0|0,0:0|0:0,0:0:0:0:
272,140,5784,2,0,L|302:44,1,100,0|0,0:0|0:0,0:0:0:0:
424,44,6666,2,0,P|436:96|428:148,1,100,0|0,0:0|0:0,0:0:0:0:
420,260,7548,6,0,B|384:292|328:288|328:288|280:320|212:300,1,200,8|8,0:0|0:0,0:0:0:0:
116,272,8872,1,8,0:0:0:0:
88,156,9313,2,0,P|96:96|216:56,1,200,8|8,0:0|0:0,0:0:0:0:
312,124,10637,1,8,0:0:0:0:
428,104,11078,6,0,P|404:200|308:244,1,200,8|8,0:0|0:0,0:0:0:0:
200,228,12401,1,8,0:0:0:0:
84,204,12842,2,0,L|60:316,2,100,8|8|8,0:0|0:0|0:0,0:0:0:0:
116,88,14166,1,8,0:0:0:0:
232,56,14607,6,0,B|276:68|312:112|312:112|344:72|408:60,1,200,8|8,0:0|0:0,0:0:0:0:
492,136,15931,1,8,0:0:0:0:
440,244,16372,2,0,B|392:264|368:312|368:312|264:312,1,200,8|8,0:0|0:0,0:0:0:0:
152,292,17695,1,8,0:0:0:0:
84,192,18137,6,0,P|88:120|204:60,1,200,8|8,0:0|0:0,0:0:0:0:
272,144,19460,2,0,P|284:196|400:284,1,200,8|8,0:0|0:0,0:0:0:0:
500,224,20784,1,8,0:0:0:0:
484,104,21225,1,8,0:0:0:0:
372,60,21666,6,0,B|276:32|276:32|172:28,1,200,8|8,0:0|0:0,0:0:0:0:
64,68,22989,1,8,0:0:0:0:
52,188,23431,2,0,P|124:256|148:364,1,200,8|8,0:0|0:0,0:0:0:0:
268,356,24754,1,8,0:0:0:0:
376,300,25195,6,0,L|456:224,1,100,8|8,0:0|0:0,0:0:0:0:
452,112,26078,2,0,L|372:36,1,100,8|8,0:0|0:0,0:0:0:0:
260,36,26960,2,0,B|212:56|200:108|200:108|144:124|128:188,1,200,8|8,0:0|0:0,0:0:0:0:
132,296,28284,1,8,0:0:0:0:
252,312,28725,6,0,P|296:300|344:260,1,100,8|8,0:0|0:0,0:0:0:0:
364,148,29607,2,0,L|352:36,1,100,8|8,0:0|0:0,0:0:0:0:
472,36,30489,2,0,L|484:152,1,100,8|8,0:0|0:0,0:0:0:0:
484,256,31372,1,8,0:0:0:0:
412,352,31813,1,0,0:0:0:0:
292,344,32254,6,0,B|252:312|196:320|196:320|184:272|132:244,1,200,8|8,0:0|0:0,0:0:0:0:
52,160,33578,1,8,0:0:0:0:
148,88,34019,2,0,B|244:64|244:64|364:64,1,200,8|8,0:0|0:0,0:0:0:0:
460,104,35342,1,8,0:0:0:0:
456,224,35784,6,0,P|452:264|432:332,1,100,8|8,0:0|0:0,0:0:0:0:
316,324,36666,2,0,P|302:276|296:226,1,100,8|8,0:0|0:0,0:0:0:0:
284,108,37548,2,0,P|200:64|104:112,1,200,8|8,0:0|0:0,0:0:0:0:
72,220,38872,1,8,0:0:0:0:
120,328,39313,6,0,L|224:360,1,100,8|8,0:0|0:0,0:0:0:0:
336,360,40195,2,0,L|431:330,1,100,8|8,0:0|0:0,0:0:0:0:
468,216,41078,2,0,B|472:116|472:116|444:16,1,200,8|8,0:0|0:0,0:0:0:0:
324,20,42401,1,8,0:0:0:0:
212,68,42842,6,0,B|160:96|152:144|152:144|104:176|104:240,1,200,8|8,0:0|0:0,0:0:0:0:
140,340,44166,1,8,0:0:0:0:
260,332,44607,2,0,P|296:324|364:276,1,100,8|8,0:0|0:0,0:0:0:0:
412,188,45489,1,8,0:0:0:0:
412,68,45931,1,8,0:0:0:0:
296,32,46372,6,0,B|268:72|272:128|272:128|212:208,1,200,8|8,0:0|0:0,0:0:0:0:
148,308,47695,1,8,0:0:0:0:
264,332,48137,2,0,P|312:344|364:328,1,100,8|0,0:0|0:0,0:0:0:0:
408,220,49019,2,0,L|396:120,1,100,8|0,0:0|0:0,0:0:0:0:
308,40,49901,5,8,0:0:0:0:
188,32,50342,1,8,0:0:0:0:
112,124,50784,2,0,P|104:184|116:240,1,100,8|8,0:0|0:0,0:0:0:0:
192,308,51666,2,0,B|248:304|284:336|284:336|324:304|396:300,1,200,8|8,0:0|0:0,0:0:0:0:
448,72,53431,6,0,P|356:36|240:36,1,200,2|2,0:0|0:0,0:0:0:0:
140,60,54754,1,2,0:0:0:0:
84,164,55195,2,0,P|64:256|120:344,1,200,2|2,0:0|0:0,0:0:0:0:
236,348,56519,1,8,3:3:0:0:
288,240,56960,6,0,L|320:136,1,100,4|2,0:0|0:0,0:0:0:0:
436,144,57842,2,0,L|465:239,1,100,8|10,0:0|0:0,0:0:0:0:
376,324,58725,2,0,P|288:356|192:304,1,200,8|8,0:0|0:0,0:0:0:0:
116,224,60048,1,2,0:0:0:0:
172,116,60489,6,0,B|184:60|244:56|244:56|340:16,1,200,8|8,0:0|0:0,0:0:0:0:
452,32,61813,1,2,0:0:0:0:
464,152,62254,2,0,P|463:201|444:256,1,100,8|2,0:0|0:0,0:0:0:0:
336,296,63137,2,0,L|232:304,1,100,8|2,0:0|0:0,0:0:0:0:
116,300,64019,6,0,B|84:248|104:204|104:204|84:156|128:96,1,200,8|8,0:0|0:0,0:0:0:0:
220,48,65342,1,2,0:0:0:0:
312,128,65784,2,0,L|416:300,1,200,8|8,0:0|0:0,0:0:0:0:
304,344,67107,1,2,0:0:0:0:
184,332,67548,6,0,P|156:316|108:248,1,100,8|2,0:0|0:0,0:0:0:0:
124,144,68431,2,0,P|152:128|200:60,1,100,8|2,0:0|0:0,0:0:0:0:
308,44,69313,2,0,B|332:88|320:144|320:144|364:152|396:208,1,200,8|8,0:0|0:0,0:0:0:0:
432,316,70637,1,2,0:0:0:0:
316,344,71078,6,0,L|208:356,1,100,4|2,0:0|0:0,0:0:0:0:
100,332,71960,2,0,L|28:264,1,100,8|2,0:0|0:0,0:0:0:0:
20,144,72842,2,0,L|92:76,1,100,8|2,0:0|0:0,0:0:0:0:
208,48,73725,1,8,0:0:0:0:
312,104,74166,1,2,0:0:0:0:
428,80,74607,6,0,P|408:175|313:221,1,200,8|8,0:0|0:0,0:0:0:0:
204,208,75931,1,2,0:0:0:0:
116,288,76372,2,0,B|148:324|200:352|200:352|296:356,1,200,8|8,0:0|0:0,0:0:0:0:
412,340,77695,1,2,0:0:0:0:
400,220,78137,6,0,P|372:200|308:184,1,100,8|2,0:0|0:0,0:0:0:0:
188,192,79019,2,0,P|139:182|97:156,1,100,8|2,0:0|0:0,0:0:0:0:
104,36,79901,2,0,B|164:24|204:48|204:48|252:24|320:36,1,200,8|8,0:0|0:0,0:0:0:0:
416,64,81225,1,2,0:0:0:0:
416,184,81666,6,0,L|392:288,1,100,8|2,0:0|0:0,0:0:0:0:
288,336,82548,2,0,P|232:328|180:340,1,100,8|2,0:0|0:0,0:0:0:0:
76,296,83431,2,0,L|44:96,1,200,8|2,0:0|0:0,0:0:0:0:
152,48,84754,1,8,0:0:0:0:
272,44,85195,6,0,P|308:56|388:64,1,100,4|2,0:0|0:0,0:0:0:0:
460,140,86078,2,0,L|416:252,1,100,8|2,0:0|0:0,0:0:0:0:
320,296,86960,2,0,P|248:292|216:304,1,100,8|2,0:0|0:0,0:0:0:0:
104,308,87842,1,8,1:1:0:0:
92,188,88284,1,2,0:0:0:0:
144,80,88725,6,0,B|188:64|240:96|240:96|280:56|352:64,1,200,8|8,0:0|0:0,0:0:0:0:
452,72,90048,1,2,0:0:0:0:
460,192,90489,2,0,P|464:236|456:296,1,100,8|2,0:0|0:0,0:0:0:0:
336,296,91372,2,0,P|329:246|333:196,1,100,8|2,1:1|0:0,0:0:0:0:
320,76,92254,6,0,P|256:88|168:200,1,200,8|8,0:0|0:0,0:0:0:0:
160,308,93578,1,2,0:0:0:0:
64,236,94019,2,0,L|36:132,1,100,8|2,0:0|0:0,0:0:0:0:
100,36,94901,2,0,P|156:52|212:44,1,100,8|2,1:1|0:0,0:0:0:0:
316,40,95784,5,2,0:0:0:0:
416,104,96225,1,2,0:0:0:0:
316,172,96666,1,2,0:0:0:0:
416,240,97107,1,2,0:0:0:0:
468,348,97548,2,0,P|432:364|368:348,1,100,8|8,0:0|0:0,0:0:0:0:
260,312,98431,2,0,P|250:262|249:213,1,100,2|2,0:0|0:0,0:0:0:0:
164,128,99313,6,0,P|252:92|352:148,1,200,4|8,0:0|0:0,0:0:0:0:
392,244,100637,1,8,3:3:0:0:
328,344,101078,2,0,L|136:272,1,200,8|0,0:0|0:0,0:0:0:0:
124,156,102401,1,8,3:3:0:0:
244,160,102842,6,0,B|244:116|272:68|272:68|176:29,1,200,4|8,0:0|0:0,0:0:0:0:
56,20,104166,1,8,3:3:0:0:
32,136,104607,2,0,P|28:240|52:348,1,200,8|8,0:0|0:0,0:0:0:0:
168,344,105931,1,8,3:3:0:0:
288,348,106372,6,0,B|314:302|294:250|294:250|306:202|282:154,1,200,4|8,0:0|0:0,0:0:0:0:
188,80,107695,1,8,3:3:0:0:
300,32,108137,2,0,P|384:84|404:188,1,200,4|8,0:0|0:0,0:0:0:0:
384,296,109460,1,8,3:3:0:0:
272,336,109901,6,0,L|156:324,1,100,4|4,0:0|0:0,0:0:0:0:
96,236,110784,2,0,P|86:186|91:137,1,100,4|4,0:0|0:0,0:0:0:0:
184,60,111666,2,0,L|296:68,1,100,4|4,0:0|0:0,0:0:0:0:
400,88,112548,1,4,0:0:0:0:
416,208,112989,1,4,0:0:0:0:
256,192,113431,12,0,119828,0:0:0:0:
