osu file format v10

[General]
AudioFilename: , - .mp3
AudioLeadIn: 0
PreviewTime: -1
Countdown: 1
SampleSet: Normal
StackLeniency: 0.7
Mode: 0
LetterboxInBreaks: 1

[Editor]
DistanceSpacing: 0.8
BeatDivisor: 16
GridSize: 8

[Metadata]
Title:Meongega Dweeo
TitleUnicode:먼지가 되어
Artist:Roy Kim, Jong JunYeong
ArtistUnicode:로이킴, 정준영
Creator:SGL1234
Version:Insane
Source:
Tags:
BeatmapID:199432
BeatmapSetID:69042

[Difficulty]
HPDrainRate:9
CircleSize:6
OverallDifficulty:9
ApproachRate:9
SliderMultiplier:1
SliderTickRate:1

[Events]
//Background and Video events
0,0,"nhnsvc.jpg"
//Break Periods
//Storyboard Layer 0 (Background)
//Storyboard Layer 1 (Fail)
//Storyboard Layer 2 (Pass)
//Storyboard Layer 3 (Foreground)
//Storyboard Sound Samples
//Background Colour Transformations
3,100,163,162,255

[TimingPoints]
0,618.174325159695,4,1,0,100,1,0

[HitObjects]
204,262,10972,1,0,0:0:0
238,225,11165,1,0,0:0:0
280,192,11513,1,0,0:0:0
314,137,11822,1,0,0:0:0
265,107,12093,1,0,0:0:0
208,115,12247,1,0,0:0:0
336,314,13329,5,0,0:0:0
330,263,13483,1,0,0:0:0
330,220,13677,1,0,0:0:0
330,182,13870,1,0,0:0:0
320,123,14179,1,0,0:0:0
258,282,15917,5,0,0:0:0
274,228,16072,1,0,0:0:0
297,177,16420,1,0,0:0:0
293,148,16690,1,0,0:0:0
199,145,16883,1,0,0:0:0
185,249,17192,1,0,0:0:0
228,346,17540,1,0,0:0:0
328,276,18197,5,0,0:0:0
326,227,18390,1,0,0:0:0
325,200,18622,1,0,0:0:0
330,169,18777,1,0,0:0:0
330,137,19163,1,0,0:0:0
362,337,20863,5,0,0:0:0
335,233,21095,1,0,0:0:0
332,169,21404,1,0,0:0:0
239,160,21674,1,0,0:0:0
217,268,22138,1,0,0:0:0
265,311,22447,1,0,0:0:0
377,201,23142,5,0,0:0:0
336,200,23336,1,0,0:0:0
262,199,23529,1,0,0:0:0
262,199,23722,1,0,0:0:0
197,205,24031,1,0,0:0:0
338,285,25731,5,0,0:0:0
339,218,25924,1,0,0:0:0
332,168,26311,1,0,0:0:0
293,155,26620,1,0,0:0:0
256,159,26813,1,0,0:0:0
256,240,27122,1,0,0:0:0
315,352,28011,5,0,0:0:0
315,300,28204,1,0,0:0:0
319,258,28436,1,0,0:0:0
320,217,28667,1,0,0:0:0
316,164,28976,1,0,0:0:0
386,214,30599,5,0,0:0:0
327,213,30908,1,0,0:0:0
221,257,31101,1,0,0:0:0
186,277,31295,1,0,0:0:0
205,186,31874,5,0,0:0:0
327,213,32106,1,0,0:0:0
371,268,32415,1,0,0:0:0
371,268,32608,1,0,0:0:0
328,178,33110,5,0,0:0:0
301,180,33342,1,0,0:0:0
251,222,33651,1,0,0:0:0
213,245,33922,1,0,0:0:0
184,273,34115,1,0,0:0:0
133,198,34617,1,0,0:0:0
395,350,35429,5,0,0:0:0
395,268,35738,1,0,0:0:0
400,199,36008,1,0,0:0:0
400,199,36201,1,0,0:0:0
252,189,36472,5,0,0:0:0
272,257,36820,5,0,0:0:0
270,310,37090,1,0,0:0:0
285,345,37283,1,0,0:0:0
179,315,37979,5,0,0:0:0
211,267,38210,1,0,0:0:0
240,226,38404,1,0,0:0:0
283,165,38558,1,0,0:0:0
208,106,38944,1,0,0:0:0
413,295,43233,5,0,0:0:0
394,228,43504,1,0,0:0:0
278,189,43890,1,0,0:0:0
222,200,45744,1,0,0:0:0
146,197,46285,1,0,0:0:0
370,91,48140,5,0,0:0:0
372,137,48449,1,0,0:0:0
372,199,48797,1,0,0:0:0
156,198,50690,1,0,0:0:0
249,97,51308,1,0,0:0:0
379,333,53124,5,0,0:0:0
378,273,53317,1,0,0:0:0
356,138,53858,1,0,0:0:0
83,294,55635,1,0,0:0:0
230,322,56215,1,0,0:0:0
371,324,57760,5,0,0:0:0
365,245,58069,1,0,0:0:0
366,187,58378,1,0,0:0:0
375,123,58687,1,0,0:0:0
233,149,59074,1,0,0:0:0
221,259,63053,5,0,0:0:0
268,210,63401,1,0,0:0:0
305,168,63594,1,0,0:0:0
272,201,65487,1,0,0:0:0
273,162,66028,1,0,0:0:0
124,303,67767,5,0,0:0:0
191,261,68076,1,0,0:0:0
236,217,68385,1,0,0:0:0
148,98,69003,1,0,0:0:0
133,363,70085,1,0,0:0:0
223,267,70626,1,0,0:0:0
423,332,72867,5,0,0:0:0
427,263,73099,1,0,0:0:0
428,180,73640,1,0,0:0:0
76,297,75417,1,0,0:0:0
159,222,75919,1,0,0:0:0
208,334,77580,5,0,0:0:0
230,302,77889,1,0,0:0:0
283,247,78199,1,0,0:0:0
313,183,78739,1,0,0:0:0
313,110,79087,1,0,0:0:0
152,312,81367,5,0,0:0:0
152,224,81676,1,0,0:0:0
152,112,81985,1,0,0:0:0
304,88,82255,1,0,0:0:0
392,128,82564,1,0,0:0:0
416,224,82912,1,0,0:0:0
392,312,83183,1,0,0:0:0
304,320,83492,1,0,0:0:0
216,288,84998,5,0,0:0:0
280,192,85308,1,0,0:0:0
184,264,85926,5,0,0:0:0
216,200,86080,1,0,0:0:0
184,264,86273,1,0,0:0:0
88,256,86698,1,0,0:0:0
176,112,87317,1,0,0:0:0
256,112,87510,1,0,0:0:0
320,144,87703,1,0,0:0:0
360,232,87935,1,0,0:0:0
344,280,88089,1,0,0:0:0
288,192,88708,5,0,0:0:0
288,192,89944,1,0,0:0:0
288,192,90446,1,0,0:0:0
128,328,90755,1,0,0:0:0
128,232,91257,1,0,0:0:0
168,128,91567,1,0,0:0:0
264,80,91798,1,0,0:0:0
384,112,92107,1,0,0:0:0
392,192,92455,1,0,0:0:0
360,248,92803,1,0,0:0:0
288,288,93073,1,0,0:0:0
362,302,96396,5,0,0:0:0
376,250,96551,1,0,0:0:0
376,250,96705,1,0,0:0:0
374,169,97092,1,0,0:0:0
309,168,97710,1,0,0:0:0
275,168,97864,1,0,0:0:0
210,292,98598,1,0,0:0:0
250,263,98753,1,0,0:0:0
281,252,99023,1,0,0:0:0
338,223,99216,1,0,0:0:0
338,223,99526,1,0,0:0:0
332,306,101148,5,0,0:0:0
331,234,101341,1,0,0:0:0
326,164,101689,1,0,0:0:0
270,100,102037,1,0,0:0:0
214,102,102230,1,0,0:0:0
214,216,102501,1,0,0:0:0
266,247,102848,1,0,0:0:0
351,327,103582,5,0,0:0:0
351,327,103737,1,0,0:0:0
351,327,103930,1,0,0:0:0
351,327,104085,1,0,0:0:0
351,327,104471,1,0,0:0:0
144,325,105050,5,0,0:0:0
332,292,106055,5,0,0:0:0
320,227,106403,1,0,0:0:0
325,168,106635,1,0,0:0:0
325,87,106944,1,0,0:0:0
286,115,107523,1,0,0:0:0
265,158,107794,1,0,0:0:0
187,305,108373,5,0,0:0:0
253,254,108991,1,0,0:0:0
223,214,109416,1,0,0:0:0
139,203,109725,1,0,0:0:0
139,203,109996,1,0,0:0:0
281,310,111000,5,0,0:0:0
288,270,111348,1,0,0:0:0
291,235,111619,1,0,0:0:0
289,180,111928,1,0,0:0:0
230,180,112160,1,0,0:0:0
230,180,112314,1,0,0:0:0
154,267,112855,1,0,0:0:0
235,275,113434,1,0,0:0:0
278,273,113782,1,0,0:0:0
278,273,113975,1,0,0:0:0
323,235,114323,1,0,0:0:0
382,335,115946,5,0,0:0:0
373,286,116255,1,0,0:0:0
371,210,116487,1,0,0:0:0
370,164,116680,1,0,0:0:0
293,215,117066,1,0,0:0:0
280,264,117453,1,0,0:0:0
254,299,117723,1,0,0:0:0
206,315,117916,1,0,0:0:0
143,256,118380,5,0,0:0:0
176,250,118612,1,0,0:0:0
230,234,118998,1,0,0:0:0
293,210,119191,1,0,0:0:0
293,210,119423,1,0,0:0:0
356,210,119964,1,0,0:0:0
242,330,120775,5,0,0:0:0
281,283,121123,1,0,0:0:0
356,210,121393,1,0,0:0:0
345,150,121587,1,0,0:0:0
171,148,121857,1,0,0:0:0
214,223,122166,1,0,0:0:0
261,259,122475,1,0,0:0:0
281,283,122630,1,0,0:0:0
123,339,123403,5,0,0:0:0
141,318,123557,1,0,0:0:0
202,265,123750,1,0,0:0:0
227,245,123905,1,0,0:0:0
256,192,124253,12,0,128193,0:0:0
265,280,128657,5,0,0:0:0
284,215,128927,1,0,0:0:0
348,100,129237,1,0,0:0:0
201,197,131091,1,0,0:0:0
328,192,131593,1,0,0:0:0
175,312,133293,5,0,0:0:0
176,242,133564,1,0,0:0:0
179,152,133873,1,0,0:0:0
300,212,134530,5,0,0:0:0
92,331,135689,1,0,0:0:0
165,253,136307,1,0,0:0:0
165,215,136964,1,0,0:0:0
186,132,137234,1,0,0:0:0
331,268,138471,5,0,0:0:0
338,199,138625,1,0,0:0:0
331,124,139127,1,0,0:0:0
121,253,140982,1,0,0:0:0
157,227,141484,1,0,0:0:0
367,325,143145,5,0,0:0:0
274,321,143455,1,0,0:0:0
204,321,143764,1,0,0:0:0
121,324,144034,1,0,0:0:0
122,261,144420,1,0,0:0:0
330,330,146275,5,0,0:0:0
330,282,146739,1,0,0:0:0
330,212,147086,1,0,0:0:0
328,163,147395,1,0,0:0:0
329,103,147627,1,0,0:0:0
331,66,147859,1,0,0:0:0
331,66,148168,1,0,0:0:0
189,108,148555,5,0,0:0:0
226,247,148864,1,0,0:0:0
282,315,149018,1,0,0:0:0
43,329,150911,5,0,0:0:0
381,51,151568,1,0,0:0:0
395,323,153307,5,0,0:0:0
401,262,153500,1,0,0:0:0
383,97,154079,1,0,0:0:0
139,280,155470,5,0,0:0:0
320,187,156089,1,0,0:0:0
406,322,158291,5,0,0:0:0
403,286,158445,1,0,0:0:0
410,204,158986,1,0,0:0:0
353,184,160763,1,0,0:0:0
288,177,161304,1,0,0:0:0
107,329,162927,5,0,0:0:0
173,257,163236,1,0,0:0:0
240,191,163584,1,0,0:0:0
335,73,164202,1,0,0:0:0
235,64,164511,1,0,0:0:0
150,330,166211,5,0,0:0:0
150,248,167293,5,0,0:0:0
227,192,167834,1,0,0:0:0
293,110,168452,1,0,0:0:0
338,275,168838,1,0,0:0:0
228,283,169727,1,0,0:0:0
118,287,171041,5,0,0:0:0
148,234,171504,1,0,0:0:0
328,299,172161,5,0,0:0:0
316,208,172470,1,0,0:0:0
286,174,173088,1,0,0:0:0
221,125,173591,1,0,0:0:0
149,255,174247,5,0,0:0:0
291,247,174518,1,0,0:0:0
363,222,174788,1,0,0:0:0
186,322,175329,5,0,0:0:0
214,256,175638,1,0,0:0:0
244,164,175909,1,0,0:0:0
84,242,176643,5,0,0:0:0
214,256,176913,1,0,0:0:0
265,233,177222,1,0,0:0:0
108,324,177879,5,0,0:0:0
150,270,178111,1,0,0:0:0
241,138,178420,1,0,0:0:0
363,309,179000,5,0,0:0:0
363,309,179270,1,0,0:0:0
115,189,179927,1,0,0:0:0
353,177,180236,1,0,0:0:0
237,260,180777,1,0,0:0:0
182,345,181240,5,0,0:0:0
308,132,182129,1,0,0:0:0
411,316,182825,1,0,0:0:0
411,316,183095,1,0,0:0:0
411,316,183404,1,0,0:0:0
411,316,183675,1,0,0:0:0
159,302,183984,1,0,0:0:0
285,182,184563,1,0,0:0:0
351,328,185761,5,0,0:0:0
430,112,186070,1,0,0:0:0
340,163,186534,1,0,0:0:0
229,245,186997,1,0,0:0:0
384,82,187345,1,0,0:0:0
291,144,187809,1,0,0:0:0
208,207,188388,1,0,0:0:0
256,192,189470,12,0,195574,0:0:0
