osu file format v12

[General]
AudioFilename: Round Wave Crusher - Maware Maware.mp3
AudioLeadIn: 0
PreviewTime: -1
Countdown: 1
SampleSet: None
StackLeniency: 0.7
Mode: 0
LetterboxInBreaks: 1
WidescreenStoryboard: 0

[Editor]
DistanceSpacing: 0.8
BeatDivisor: 4
GridSize: 16

[Metadata]
Title:Maware Maware
TitleUnicode:Maware Maware
Artist:Round Wave Crusher
ArtistUnicode:Round Wave Crusher
Creator:Turboapina
Version:Maware
Source:Kikou Shoujo wa Kizutsukanai
Tags:machine doll kikou shoujo wa kizutsukanai unbreakable jcore j-core bass masterz
BeatmapID:368114
BeatmapSetID:148960

[Difficulty]
HPDrainRate:5
CircleSize:4
OverallDifficulty:7
ApproachRate:9
SliderMultiplier:3
SliderTickRate:2

[Events]
//Background and Video events
0,0,"Konachan.com - 172021 black_hair kajuu_aisu kikou_shoujo_wa_kizutsukanai long_hair red_eyes ribbons thighhighs yaya.jpg",0,0
//Break Periods
//Storyboard Layer 0 (Background)
//Storyboard Layer 1 (Fail)
//Storyboard Layer 2 (Pass)
//Storyboard Layer 3 (Foreground)
//Storyboard Sound Samples
//Background Colour Transformations
3,100,163,162,255

[TimingPoints]
19700,294.117647058824,4,1,0,100,1,0

[HitObjects]
64,64,19699,5,0,0:0:0:0:
448,64,19994,1,0,0:0:0:0:
64,128,20288,1,0,0:0:0:0:
448,128,20582,1,0,0:0:0:0:
64,192,20876,1,0,0:0:0:0:
448,192,21170,1,0,0:0:0:0:
64,256,21464,1,0,0:0:0:0:
448,256,21758,1,0,0:0:0:0:
64,320,22052,1,0,0:0:0:0:
448,320,22347,1,0,0:0:0:0:
256,320,22641,1,0,0:0:0:0:
256,64,22935,1,0,0:0:0:0:
256,192,23229,6,0,L|160:192,10,75
320,192,24111,1,0,0:0:0:0:
256,32,24405,5,0,0:0:0:0:
256,352,24700,1,0,0:0:0:0:
256,96,24994,1,0,0:0:0:0:
256,288,25288,1,0,0:0:0:0:
32,192,25582,1,0,0:0:0:0:
480,192,25876,1,0,0:0:0:0:
160,256,26170,1,0,0:0:0:0:
352,128,26464,1,0,0:0:0:0:
160,128,26758,1,0,0:0:0:0:
352,256,27052,1,0,0:0:0:0:
256,192,27347,1,0,0:0:0:0:
256,192,27641,12,0,28817,0:0:0:0:
32,352,29111,5,0,0:0:0:0:
480,32,29405,1,0,0:0:0:0:
256,192,29700,2,0,L|256:80,7,75
256,192,30288,1,0,0:0:0:0:
176,192,30582,1,0,0:0:0:0:
336,192,30876,1,0,0:0:0:0:
96,192,31170,1,0,0:0:0:0:
416,192,31464,1,0,0:0:0:0:
32,192,31758,1,0,0:0:0:0:
480,192,32052,1,0,0:0:0:0:
256,192,32347,1,0,0:0:0:0:
256,48,32641,5,0,0:0:0:0:
256,80,32788,1,0,0:0:0:0:
256,112,32935,1,0,0:0:0:0:
256,144,33082,1,0,0:0:0:0:
256,304,33229,2,0,L|256:208,7,75
256,192,33817,1,0,0:0:0:0:
400,192,34111,6,0,L|48:192,1,300
100,192,34552,1,0,0:0:0:0:
100,192,34700,2,0,L|304:192,1,150
48,48,34994,6,0,L|192:144,1,150
464,48,35288,6,0,L|304:160,1,150
48,336,35582,6,0,L|192:240,1,150
464,336,35876,6,0,L|288:224,1,150
256,48,36170,6,0,L|256:208,1,150
96,336,36464,6,0,B|-48:128|32:-64|496:352,1,750
48,48,37347,5,0,0:0:0:0:
464,336,37641,1,0,0:0:0:0:
256,192,37935,1,0,0:0:0:0:
256,192,38008,1,0,0:0:0:0:
256,256,38082,1,0,0:0:0:0:
256,256,38155,1,0,0:0:0:0:
256,256,38229,1,0,0:0:0:0:
256,128,38376,1,0,0:0:0:0:
256,320,38523,5,0,0:0:0:0:
160,80,38670,5,0,0:0:0:0:
192,80,38744,1,0,0:0:0:0:
224,80,38817,1,0,0:0:0:0:
256,80,38891,1,0,0:0:0:0:
288,80,38964,1,0,0:0:0:0:
320,80,39038,1,0,0:0:0:0:
352,80,39111,1,0,0:0:0:0:
256,192,39405,1,0,0:0:0:0:
256,320,39700,1,0,0:0:0:0:
80,192,39994,1,0,0:0:0:0:
432,192,40288,1,0,0:0:0:0:
256,192,40582,1,0,0:0:0:0:
256,48,40876,5,0,0:0:0:0:
256,64,40950,1,0,0:0:0:0:
256,80,41023,1,0,0:0:0:0:
256,96,41097,1,0,0:0:0:0:
256,112,41170,1,0,0:0:0:0:
256,128,41244,1,0,0:0:0:0:
256,144,41317,1,0,0:0:0:0:
256,160,41391,1,0,0:0:0:0:
256,176,41464,1,0,0:0:0:0:
256,192,41538,1,0,0:0:0:0:
256,208,41611,1,0,0:0:0:0:
256,224,41685,1,0,0:0:0:0:
256,240,41758,1,0,0:0:0:0:
256,256,41832,1,0,0:0:0:0:
256,272,41905,1,0,0:0:0:0:
176,288,42052,6,0,L|176:128,1,150
176,48,42347,6,0,L|256:48,2,75
384,96,42641,6,0,L|256:192,1,150
128,288,42935,2,0,L|256:192,1,150
176,112,43229,5,0,0:0:0:0:
256,192,43376,1,0,0:0:0:0:
352,272,43523,1,0,0:0:0:0:
176,272,43817,1,0,0:0:0:0:
336,112,44111,1,0,0:0:0:0:
256,192,44405,1,0,0:0:0:0:
256,192,44552,1,0,0:0:0:0:
256,192,44700,1,0,0:0:0:0:
256,192,44847,1,0,0:0:0:0:
256,96,44994,2,0,L|256:288,1,150
256,288,45288,1,0,0:0:0:0:
256,336,45435,1,0,0:0:0:0:
384,336,45582,6,0,P|464:240|368:112,1,300
368,112,45876,2,0,P|160:64|84:125,1,300
96,112,46170,2,0,P|20:244|116:340,1,300
112,336,46464,2,0,P|288:336|384:240,1,300
416,80,46905,1,0,0:0:0:0:
352,144,47052,1,0,0:0:0:0:
288,208,47200,1,0,0:0:0:0:
224,272,47347,1,0,0:0:0:0:
160,128,47494,6,0,L|160:208,5,75
160,128,47935,2,0,L|240:128,4,75
160,128,48302,2,0,P|80:192|64:288,1,150
256,160,48523,5,0,0:0:0:0:
240,192,48670,1,0,0:0:0:0:
224,224,48817,1,0,0:0:0:0:
288,224,49111,1,0,0:0:0:0:
256,96,49405,1,0,0:0:0:0:
176,272,49700,1,0,0:0:0:0:
336,272,49994,1,0,0:0:0:0:
256,32,50288,1,0,0:0:0:0:
128,320,50582,1,0,0:0:0:0:
384,320,50876,1,0,0:0:0:0:
256,192,51170,1,0,0:0:0:0:
64,192,51464,5,0,0:0:0:0:
96,192,51538,1,0,0:0:0:0:
128,192,51611,1,0,0:0:0:0:
160,192,51685,1,0,0:0:0:0:
192,192,51758,1,0,0:0:0:0:
224,192,51832,1,0,0:0:0:0:
256,192,51905,1,0,0:0:0:0:
288,192,51979,1,0,0:0:0:0:
320,192,52052,2,0,P|400:144|320:80,1,225
324,78,52273,2,0,P|160:80|144:112,1,225
144,110,52494,2,0,P|176:208|272:240,1,150
256,304,52788,5,0,0:0:0:0:
224,288,52861,1,0,0:0:0:0:
208,256,52935,1,0,0:0:0:0:
192,224,53008,1,0,0:0:0:0:
192,192,53082,1,0,0:0:0:0:
208,160,53155,1,0,0:0:0:0:
240,144,53229,1,0,0:0:0:0:
272,144,53302,1,0,0:0:0:0:
304,160,53376,1,0,0:0:0:0:
336,192,53450,1,0,0:0:0:0:
336,224,53523,1,0,0:0:0:0:
320,256,53597,1,0,0:0:0:0:
304,288,53670,1,0,0:0:0:0:
272,320,53744,1,0,0:0:0:0:
240,336,53817,1,0,0:0:0:0:
192,336,53891,1,0,0:0:0:0:
144,304,53964,1,0,0:0:0:0:
112,272,54038,1,0,0:0:0:0:
80,240,54111,1,0,0:0:0:0:
64,192,54185,1,0,0:0:0:0:
80,144,54258,1,0,0:0:0:0:
112,112,54332,1,0,0:0:0:0:
144,96,54405,1,0,0:0:0:0:
176,80,54479,1,0,0:0:0:0:
224,64,54552,1,0,0:0:0:0:
272,64,54626,1,0,0:0:0:0:
304,80,54700,1,0,0:0:0:0:
320,112,54773,1,0,0:0:0:0:
304,144,54847,1,0,0:0:0:0:
272,160,54920,1,0,0:0:0:0:
80,80,54994,5,0,0:0:0:0:
80,112,55141,1,0,0:0:0:0:
80,144,55288,1,0,0:0:0:0:
80,176,55435,1,0,0:0:0:0:
80,208,55582,1,0,0:0:0:0:
80,240,55729,1,0,0:0:0:0:
80,272,55876,1,0,0:0:0:0:
80,304,56023,1,0,0:0:0:0:
80,336,56170,2,0,B|416:336|256:48,1,450
261,58,56758,1,0,0:0:0:0:
256,192,56905,2,0,L|256:272,2,75
160,192,57347,1,0,0:0:0:0:
256,96,57641,1,0,0:0:0:0:
352,192,57935,1,0,0:0:0:0:
256,288,58229,1,0,0:0:0:0:
176,112,58523,1,0,0:0:0:0:
336,272,58817,1,0,0:0:0:0:
80,192,59111,1,0,0:0:0:0:
432,192,59405,1,0,0:0:0:0:
256,192,59700,6,0,L|256:32,1,150
256,192,59994,2,0,L|96:192,1,150
256,192,60288,2,0,L|448:192,1,150
256,192,60582,2,0,L|256:352,1,150
64,192,60876,1,0,0:0:0:0:
256,192,61023,2,0,L|128:192,2,75
256,192,61317,2,0,L|352:192,2,75
432,64,61611,2,0,L|432:224,1,150
304,64,61905,2,0,L|304:224,1,150
304,214,62052,2,0,L|304:304,3,75
304,289,62347,1,0,0:0:0:0:
64,288,62641,1,0,0:0:0:0:
64,48,62935,1,0,0:0:0:0:
256,192,63229,1,0,0:0:0:0:
448,48,63523,1,0,0:0:0:0:
448,288,63817,1,0,0:0:0:0:
256,96,64111,2,0,P|352:176|256:288,1,300
260,287,64552,1,0,0:0:0:0:
256,192,64700,1,0,0:0:0:0:
256,96,64847,1,0,0:0:0:0:
144,96,64994,5,0,0:0:0:0:
144,128,65067,1,0,0:0:0:0:
144,160,65141,1,0,0:0:0:0:
144,192,65214,1,0,0:0:0:0:
144,224,65288,1,0,0:0:0:0:
144,256,65361,1,0,0:0:0:0:
144,288,65435,1,0,0:0:0:0:
144,320,65508,1,0,0:0:0:0:
176,320,65582,2,0,B|352:320|416:176|288:48|80:64,1,525
97,63,66170,2,0,L|96:224,3,150
416,64,66758,6,0,L|240:64,1,150
208,64,67052,1,0,0:0:0:0:
144,64,67200,1,0,0:0:0:0:
80,64,67347,2,0,L|80:224,1,150
176,208,67641,1,0,0:0:0:0:
256,208,67788,1,0,0:0:0:0:
336,208,67935,1,0,0:0:0:0:
320,128,68082,2,0,L|128:128,1,150
64,128,68376,2,0,L|64:288,1,150
176,304,68670,2,0,L|224:96,1,150
336,176,68964,2,0,L|144:96,1,150
304,48,69258,2,0,L|416:224,1,150
304,256,69552,2,0,L|112:352,1,150
160,208,69847,2,0,L|352:304,1,150
384,192,70141,2,0,L|240:96,1,150
144,112,70435,5,0,0:0:0:0:
176,144,70508,1,0,0:0:0:0:
208,176,70582,1,0,0:0:0:0:
240,208,70655,1,0,0:0:0:0:
304,272,70729,2,0,L|448:272,1,75
416,272,70876,1,0,0:0:0:0:
432,240,70950,1,0,0:0:0:0:
448,208,71023,1,0,0:0:0:0:
432,176,71097,1,0,0:0:0:0:
400,144,71170,2,0,L|304:144,3,75
325,144,71464,1,0,0:0:0:0:
80,80,71611,5,0,0:0:0:0:
80,144,71758,1,0,0:0:0:0:
144,144,71905,1,0,0:0:0:0:
144,208,72052,1,0,0:0:0:0:
208,208,72200,1,0,0:0:0:0:
208,272,72347,1,0,0:0:0:0:
272,272,72494,1,0,0:0:0:0:
336,272,72641,1,0,0:0:0:0:
336,208,72788,1,0,0:0:0:0:
336,144,72935,1,0,0:0:0:0:
272,144,73082,1,0,0:0:0:0:
272,80,73229,1,0,0:0:0:0:
208,80,73376,1,0,0:0:0:0:
144,80,73523,1,0,0:0:0:0:
144,144,73670,1,0,0:0:0:0:
144,176,73817,1,0,0:0:0:0:
176,176,73891,1,0,0:0:0:0:
192,144,73964,1,0,0:0:0:0:
192,112,74038,1,0,0:0:0:0:
192,80,74111,1,0,0:0:0:0:
160,64,74185,1,0,0:0:0:0:
128,64,74258,1,0,0:0:0:0:
96,80,74332,1,0,0:0:0:0:
96,112,74405,1,0,0:0:0:0:
112,144,74479,1,0,0:0:0:0:
112,176,74552,1,0,0:0:0:0:
128,208,74626,1,0,0:0:0:0:
160,224,74700,1,0,0:0:0:0:
192,224,74773,1,0,0:0:0:0:
208,192,74847,1,0,0:0:0:0:
224,160,74920,1,0,0:0:0:0:
256,192,74994,2,0,L|256:112,15,75
336,192,76170,6,0,L|112:192,2,225
112,128,76758,1,0,0:0:0:0:
192,128,76905,1,0,0:0:0:0:
272,128,77052,1,0,0:0:0:0:
352,128,77200,1,0,0:0:0:0:
352,208,77347,1,0,0:0:0:0:
272,208,77494,1,0,0:0:0:0:
192,208,77641,1,0,0:0:0:0:
112,208,77788,1,0,0:0:0:0:
112,208,77935,1,0,0:0:0:0:
112,208,78082,1,0,0:0:0:0:
112,208,78229,1,0,0:0:0:0:
112,208,78376,1,0,0:0:0:0:
208,256,78523,2,0,P|256:64|224:256,4,600
288,256,81023,5,0,0:0:0:0:
288,256,81170,1,0,0:0:0:0:
368,256,81317,1,0,0:0:0:0:
368,256,81464,1,0,0:0:0:0:
448,256,81611,1,0,0:0:0:0:
448,256,81758,2,0,P|448:128|288:96,1,300
176,208,82200,1,0,0:0:0:0:
176,96,82347,1,0,0:0:0:0:
176,96,82494,1,0,0:0:0:0:
176,96,82641,1,0,0:0:0:0:
176,96,82788,1,0,0:0:0:0:
176,96,82935,2,0,L|256:192,3,75
176,96,83229,1,0,0:0:0:0:
256,96,83376,1,0,0:0:0:0:
336,96,83523,1,0,0:0:0:0:
336,176,83670,1,0,0:0:0:0:
336,256,83817,1,0,0:0:0:0:
336,336,83964,1,0,0:0:0:0:
176,176,84111,1,0,0:0:0:0:
176,256,84258,1,0,0:0:0:0:
64,304,84405,6,0,B|160:-16|288:384|480:16,1,525
384,48,84994,2,0,L|384:128,6,75
320,48,85582,6,0,L|176:112,1,150
182,108,85802,2,0,L|336:160,1,150
325,156,86023,2,0,L|160:208,1,150
182,201,86244,2,0,L|336:256,1,150
323,251,86464,2,0,L|176:304,1,150
182,301,86685,2,0,L|336:240,1,150
321,245,86905,2,0,L|176:192,1,150
180,193,87126,2,0,L|336:144,1,150
320,144,87347,2,0,L|156:91,3,150
224,80,87935,5,0,0:0:0:0:
288,112,88082,1,0,0:0:0:0:
224,144,88229,1,0,0:0:0:0:
288,176,88376,1,0,0:0:0:0:
224,208,88523,1,0,0:0:0:0:
288,240,88670,1,0,0:0:0:0:
224,272,88817,1,0,0:0:0:0:
288,304,88964,1,0,0:0:0:0:
224,192,89111,2,0,L|80:192,7,75
256,192,89700,12,0,89994,0:0:0:0:
96,80,90288,6,0,L|96:240,1,150
96,230,90508,2,0,L|208:128,1,150
206,129,90729,2,0,L|208:288,1,150
207,278,90876,2,0,L|352:144,1,150
317,176,91097,2,0,L|320:336,1,150
319,326,91317,2,0,L|480:320,1,150
469,320,91538,2,0,L|464:144,1,150
464,170,91758,2,0,L|336:288,1,150
256,192,92052,2,0,L|368:288,6,75
368,240,92641,5,0,0:0:0:0:
368,208,92788,1,0,0:0:0:0:
368,176,92935,1,0,0:0:0:0:
368,144,93082,1,0,0:0:0:0:
368,112,93229,1,0,0:0:0:0:
336,112,93376,1,0,0:0:0:0:
304,112,93523,1,0,0:0:0:0:
272,112,93670,1,0,0:0:0:0:
240,112,93817,2,0,L|160:112,7,75
400,112,94405,2,0,L|400:192,6,75
144,192,94994,6,0,L|144:112,2,75
224,192,95214,2,0,L|304:192,2,75
176,256,95435,2,0,L|176:336,2,75
224,112,95655,2,0,L|144:112,2,75
288,160,95876,2,0,L|352:96,2,75
272,224,96097,2,0,L|336:272,2,75
192,192,96317,2,0,L|128:256,2,75
224,128,96538,2,0,L|160:64,2,75
256,192,96758,2,0,L|416:192,4,150
400,128,97494,5,0,0:0:0:0:
320,128,97641,1,0,0:0:0:0:
240,128,97788,1,0,0:0:0:0:
160,128,97935,1,0,0:0:0:0:
80,128,98082,1,0,0:0:0:0:
80,208,98229,1,0,0:0:0:0:
80,288,98376,1,0,0:0:0:0:
160,288,98523,1,0,0:0:0:0:
240,288,98670,1,0,0:0:0:0:
320,288,98817,1,0,0:0:0:0:
400,288,98964,1,0,0:0:0:0:
400,288,99111,2,0,L|480:288,6,75
400,192,99700,6,0,L|240:192,1,150
250,192,99920,2,0,L|112:112,1,150
120,116,100141,2,0,L|256:48,1,150
254,48,100361,2,0,L|368:176,1,150
354,160,100582,2,0,L|288:304,1,150
291,296,100802,2,0,L|112:256,1,150
145,263,101023,2,0,L|80:128,1,150
80,128,101244,2,0,L|224:64,1,150
217,67,101464,2,0,L|384:128,1,150
357,118,101685,2,0,L|256:240,1,150
432,160,102052,5,0,0:0:0:0:
384,224,102200,1,0,0:0:0:0:
336,160,102347,1,0,0:0:0:0:
288,224,102494,1,0,0:0:0:0:
240,160,102641,1,0,0:0:0:0:
192,224,102788,1,0,0:0:0:0:
144,160,102935,1,0,0:0:0:0:
96,224,103082,1,0,0:0:0:0:
48,160,103229,2,0,L|48:80,6,75
48,48,103817,5,0,0:0:0:0:
464,48,104111,1,0,0:0:0:0:
256,192,104405,1,0,0:0:0:0:
112,192,104847,1,0,0:0:0:0:
112,192,104920,1,0,0:0:0:0:
112,192,104994,1,0,0:0:0:0:
112,192,105067,1,0,0:0:0:0:
112,320,105288,1,0,0:0:0:0:
256,320,105435,1,0,0:0:0:0:
400,320,105582,1,0,0:0:0:0:
400,192,105729,1,0,0:0:0:0:
400,64,105876,1,0,0:0:0:0:
256,64,106023,1,0,0:0:0:0:
112,64,106170,1,0,0:0:0:0:
112,192,106317,1,0,0:0:0:0:
256,192,106464,1,0,0:0:0:0:
256,192,106611,1,0,0:0:0:0:
