osu file format v5

[General]
AudioFilename: 12 ChobitsRemix.mp3
AudioLeadIn: 0
PreviewTime: -1
Countdown: 1
SampleSet: Normal
StackLeniency: 0.7
Mode: 0
EditorBookmarks: 13750,18875,24250,29500,34625,38500,42500

[Metadata]
Title:ChobitsRemix
Artist:Round Table ft. Nino
Creator:Red Deft
Version:Normal
Source:
Tags:

[Difficulty]
HPDrainRate:4
CircleSize:4
OverallDifficulty:5
SliderMultiplier:1.7
SliderTickRate:0.5

[Events]
//Background and Video events
0,0,"Chobits.jpg"
//Break Periods
//Storyboard Layer 0 (Background)
//Storyboard Layer 1 (Failing)
//Storyboard Layer 2 (Passing)
//Storyboard Layer 3 (Foreground)
//Storyboard Sound Samples
//Background Colour Transformations
3,100,163,162,255

[TimingPoints]
0,500,4,1,0,100
0,500,4,1,0,100
0,500,4,1,0,100
0,500,4,1,0,100
0,500,4,1,0,100
0,500,4,1,0,100
0,500,4,1,0,100
0,500,4,1,0,100
0,500,4,1,0,100
0,500,4,1,0,100

[HitObjects]
256,192,7920,12,2,8920
256,192,10000,1,4
352,128,10500,1,0
352,128,10750,1,0
160,128,11125,5,0
160,128,11375,1,0
256,192,11875,5,0
352,256,12250,5,0
352,256,12500,1,0
160,256,12875,5,0
160,256,13125,1,0
256,192,14000,12,0,15375
256,96,15750,5,0
256,96,16000,1,0
256,96,16250,1,0
256,96,16500,1,0
256,96,16875,1,0
256,256,17625,5,0
256,256,17875,1,0
256,256,18125,1,0
256,256,18375,1,0
256,256,18750,1,0
192,128,19250,5,0
320,128,19500,1,0
192,256,19875,1,0
320,256,20125,1,0
256,192,20625,1,0
256,192,21000,1,0
160,192,21250,6,0,L|320:192,1,127.5
224,160,22250,2,0,L|384:160,1,127.5
448,96,23125,2,0,B|64:96,1,340
192,256,24750,1,0
192,256,25000,1,0
192,256,25250,5,0
192,256,25500,1,0
192,256,25750,1,0
192,256,26125,1,0
320,128,26625,5,0
320,128,26875,1,0
320,128,27250,1,0
320,128,27500,1,0
320,128,28000,1,0
320,128,28500,1,0
160,128,30625,6,0,L|384:224,1,212.5
352,128,31750,1,0
352,128,32125,1,0
352,128,32625,1,0
160,128,33125,1,0
160,128,33500,1,0
160,128,34000,1,0
160,224,34250,6,0,L|384:96,1,255
256,192,35375,5,0
256,192,35625,1,0
256,192,35875,1,0
256,192,36250,1,0
352,128,36750,5,0
352,128,37250,1,0
352,128,37500,1,0
352,128,37750,1,0
352,256,38000,2,0,L|160:128,1,212.5
160,128,39125,5,0
160,128,39375,1,0
160,128,39625,1,0
160,128,40000,1,0
352,256,40500,5,0
352,256,40875,1,0
352,256,41375,1,0
128,192,41625,2,0,L|416:192,1,255
192,128,43500,5,2
256,128,43625,1,2
320,128,43875,1,2
192,256,44125,1,2
320,256,44500,1,2
192,192,45000,6,4,L|256:128|320:192|288:256|256:288|192:256|32:192,1,510
224,128,47375,5,0
288,128,47625,1,0
224,256,48000,1,0
288,256,48250,1,0
256,192,48750,1,0
160,160,49250,5,0
160,224,49500,1,0
352,160,49875,1,0
352,224,50125,1,0
256,192,50625,1,0
128,160,50875,5,2
192,128,51250,1,2
256,96,51750,1,2
320,128,52250,1,2
384,160,52625,1,2
224,160,52875,5,0
288,224,53125,1,0
224,224,53625,1,0
288,160,53875,1,0
256,192,54250,1,6
96,96,54750,5,0
96,160,55000,1,0
96,224,55500,1,0
96,288,55750,1,6
257,190,56125,1,4
416,96,56625,5,0
416,160,56875,1,0
416,224,57250,1,0
416,288,57500,1,6
256,192,58000,1,4
128,224,58250,5,2
192,256,58750,1,2
256,288,59125,1,2
320,256,59625,1,0
384,224,60000,1,2
224,192,60250,6,0,L|320:192,1,85
384,96,61000,2,0,L|384:224,1,127.5
256,192,61625,1,0
160,192,62125,2,0,B|160:288,1,85
352,192,62875,2,0,B|352:288,1,85
256,192,63500,1,6
160,256,64000,6,0,B|160:160,1,85
352,256,64625,2,0,B|352:160,1,85
256,192,65375,1,6
96,128,65625,6,6,B|256:128,1,127.5
352,160,66500,2,6,L|192:224,1,170
320,288,67500,2,6,B|480:288,1,127.5
352,224,68375,5,0
352,224,68750,1,0
352,224,69125,1,0
96,96,69500,5,0
96,160,69750,1,0
160,160,70250,1,0
160,96,70500,1,0
224,96,71000,1,6
416,96,71375,5,0
416,160,71625,1,0
352,160,72000,1,0
352,96,72375,1,0
288,64,72750,2,6,L|96:128|96:288|224:320,1,467.5
256,192,75000,12,6,75250
96,288,76125,2,6,L|448:288,1,340
96,128,78125,2,6,L|416:128,1,297.5
256,192,79875,5,6
160,96,80375,1,6
352,96,80875,1,6
160,288,81375,1,6
352,288,81750,1,6
256,192,82375,12,6,82750
160,128,87750,2,0,L|352:128,1,170
352,256,88625,2,0,L|160:256,1,170
256,192,89625,12,6,91000
