osu file format v5

[General]
AudioFilename: Puzzle (1).mp3
AudioLeadIn: 0
PreviewTime: -1
Countdown: 1
SampleSet: Soft
StackLeniency: 0.7
Mode: 0
LetterboxInBreaks: 1
EditorBookmarks: 12547,12818,13270,36492,73720

[Metadata]
Title:Puzzle -extra hot mix-
Artist:Round Table feat. Nino
Creator:HarryOrunitia
Version:Normal
Source:NHK ni Youkoso OP 2
Tags:Anime Jpop Puzzle Nhk

[Difficulty]
HPDrainRate:6
CircleSize:5
OverallDifficulty:6
SliderMultiplier:1.6
SliderTickRate:2

[Events]
//Background and Video events
0,0,"puzzleback.jpg"
1,-384,"Puzzle.avi"
//Break Periods
2,31632,36346
2,56571,58032
2,64342,66164
//Storyboard Layer 0 (Background)
//Storyboard Layer 1 (Failing)
//Storyboard Layer 2 (Passing)
//Storyboard Layer 3 (Foreground)
//Storyboard Sound Samples
//Background Colour Transformations
3,100,255,128,0

[TimingPoints]
13164,361.44578313253,4,2,0,100,1,0
83750,-100,4,2,0,31,0,0

[Colours]
Combo1 : 255,128,0
Combo2 : 5,240,5
Combo3 : 0,0,255
Combo4 : 240,5,5

[HitObjects]
256,48,13163,1,0
224,104,13344,1,0
288,104,13525,1,2
256,360,14248,1,0
224,304,14429,1,0
288,304,14609,1,2
192,224,14971,1,0
320,224,15332,1,0
256,112,15694,1,2
432,296,16417,5,0
432,232,16597,1,2
320,296,16959,1,0
320,232,17139,1,2
192,264,17501,1,0
64,264,17862,1,2
128,144,18224,1,0
256,144,18585,1,0
384,144,18947,1,2
256,288,19489,5,0
256,160,19850,1,0
256,160,20031,1,2
256,288,20392,1,0
256,160,20754,1,2
176,256,21115,2,2,C|336:256,2,160
256,80,22380,5,0
256,208,22742,1,0
256,208,22923,1,2
128,176,23284,1,0
256,152,23645,1,2
384,176,24007,1,2
144,64,24730,5,0
208,64,24910,1,2
272,64,25091,1,2
368,320,25814,1,0
304,320,25995,1,2
240,320,26176,1,2
256,192,26537,1,0
192,80,26898,1,0
320,80,27260,1,2
256,368,28163,5,0
256,240,28525,1,0
256,176,28706,1,2
192,64,29067,1,0
320,64,29429,1,2
440,208,29971,5,0
376,208,30151,1,0
256,288,30513,1,2
256,160,30874,1,0
136,208,31236,1,0
72,208,31417,1,2
256,56,37380,5,0
256,120,37561,1,2
256,184,37742,1,2
376,224,38103,1,0
256,272,38465,1,2
136,224,38826,1,0
256,184,39188,1,2
192,72,39549,5,0
256,72,39730,1,2
320,72,39910,1,2
256,184,40272,1,0
192,296,40633,1,2
320,296,40995,1,0
256,184,41356,1,2
256,312,43164,5,0
256,248,43344,1,2
256,184,43525,1,2
256,56,43886,1,0
328,160,44248,2,2,B|256:104|176:160,1,160
256,256,44971,1,0
352,336,45332,2,0,C|392:280|352:224|392:168|352:112|392:56|336:0,1,400
256,184,46778,5,0
256,120,46959,1,2
256,248,47320,1,0
256,312,47501,1,2
256,192,47862,12,0,48947
128,88,50392,5,0
192,88,50573,1,2
256,88,50754,1,2
384,88,51115,1,0
320,200,51477,1,2
192,200,51838,1,0
176,328,52200,2,2,C|336:328,1,160
456,104,53284,5,0
392,104,53465,1,2
328,104,53645,1,2
200,104,54007,1,0
304,176,54368,1,2
176,176,54730,1,0
280,248,55091,1,2
152,248,55453,2,2,B|280:256|248:64|280:32|384:32,1,320
416,32,56356,1,2
104,72,59067,5,0
152,112,59248,1,2
200,152,59429,1,2
328,152,59790,1,0
456,152,60151,1,2
456,280,60513,1,0
328,280,60874,1,2
200,280,61236,1,0
392,104,61959,5,0
344,144,62139,1,2
296,184,62320,1,2
168,184,62682,1,0
168,312,63043,1,2
296,312,63404,1,0
424,312,63766,1,2
424,184,64127,1,0
256,112,67200,5,0
256,240,67561,1,0
256,240,67742,1,2
320,128,68103,1,0
192,128,68465,2,0,C|248:128|216:192|288:160|264:224|328:216,1,320
448,216,69549,1,0
384,216,69730,1,2
64,216,70633,6,0,C|144:216,2,80
192,216,71356,1,2
320,216,71718,1,0
256,104,72079,1,2
256,232,72441,1,0
256,104,72802,1,2
16,88,74248,5,0
80,88,74429,1,2
16,200,74790,1,0
80,200,74971,1,2
16,88,75332,1,0
136,32,75694,2,0,C|216:24|216:80|256:104|296:80|296:24|376:32|360:136|424:136|448:176|424:224|360:224|376:328|296:336|296:264|256:240|216:264|216:336|136:328|152:224|80:224|56:176|80:136|152:136|136:48,1,1680,0|2
256,312,80212,5,0
256,184,80573,1,0
256,184,80754,1,2
256,56,81115,1,0
256,56,81477,1,2
256,192,82019,12,0,84188
