osu file format v5

[General]
AudioFilename: Rossini - The Barber Of Seville - Overture.mp3
AudioLeadIn: 0
PreviewTime: -1
Countdown: 3
SampleSet: Soft
StackLeniency: 0.7
Mode: 0
LetterboxInBreaks: 1
EditorDistanceSpacing: 0.800000011920929

[Metadata]
Title:The Barber Of Seville - Overture
Artist:Rossini
Creator:mbb
Version:Hard
Source:
Tags:

[Difficulty]
HPDrainRate:4
CircleSize:6
OverallDifficulty:4
SliderMultiplier:1.4
SliderTickRate:2

[Events]
//Background and Video events
0,0,"rossino.jpg"
//Break Periods
2,193866,220165
2,309547,316680
2,349207,421180
//Storyboard Layer 0 (Background)
//Storyboard Layer 1 (Failing)
//Storyboard Layer 2 (Passing)
//Storyboard Layer 3 (Foreground)
//Storyboard Sound Samples
//Background Colour Transformations
3,100,163,162,255

[TimingPoints]
97500,1000,4,2,0,71,1,0
158750,-100,4,2,0,71,0,1
189000,-100,4,2,0,71,0,0
268500,-100,4,2,0,71,0,1
309500,-100,4,2,0,71,0,0
422000,-100,4,2,0,71,0,1

[HitObjects]
256,192,120257,5,10
256,224,120728,2,0,B|480:224|384:128,1,210
224,96,123514,1,0
192,96,123985,2,0,B|128:192|352:320|320:256,1,256.666666666667
256,192,129750,5,0
256,192,129875,1,0
256,192,130000,1,0
288,192,130125,1,0
256,192,130250,1,0
96,288,132500,5,0
96,288,132625,1,0
96,288,132750,1,0
96,256,132875,1,0
96,288,133000,1,0
96,320,133375,1,0
96,288,133499,1,0
96,320,133625,1,0
128,288,134228,1,0
128,288,134485,1,0
128,320,135125,5,0
128,320,135257,1,0
128,320,135375,1,0
128,320,135514,1,0
128,352,135625,1,0
160,352,135985,1,0
160,352,136125,1,0
160,352,136242,1,0
160,320,136757,1,0
160,288,136875,1,0
160,320,137014,1,0
160,320,137125,1,0
352,160,137875,5,0
352,128,138000,1,0
352,128,138250,1,0
320,160,138985,1,0
384,160,139757,1,0
384,160,140099,1,0
384,160,140500,5,0
384,160,140666,1,0
384,192,140833,1,0
384,224,141125,1,0
384,224,141500,1,0
384,224,142000,1,0
384,224,142125,1,0
384,256,142250,1,0
384,256,142499,5,0
416,256,143125,1,0
416,160,143485,1,0
416,192,143750,1,0
384,192,144000,1,0
352,160,144257,1,0
352,192,144500,1,0
320,192,144750,1,0
288,160,144985,1,0
288,192,145125,1,0
256,192,147500,5,0
256,192,147625,1,0
256,192,147750,1,0
288,192,147875,1,0
256,192,148000,1,0
384,96,150250,5,0
384,96,150375,1,0
384,96,150500,1,0
352,96,150625,1,0
384,96,150750,1,0
352,96,151250,1,0
352,96,151375,1,0
352,128,151500,1,0
352,128,151875,1,0
352,128,152000,1,0
352,160,152166,1,0
352,160,152333,1,0
448,64,153000,5,0
448,96,153125,1,0
448,128,153250,1,0
448,128,153375,1,0
448,96,153514,5,0
448,128,153728,1,0
448,128,154250,5,0
448,160,154375,1,0
448,192,154500,1,0
448,192,154666,1,0
448,224,154833,1,0
448,192,155000,1,0
448,192,155166,1,0
96,96,156257,5,0
160,128,156514,1,0
96,160,156728,1,0
160,192,156985,1,0
224,192,157242,1,0
224,128,157499,1,0
224,64,157757,1,0
160,96,158014,1,0
96,128,158228,1,0
96,192,158485,1,0
96,256,158742,1,0
64,224,158999,6,0,B|64:96,4,116.666666666667
128,96,163000,5,0
128,96,163125,1,0
128,96,163250,1,0
128,128,163375,1,0
128,96,163500,1,0
128,96,163625,1,0
128,96,163750,1,0
160,160,163875,1,0
192,192,164000,1,0
224,224,164125,1,0
256,256,164250,1,0
288,288,164375,1,0
320,256,164742,2,0,B|320:128,4,116.666666666667
256,256,168375,5,0
256,256,168625,1,0
256,256,168875,1,0
256,256,169125,1,0
256,256,169375,1,0
256,256,169625,1,0
256,192,169833,1,0
256,192,170000,1,0
256,224,170166,1,0
256,192,170485,2,0,B|256:320,4,116.666666666667
192,192,174000,5,0
192,192,174250,1,0
192,192,174500,1,0
192,192,174750,1,0
192,192,175000,1,0
192,192,175250,1,0
192,256,175500,1,0
192,256,175750,1,0
192,320,176000,1,0
256,320,176228,2,0,B|256:192,4,116.666666666667
320,320,179750,5,0
320,288,180000,1,0
320,288,180250,1,0
320,256,180500,1,0
320,256,180750,1,0
320,224,181000,1,0
320,192,181250,1,0
288,192,181500,1,0
256,192,182000,5,0
320,64,182666,1,0
320,64,182833,1,0
320,64,183000,1,0
320,64,183166,1,0
320,64,183333,1,0
160,64,184166,1,0
160,64,184333,1,0
160,64,184500,1,0
160,64,184666,1,0
160,64,184833,1,0
160,288,185666,5,0
160,288,185833,1,0
160,288,186000,1,0
160,288,186166,1,0
160,288,186333,1,0
288,288,186666,1,0
416,288,187250,2,0,B|416:224|352:224,1,87.5
224,192,189500,5,0
256,192,189666,1,0
288,192,189833,1,0
320,192,190000,1,0
352,320,190833,1,0
320,320,191000,1,0
288,320,191166,1,0
256,320,191333,1,0
96,288,192500,6,0,B|160:192|224:224,1,140
207,217,193666,1,0
256,192,221485,5,0
256,192,222257,1,0
256,192,222985,2,0,B|256:64,1,116.666666666667
320,64,224125,1,0
320,64,224485,1,0
256,256,225250,1,0
256,256,225375,1,0
256,224,225500,1,0
256,192,225728,5,0
256,192,226375,1,0
256,192,227166,1,0
256,192,227833,1,0
64,192,228728,6,0,B|192:192,1,116.666666666667
224,192,229750,1,0
224,192,230014,1,0
352,352,231125,5,0
352,320,231250,1,0
352,288,231375,1,0
352,288,231514,1,0
352,256,232242,1,0
352,224,233014,2,0,B|224:192,1,116.666666666667
224,192,234125,1,0
224,160,234257,5,0
224,192,234875,1,0
224,160,234985,1,0
224,192,235757,1,0
224,128,236485,1,0
224,64,237000,1,0
256,32,237171,1,0
256,64,237342,1,0
256,96,237514,1,0
256,128,237685,1,0
224,160,237814,1,0
192,192,237985,1,0
160,224,238157,1,0
128,224,238328,1,0
96,192,238499,1,0
160,128,240257,5,0
256,128,240985,1,0
384,128,241757,1,0
384,256,242485,1,0
256,256,243257,1,0
256,256,243500,1,0
256,256,243625,1,0
128,256,243875,1,0
128,256,244250,1,0
128,256,244375,1,0
128,160,244625,1,0
256,160,245485,1,0
96,64,246257,5,0
96,256,246985,1,0
448,64,247757,1,0
448,256,248485,1,0
96,160,249257,1,0
96,160,249500,1,0
96,160,249625,1,0
160,160,249875,1,0
160,160,250125,1,0
160,160,250250,1,0
160,160,250375,1,0
224,160,250625,5,0
224,96,251485,1,0
352,96,251999,5,0
256,192,252728,1,0
160,288,253499,1,0
256,192,254228,1,0
256,32,254999,1,0
256,64,255171,1,0
256,96,255342,1,0
256,128,255514,1,0
224,160,255685,1,0
192,192,255814,1,0
160,224,255985,1,0
128,224,256157,1,0
96,192,256328,1,0
96,320,257000,6,2,B|288:320,2,186.666666666667
384,192,261125,1,2
384,192,261500,1,2
128,192,261985,1,2
128,192,262375,1,2
128,64,262757,6,2,B|256:64,4,116.666666666667
160,64,266485,5,2
192,64,266875,1,2
224,224,267257,1,2
192,224,267625,1,2
192,352,267985,1,2
224,352,268375,1,2
288,160,268757,5,2
288,160,269000,1,0
288,160,269250,1,0
288,160,269500,1,0
288,160,269750,1,0
352,128,270000,1,0
384,160,270257,1,2
352,160,270500,5,0
352,160,270750,1,0
352,160,271000,1,0
352,160,271250,1,0
288,128,271500,1,0
224,160,271757,1,2
224,160,272000,1,0
224,160,272250,1,0
224,160,272500,1,0
224,160,272750,1,0
224,64,273000,5,0
256,64,273171,1,2
256,64,273342,1,2
256,96,273514,1,2
256,96,273685,1,2
256,128,273814,1,2
256,128,273985,1,2
256,160,274157,1,2
256,192,274328,1,2
256,224,274499,1,2
256,256,274671,1,2
96,192,275014,5,2
96,192,275250,1,0
96,192,275500,1,0
96,192,275750,1,0
96,160,276000,1,0
96,192,276166,1,0
96,192,276500,1,0
96,192,276750,1,0
96,192,277000,1,0
96,192,277250,1,0
128,160,277500,1,0
96,192,277671,1,2
256,32,278750,1,2
256,64,278999,5,0
256,64,279171,1,0
256,96,279342,1,0
256,96,279514,1,0
256,128,279685,1,0
256,128,279814,1,0
256,160,279985,1,0
256,192,280157,1,0
256,224,280328,1,0
256,256,280499,1,0
256,288,280671,1,0
224,288,280875,5,0
224,288,281125,1,0
192,288,281375,1,0
192,288,281625,1,0
192,256,281875,1,0
192,256,282000,1,0
224,224,282125,1,0
224,192,282375,1,0
224,224,282625,1,0
224,224,282875,1,0
224,192,283125,1,0
224,160,283250,1,0
224,128,283375,1,0
224,96,283500,1,0
192,96,283625,1,0
224,32,284500,5,0
256,32,284828,1,0
256,32,284999,1,0
256,64,285171,1,0
256,64,285342,1,0
256,96,285514,1,0
256,96,285685,1,0
256,128,285814,1,0
256,160,285985,1,0
256,192,286157,1,0
256,224,286328,1,0
256,256,286499,1,0
256,288,286671,1,0
352,288,287014,5,0
352,288,287185,1,0
352,256,287314,1,0
352,256,287485,1,0
352,224,287657,1,0
352,224,287828,1,0
352,192,287999,1,0
352,160,288171,1,0
352,64,288685,1,0
352,64,288814,1,0
320,64,288985,1,0
320,64,289157,1,0
288,64,289328,1,0
288,64,289499,1,0
256,64,289671,1,0
224,160,290185,5,0
224,160,290314,1,0
256,160,290485,1,0
256,160,290657,1,0
288,160,290828,1,0
288,160,290999,1,0
320,160,291171,1,0
320,256,291514,1,0
320,256,291685,1,0
288,256,291814,1,0
288,256,291985,1,0
256,256,292157,1,0
256,256,292328,1,0
224,256,292499,1,0
256,192,293014,12,0,298847
256,192,299014,12,0,304680
256,192,305014,12,0,309347
160,224,318000,5,0
160,224,318125,1,0
160,224,318250,1,0
192,224,318375,1,0
160,224,318500,1,0
352,224,319500,1,0
352,224,319625,1,0
352,224,319750,1,0
352,192,319875,1,0
352,224,320000,1,0
128,160,320875,5,0
128,160,321000,1,0
128,160,321125,1,0
160,160,321250,1,0
128,160,321375,1,0
224,192,321875,1,0
224,192,322000,1,0
224,192,322125,1,0
288,256,322625,1,0
288,256,322750,1,0
256,256,322875,1,0
224,256,323000,2,0,B|160:256,1,46.6666666666667
160,160,323875,5,0
160,160,324000,1,0
160,160,324125,1,0
160,160,324250,1,0
160,128,324375,1,0
160,96,324750,1,0
160,128,324875,1,0
160,160,325000,1,0
160,224,325375,1,0
160,160,325500,1,0
160,224,325666,1,0
160,224,325833,1,0
320,224,327000,5,0
320,224,327125,1,0
320,224,327250,1,0
384,224,327375,1,0
384,224,327500,1,0
352,224,327625,1,0
352,224,327750,1,0
352,192,327875,5,0
352,192,328000,1,0
352,224,328250,1,0
352,256,328375,1,0
352,288,328625,2,0,B|288:288,1,46.6666666666667
160,96,329625,5,0
160,128,329750,1,0
160,160,329875,1,0
160,192,330000,2,0,B|224:192,1,46.6666666666667
352,96,331000,1,0
352,128,331166,1,0
352,160,331333,1,0
352,192,331500,1,0
320,192,331666,1,0
320,224,331833,1,0
320,256,332000,1,0
288,256,332166,1,0
288,320,332375,5,0
256,320,332625,1,0
224,320,332750,1,0
192,320,332875,1,0
192,320,333125,1,0
160,320,333333,1,0
128,320,333500,1,0
128,288,333666,1,0
128,256,333833,1,0
128,224,334000,1,0
128,192,334166,1,0
128,160,334333,1,0
128,128,334500,1,0
256,192,336833,5,0
256,192,337000,1,0
256,192,337125,1,0
352,192,337333,1,0
320,192,337500,1,0
384,96,339666,5,0
384,96,339833,1,0
384,96,340000,1,0
320,96,340250,1,0
352,96,340375,1,0
288,96,340750,1,0
288,96,341000,1,0
288,128,341166,1,0
288,160,341522,1,0
288,160,341661,1,0
288,224,341833,1,0
288,224,342000,1,0
352,224,342611,5,0
352,224,342736,1,0
352,160,342861,1,0
352,160,342986,1,0
352,96,343125,5,0
320,96,343339,1,0
288,96,343500,1,0
256,96,344250,5,0
256,128,344375,1,0
256,160,344500,1,0
256,160,344625,1,0
224,160,344757,1,0
256,160,344875,1,0
256,160,345014,1,0
384,64,346000,1,0
288,32,346250,1,0
192,32,346522,1,0
224,128,346779,1,0
128,96,346993,1,0
128,192,347250,1,0
192,256,347507,1,0
288,256,347764,1,0
352,192,348022,1,0
384,96,348279,1,0
288,64,348493,1,0
192,64,348750,1,0
96,96,349007,1,0
256,192,422625,5,0
256,128,422750,1,0
384,192,423500,1,0
384,160,423666,1,0
96,192,424375,1,0
96,128,424625,1,0
224,192,425250,1,0
224,160,425500,1,0
224,64,425750,5,0
224,96,426166,1,0
224,128,426666,1,0
224,160,427125,1,0
224,192,427500,1,0
224,224,427875,1,0
224,256,428375,1,0
224,288,428750,1,0
256,192,429000,12,6,433500
128,288,434166,5,0
128,256,434333,1,0
288,288,435000,1,0
288,256,435166,1,0
160,160,436000,1,0
160,192,436166,1,0
320,160,436833,1,0
320,192,437000,1,0
256,192,437333,12,6,440333
64,128,440375,6,0,B|192:128,1,116.666666666667
64,160,441500,2,0,B|192:160,4,116.666666666667
64,192,445125,5,0
64,128,445333,1,0
96,192,445666,1,0
128,192,445833,1,0
160,192,446000,1,0
192,192,446333,1,0
192,128,446750,1,0
224,192,447000,1,0
256,192,447250,1,0
256,128,447500,1,0
288,192,447750,1,0
320,192,448000,1,0
320,128,448250,1,0
256,128,448500,6,0,B|384:128,3,116.666666666667
256,192,451500,12,4,455000
224,64,456125,5,0
64,64,457750,2,0,B|352:64,1,280
