osu file format v6

[General]
AudioFilename: Guillaume Tell - MC F 40 (Rossini).mp3
AudioLeadIn: 0
PreviewTime: 28740
Countdown: 1
SampleSet: Normal
StackLeniency: 0.7
Mode: 0
LetterboxInBreaks: 1

[Editor]
DistanceSpacing: 1
BeatDivisor: 4
GridSize: 8

[Metadata]
Title:Guillaume Tell
Artist:Rossini & MC F 40
Creator:Sushi971
Version:Standard
Source:Dance Dance Revolution
Tags:

[Difficulty]
HPDrainRate:6
CircleSize:4
OverallDifficulty:7
SliderMultiplier:1.4
SliderTickRate:1

[Events]
//Background and Video events
0,0,"Guillaume Tell - MC F 40 (Rossini) BG.PNG"
//Break Periods
//Storyboard Layer 0 (Background)
//Storyboard Layer 1 (Fail)
//Storyboard Layer 2 (Pass)
//Storyboard Layer 3 (Foreground)
//Storyboard Sound Samples
//Background Colour Transformations
3,100,163,162,255

[TimingPoints]
907,333.333333333333,4,1,0,79,1,0
93323,-100,4,2,0,79,0,0
94657,-100,4,1,0,79,0,0
97406,-100,4,2,0,79,0,0
98073,-100,4,1,0,79,0,0
112740,-200,4,1,0,79,0,0
113490,-200,4,1,0,0,0,0

[Colours]
Combo1 : 0,255,0
Combo2 : 0,128,255
Combo3 : 255,255,0
Combo4 : 255,0,0

[HitObjects]
24,128,6240,1,4
160,128,6573,1,0
296,128,6906,1,0
440,128,7240,1,8
496,256,7573,1,0
360,256,7906,1,0
216,256,8240,1,0
80,256,8573,1,8
80,120,8906,5,0
184,24,9240,2,0,B|336:24,3,140,0|0|8|0
464,24,10573,2,0,B|464:184,2,140,0|0|8
352,112,11573,5,4
216,112,11906,1,0
336,184,12240,1,2
200,184,12573,1,2
320,256,12906,1,0
176,256,13240,1,0
272,152,13573,1,2
248,288,13906,1,2
104,288,14240,6,0,B|24:288,3,70
72,232,14906,2,0,B|160:232,3,70,2|0|2|0
96,176,15573,2,0,B|16:176,1,70
72,120,15906,2,0,B|144:120,1,70
216,120,16240,1,2
288,120,16406,1,0
360,120,16573,1,2
432,120,16740,1,2
432,248,16906,5,4
288,248,17240,1,8
216,248,17406,2,0,B|216:304,2,35
72,248,17906,1,8
72,176,18073,2,0,B|16:176,2,35,0|0|0
72,104,18406,1,0
144,104,18573,1,8
216,104,18740,1,0
288,104,18906,2,0,B|384:104,3,70,4|4|4|0
360,176,19573,6,0,B|416:256,1,70
328,232,19906,2,0,B|272:312,1,70,8|0
360,296,20240,2,0,B|416:376,3,70,4|4|4|0
328,352,20906,2,0,B|176:352,1,140,0|8
48,352,21573,1,4
48,280,21740,1,4
48,208,21906,1,4
48,64,22240,6,0,B|144:64,1,70
152,128,22573,2,0,B|232:128,1,70,8|0
256,192,22906,2,0,B|352:192,3,70,0|0|8|0
400,192,23573,1,0
472,192,23740,1,0
496,128,23906,1,8
424,128,24073,1,0
400,64,24240,1,0
472,64,24406,2,0,B|472:-8,2,70,0|8|0
328,64,24906,5,0
256,64,25073,2,0,B|256:24,2,35,0|0|2
184,64,25406,1,0
112,64,25573,1,0
40,64,25740,2,0,B|8:32,2,35,0|0|2
40,136,26073,1,0
40,208,26240,1,0
40,280,26406,2,0,B|0:320,2,35,0|0|2
112,280,26740,1,0
184,280,26906,1,2
256,280,27073,2,0,B|256:344,2,35,0|0|2
256,208,27406,1,0
256,208,27573,12,4,28573
112,192,28906,5,0
256,192,29240,1,8
256,328,29573,1,0
256,328,29740,1,0
256,328,29906,1,8
400,328,30240,5,0
400,192,30573,1,8
400,56,30906,1,0
328,56,31073,1,0
256,56,31240,1,8
120,56,31573,5,0
208,168,31906,1,8
80,112,32240,1,0
80,184,32406,1,0
80,256,32573,1,8
208,312,32906,6,2,B|424:312,1,210
418,241,33573,1,4
418,169,33740,1,4
418,97,33906,1,4
280,96,34073,6,0,B|240:56,2,35
280,168,34406,2,0,B|248:200,2,35,0|0|8
352,168,34740,1,0
352,240,34906,1,0
352,312,35073,1,0
280,312,35240,1,8
208,312,35406,6,0,B|208:368,2,35,0|0|0
160,264,35740,2,0,B|160:208,2,35,0|0|8
88,264,36073,1,0
88,192,36240,1,0
88,120,36406,1,0
88,48,36573,1,8
160,48,36740,6,0,B|160:8,2,35
232,48,37073,2,0,B|232:0,2,35,0|0|8
304,48,37406,1,0
304,120,37573,1,0
232,120,37740,1,0
160,120,37906,1,8
160,192,38073,5,0
160,192,38156,1,0
160,192,38240,2,2,B|160:320|312:320,1,210
296,248,38906,1,4
368,248,39073,1,4
440,248,39240,1,4
440,176,39406,5,0
440,112,39573,2,0,B|440:16,1,70
368,40,39906,2,0,B|368:136,1,70,8|0
296,112,40240,2,0,B|296:32,2,70,0|0|8
224,112,40740,2,0,B|224:32,1,70,0|8
152,40,41073,2,0,B|152:120,1,70,0|8
152,184,41406,1,0
224,184,41573,1,2
224,184,41740,1,2
224,184,41906,1,2
224,256,42073,5,0
224,256,42240,2,0,B|320:256,3,70,0|0|8|0
360,256,42906,2,0,B|464:256,1,70
464,192,43240,2,0,B|368:192,1,70,8|0
360,128,43573,2,0,B|432:128,1,70,8|0
464,64,43906,1,8
392,64,44073,1,0
464,64,44240,2,2,B|464:160,2,70
392,64,44740,5,0
328,64,44906,1,0
256,64,45073,1,0
184,64,45240,1,8
184,136,45406,1,0
184,208,45572,2,0,B|128:264,1,70
184,312,45906,2,0,B|240:368,3,70,8|0|8|0
304,360,46573,1,8
376,360,46740,1,0
376,288,46906,1,2
304,288,47073,1,2
304,216,47240,1,2
304,144,47406,6,0,B|304:88,2,35
232,144,47740,2,0,B|232:96,2,35,0|0|8
160,144,48073,2,0,B|160:104,2,35
160,216,48406,1,0
88,216,48573,1,8
128,272,48740,1,0
56,272,48906,1,8
96,328,49073,1,0
24,328,49240,1,8
96,328,49406,1,0
168,328,49573,2,0,B|328:328,1,140,4|0
376,328,50073,5,0
424,280,50240,2,0,B|512:280,2,70
376,224,50740,1,0
424,176,50906,1,8
376,120,51073,1,0
240,120,51406,1,0
240,120,51573,1,8
240,120,51740,1,0
240,256,52073,1,0
240,256,52240,2,0,B|240:344,2,70,8|4|4
240,184,52740,5,0
240,184,52906,1,0
96,184,53240,1,0
96,48,53573,1,0
240,48,53906,1,0
256,208,54240,12,4,55240
456,192,55573,5,0
328,144,55906,1,8
456,192,56240,1,0
392,168,56406,1,0
328,144,56573,1,8
192,192,56906,2,0,B|120:136|32:136,1,140,0|8
192,192,57573,1,0
192,264,57740,1,0
120,264,57906,1,8
264,264,58240,5,0
400,264,58573,1,8
264,264,58906,1,0
336,264,59073,1,0
299,204,59240,1,8
299,134,59406,1,0
299,64,59573,2,2,B|59:64,1,210
16,64,60240,1,4
16,64,60406,1,4
16,64,60573,1,4
16,136,60740,6,0,B|64:136,2,35
16,208,61073,2,0,B|16:264,2,35,0|0|8
88,208,61406,1,0
160,208,61573,1,0
232,208,61740,1,0
304,208,61906,1,8
376,208,62073,6,0,B|416:256,2,35
432,160,62406,2,0,B|472:208,2,35,0|0|8
384,104,62740,2,0,B|344:56,2,35,0|0|0
312,104,63073,1,0
240,104,63240,1,8
168,104,63406,5,0
168,104,63490,1,0
168,104,63573,1,0
96,104,63740,1,0
96,104,63823,1,0
96,104,63906,1,8
24,104,64073,1,0
24,104,64156,1,0
24,104,64240,1,0
24,176,64406,1,0
24,248,64573,1,8
24,320,64740,5,0
24,320,64823,1,0
24,320,64906,2,2,B|256:320,1,210
304,320,65573,1,4
304,320,65740,1,4
304,320,65906,1,4
368,192,66240,6,0,B|456:192,3,70,0|0|8|8
438,192,66906,2,2,B|472:136|448:48|328:48,1,210
272,48,67573,1,0
200,56,67740,1,0
136,88,67906,1,8
112,152,68073,1,0
104,224,68240,6,0,B|104:296,3,70,0|0|8|0
104,368,68906,2,0,B|200:368,3,70,0|0|8|0
248,368,69573,2,0,B|248:288,3,70,0|0|8|0
248,224,70240,2,0,B|144:224,3,70,0|0|8|0
104,224,70906,1,8
104,224,71073,1,8
104,224,71240,1,4
168,96,71573,5,0
240,96,71740,1,0
312,96,71906,1,8
384,96,72073,1,0
456,96,72240,2,2,B|456:200|320:272,1,210
280,288,72906,2,0,B|192:328,1,70
144,336,73240,2,0,B|56:336,1,70,8|0
32,280,73573,6,0,B|24:240,4,35,0|0|0|0|8
104,264,74073,1,0
176,248,74240,2,0,B|168:208,4,35,0|0|0|0|8
248,232,74740,1,0
320,216,74906,5,0
320,216,74990,1,0
320,216,75073,1,0
320,216,75156,1,0
320,216,75240,1,8
392,200,75406,1,0
464,184,75573,5,0
432,120,75740,1,0
376,80,75906,1,8
304,72,76073,1,0
256,120,76240,1,8
256,120,76406,1,4
256,120,76573,1,8
256,208,76906,12,0,78240
256,312,78573,5,2
152,132,78906,1,2
359,132,79240,1,2
256,208,79573,12,0,80906
256,72,81240,5,2
359,252,81573,1,2
152,252,81907,1,2
48,160,82240,5,4
96,24,82573,1,0
48,160,82906,1,0
160,72,83240,1,0
464,224,83573,5,4
416,360,83906,1,0
464,224,84239,1,0
352,312,84573,1,0
256,192,84906,6,4,B|256:288,4,70
256,8,85906,1,8
256,192,86240,6,4,B|352:192,4,70
72,192,87240,1,8
256,192,87573,6,4,B|256:96,4,70
256,376,88573,1,8
256,192,88906,6,4,B|160:192,4,70
440,192,89906,1,8
432,48,90240,6,0,B|368:112,3,70
336,48,90906,1,2
288,96,91073,1,0
240,144,91240,1,2
192,192,91406,1,0
144,144,91573,6,0,B|88:200,3,70,0|0|0|0
144,240,92240,1,2
216,240,92406,1,0
288,240,92573,1,2
360,240,92740,1,0
432,240,92906,2,0,B|472:240,4,35
432,168,93406,6,0,B|488:168,2,35,2|2|2
432,96,93740,2,0,B|480:96,2,35,2|2|2
432,24,94073,2,2,B|480:24,2,35,0|0|2
360,24,94407,1,2
288,24,94573,1,2
216,24,94740,5,0
216,24,94823,1,0
216,24,94906,1,0
216,96,95073,1,0
216,96,95156,1,0
216,96,95240,1,0
144,96,95406,1,0
144,96,95490,1,0
144,96,95573,5,0
144,168,95740,1,0
144,240,95906,1,4
395,143,96240,5,0
332,107,96407,1,0
270,71,96573,1,4
228,336,96906,5,0
291,300,97073,1,0
353,264,97239,1,4
256,192,97573,5,2
256,192,97906,1,2
256,208,98240,12,4,99240
64,328,99573,6,0,B|16:272,1,70
88,272,99906,2,0,B|56:192,1,70,8|0
128,224,100240,2,0,B|120:144,1,70
184,192,100573,2,0,B|192:120,1,70,8|0
248,168,100906,2,0,B|264:96,1,70
312,152,101240,2,0,B|344:88,1,70,8|0
384,152,101573,2,0,B|440:88,1,70
448,168,101906,2,0,B|512:120,1,70,8|0
488,232,102239,5,0
416,232,102406,1,0
344,232,102572,1,8
272,232,102739,1,0
200,232,102906,1,0
128,232,103073,2,0,B|88:232,6,35,0|0|2|0|0|0|2
128,160,103740,5,0
200,160,103906,1,8
272,160,104073,1,0
344,160,104240,1,0
416,160,104406,2,0,B|416:112,6,35,0|0|2|0|0|0|2
488,160,105073,5,0
488,232,105240,1,8
488,304,105406,1,0
416,304,105573,1,0
344,304,105740,2,0,B|344:360,6,35,0|0|2|0|0|0|2
344,232,106406,5,0
344,160,106573,1,8
344,88,106740,1,0
272,88,106906,1,0
200,88,107073,2,0,B|136:88,6,35,0|0|2|0|0|0|2
200,160,107740,5,0
200,232,107906,2,0,B|200:320,2,70,0|0|8
128,232,108406,1,0
56,232,108573,2,0,B|-16:232,2,70,0|0|8
56,160,109073,1,0
56,88,109240,2,0,B|56:0,2,70,0|0|8
128,88,109740,1,0
200,88,109906,2,0,B|272:88,2,70,0|0|8
256,288,110740,5,0
256,288,110823,1,0
256,288,110906,1,0
192,176,111073,1,0
320,176,111240,1,0
256,64,111406,1,0
256,64,111573,1,0
456,192,112156,5,4
456,192,112239,1,4
56,192,112823,5,4
56,192,112906,2,4,B|200:192,1,140
