osu file format v14

[General]
AudioFilename: This game.mp3
AudioLeadIn: 0
PreviewTime: 86453
Countdown: 0
SampleSet: Soft
StackLeniency: 0.7
Mode: 0
LetterboxInBreaks: 0
WidescreenStoryboard: 0

[Editor]
Bookmarks: 26147,45330,65636,71861,81657,106147
DistanceSpacing: 1
BeatDivisor: 2
GridSize: 32
TimelineZoom: 2.400005

[Metadata]
Title:This game
TitleUnicode:This game
Artist:Roselia
ArtistUnicode:Roselia
Creator:-Aqua
Version:Collab Easy
Source:バンドリ! ガールズバンドパーティ!
Tags:BanG Dream! Bandori! Girls Band Party! ガルパ Garupa cover insert song Bandori project Girl Party Garupa! Rozeria ロゼリア Minato Yukina 湊友希那 Hikawa Sayo 氷川紗夜 Imai Lisa 今井リサ Udagawa Ako 宇田川あこ Shirokane Rinko 白金燐子 Aiba Aina Aiai 相羽あいな Kudō Haruka Kudo Kudou Kudoharu Kdhr Fries 工藤晴香 Endō Yurika Endo Endou Yurishii 遠藤ゆりか Sakuragawa Megu 桜川めぐ Akesaka Satomi Akeko 明坂聡美 Suzuki Konomi 鈴木このみ No Game No Life ノーゲーム・ノーライフ NGNL nextplay My Angel Kanan My_Angel_Kanan Lulu- Lulu newton- newton newqua domSaur Xidorn ailv aliv alvi _Meep_ Meep scanter Naotoshi Nao Tomori Lasse Naosse Ayyri eiri- Xetopia Raveille Rave Crowley
BeatmapID:1612058
BeatmapSetID:749557

[Difficulty]
HPDrainRate:2
CircleSize:2
OverallDifficulty:2
ApproachRate:3
SliderMultiplier:0.999999999999999
SliderTickRate:1

[Events]
//Background and Video events
0,0,"Sayo best girl fight me.jpg",0,0
//Break Periods
2,32881,37156
//Storyboard Layer 0 (Background)
//Storyboard Layer 1 (Fail)
//Storyboard Layer 2 (Pass)
//Storyboard Layer 3 (Foreground)
//Storyboard Sound Samples

[TimingPoints]
3290,408.163265306122,4,2,1,30,1,0
3290,-100,4,2,1,30,0,0
9004,-100,4,2,1,30,0,0
9412,-100,4,2,1,5,0,0
9616,-100,4,2,1,30,0,0
9820,-100,4,2,1,40,0,0
10432,-100,4,2,1,35,0,0
10636,-100,4,2,1,25,0,0
11045,-100,4,2,1,35,0,0
11249,-100,4,2,1,35,0,0
11453,-100,4,2,1,55,0,0
11657,-100,4,2,1,35,0,0
11861,-100,4,2,1,45,0,0
12065,-100,4,2,1,35,0,0
12269,-100,4,2,1,50,0,0
13085,-100,4,2,1,40,0,0
13902,-100,4,2,1,40,0,0
14718,-100,4,2,1,45,0,0
15534,-100,4,2,1,60,0,0
15738,-100,4,2,1,40,0,0
15943,-100,4,2,1,50,0,0
16351,-100,4,2,1,40,0,0
23800,-100,4,2,1,5,0,0
23902,-100,4,2,1,40,0,0
26147,-100,4,2,1,30,0,0
26759,-100,4,2,1,35,0,0
27371,-100,4,2,1,40,0,0
27779,-100,4,2,1,45,0,0
28085,-100,4,2,1,5,0,0
28187,-100,4,2,1,50,0,0
28494,-100,4,2,1,5,0,0
28596,-100,4,2,1,55,0,0
28902,-100,4,2,1,5,0,0
29004,-100,4,2,1,60,0,0
29310,-100,4,2,1,5,0,0
29412,-100,4,2,1,65,0,0
30024,-100,4,2,1,40,0,0
30432,-100,4,2,1,30,0,0
30636,-100,4,2,1,50,0,0
30841,-100,4,2,1,20,0,0
31045,-100,4,2,1,70,0,0
31555,-100,4,2,1,5,0,0
31657,-100,4,2,1,40,0,0
31861,-100,4,2,1,50,0,0
32065,-100,4,2,1,60,0,0
32269,-100,4,2,1,70,0,0
32473,-100,4,2,1,80,0,0
32677,-100,4,2,1,90,0,0
38596,-100,4,2,2,55,0,0
38800,-100,4,2,1,60,0,0
39004,-100,4,2,1,65,0,0
39208,-100,4,2,2,70,0,1
40126,-100,4,2,2,5,0,1
40228,-100,4,2,2,70,0,1
41759,-100,4,2,2,5,0,1
41861,-100,4,2,2,70,0,1
43392,-100,4,2,2,5,0,1
43494,-100,4,2,2,70,0,1
44106,-100,4,2,2,70,0,1
45024,-100,4,2,2,5,0,1
45126,-100,4,2,2,70,0,1
45330,-100,4,2,2,70,0,0
46351,-100,4,2,2,45,0,0
46657,-100,4,2,2,5,0,0
46759,-100,4,2,2,45,0,0
47371,-100,4,2,2,50,0,0
50636,-100,4,2,2,60,0,0
50841,-100,4,2,2,5,0,0
50943,-100,4,2,2,60,0,0
51147,-100,4,2,2,5,0,0
51249,-100,4,2,2,80,0,0
51555,-100,4,2,2,5,0,0
51657,-100,4,2,2,60,0,0
51861,-100,4,2,2,50,0,0
52065,-100,4,2,2,55,0,0
52269,-100,4,2,2,60,0,0
55534,-100,4,2,2,60,0,0
56045,-100,4,2,2,5,0,0
56147,-100,4,2,2,60,0,0
57167,-100,4,2,1,55,0,0
57371,-100,4,2,1,5,0,0
57473,-100,4,2,1,55,0,0
57677,-100,4,2,1,5,0,0
57779,-100,4,2,1,55,0,0
57983,-100,4,2,1,5,0,0
58085,-100,4,2,1,55,0,0
58289,-100,4,2,1,5,0,0
58392,-100,4,2,1,55,0,0
58698,-100,4,2,0,5,0,0
58800,-100,4,2,2,70,0,1
58902,-100,4,2,2,5,0,0
59004,-100,4,2,2,50,0,0
59106,-100,4,2,2,5,0,0
59208,-100,4,2,2,80,0,0
59310,-100,4,2,2,5,0,0
59412,-100,4,2,2,50,0,0
59514,-100,4,2,2,55,0,0
59718,-100,4,2,2,55,0,0
59922,-100,4,2,2,50,0,0
60024,-100,4,2,2,80,0,0
60126,-100,4,2,2,5,0,0
60228,-100,4,2,2,80,0,0
60330,-100,4,2,2,5,0,0
60432,-100,4,2,2,70,0,0
60534,-100,4,2,2,5,0,0
60636,-100,4,2,2,50,0,0
60738,-100,4,2,2,5,0,0
60841,-100,4,2,2,80,0,0
60943,-100,4,2,2,5,0,0
61045,-100,4,2,2,50,0,0
61147,-100,4,2,2,55,0,0
61351,-100,4,2,2,55,0,0
61555,-100,4,2,2,50,0,0
61657,-100,4,2,2,80,0,0
61759,-100,4,2,2,5,0,0
61861,-100,4,2,2,80,0,0
61963,-100,4,2,2,5,0,0
62065,-100,4,2,2,70,0,0
62167,-100,4,2,2,5,0,0
62269,-100,4,2,2,50,0,0
62371,-100,4,2,2,5,0,0
62473,-100,4,2,2,80,0,0
62575,-100,4,2,2,5,0,0
62677,-100,4,2,2,50,0,0
62779,-100,4,2,2,55,0,0
62983,-100,4,2,2,55,0,0
63187,-100,4,2,2,50,0,0
63289,-100,4,2,2,80,0,0
63392,-100,4,2,2,68,0,0
63494,-100,4,2,2,56,0,0
63596,-100,4,2,2,44,0,0
63698,-100,4,2,2,70,0,0
63800,-100,4,2,2,5,0,0
63902,-100,4,2,2,55,0,0
64004,-100,4,2,2,70,0,0
64106,-100,4,2,2,25,0,0
64208,-100,4,2,2,55,0,0
64310,-100,4,2,2,70,0,0
64412,-100,4,2,2,5,0,0
64514,-100,4,2,2,55,0,0
64616,-100,4,2,2,80,0,0
64718,-100,4,2,2,25,0,0
64820,-100,4,2,2,55,0,0
65024,-100,4,2,2,5,0,0
65126,-100,4,2,2,75,0,0
65330,-100,4,2,2,70,0,1
65432,-100,4,2,2,5,0,0
65534,-100,4,2,2,50,0,0
65636,-100,4,2,2,5,0,0
65738,-100,4,2,2,80,0,0
65841,-100,4,2,2,5,0,0
65943,-100,4,2,2,50,0,0
66045,-100,4,2,2,55,0,0
66249,-100,4,2,2,55,0,0
66453,-100,4,2,2,50,0,0
66555,-100,4,2,2,80,0,0
66657,-100,4,2,2,5,0,0
66759,-100,4,2,2,80,0,0
66861,-100,4,2,2,5,0,0
66963,-100,4,2,2,70,0,0
67065,-100,4,2,2,75,0,0
67167,-100,4,2,2,50,0,0
67269,-100,4,2,2,5,0,0
67371,-100,4,2,2,80,0,0
67473,-100,4,2,2,5,0,0
67575,-100,4,2,2,50,0,0
67677,-100,4,2,2,55,0,0
67881,-100,4,2,2,55,0,0
68187,-100,4,2,2,80,0,0
68289,-100,4,2,2,5,0,0
68392,-100,4,2,2,80,0,0
68494,-100,4,2,2,5,0,0
68596,-100,4,2,2,70,0,0
68698,-100,4,2,2,5,0,0
68800,-100,4,2,2,50,0,0
68902,-100,4,2,2,5,0,0
69004,-100,4,2,2,80,0,0
69106,-100,4,2,2,5,0,0
69208,-100,4,2,2,50,0,0
69310,-100,4,2,2,55,0,0
69514,-100,4,2,2,55,0,0
69718,-100,4,2,2,50,0,0
69820,-100,4,2,2,80,0,0
69922,-100,4,2,2,40,0,0
70024,-100,4,2,2,60,0,0
70228,-100,4,2,2,65,0,0
71045,-100,4,2,2,55,0,0
71453,-100,4,2,2,45,0,0
71861,-100,4,2,2,60,0,0
73085,-100,4,2,2,80,0,0
73289,-100,4,2,2,60,0,0
74514,-100,4,2,2,5,0,0
74616,-100,4,2,2,60,0,0
74820,-100,4,2,2,5,0,0
74922,-100,4,2,2,60,0,0
75024,-100,4,2,2,5,0,0
75126,-100,4,2,2,60,0,0
75943,-100,4,2,11,60,0,0
76351,-100,4,2,11,60,0,0
76453,-100,4,2,11,63,0,0
76555,-100,4,2,11,69,0,0
76759,-100,4,2,11,80,0,0
76861,-100,4,2,11,76,0,0
76963,-100,4,2,11,73,0,0
77065,-100,4,2,11,70,0,0
77167,-100,4,2,11,50,0,0
77269,-100,4,2,11,46,0,0
77371,-100,4,2,11,43,0,0
77473,-100,4,2,11,40,0,0
77575,-100,4,2,2,60,0,0
78392,-100,4,2,2,70,0,0
79208,-100,4,2,1,75,0,0
79259,-100,4,2,1,73,0,0
79310,-100,4,2,1,71,0,0
79361,-100,4,2,1,69,0,0
79412,-100,4,2,1,67,0,0
79463,-100,4,2,1,65,0,0
79514,-100,4,2,1,63,0,0
79565,-100,4,2,1,61,0,0
79616,-100,4,2,2,60,0,0
80024,-100,4,2,2,70,0,0
80534,-100,4,2,2,5,0,0
80636,-100,4,2,2,70,0,0
80841,-100,4,2,1,70,0,0
81249,-100,4,2,2,70,0,0
81351,-100,4,2,1,70,0,0
81453,-100,4,2,2,70,0,0
81555,-100,4,2,2,5,0,0
81657,-100,4,2,2,60,0,0
81861,-100,4,2,2,50,0,0
82065,-100,4,2,2,65,0,0
82269,-100,4,2,2,55,0,0
82473,-100,4,2,2,70,0,0
82677,-100,4,2,2,60,0,0
82881,-100,4,2,2,75,0,0
83085,-100,4,2,2,65,0,0
83289,-100,4,2,2,60,0,0
83494,-100,4,2,2,5,0,0
83596,-100,4,2,2,70,0,0
83800,-100,4,2,2,5,0,0
83902,-100,4,2,2,65,0,0
84004,-100,4,2,2,5,0,0
84106,-100,4,2,2,75,0,0
84208,-100,4,2,2,5,0,0
84310,-100,4,2,2,45,0,0
84514,-100,4,2,2,65,0,0
84718,-100,4,2,2,85,0,0
84922,-100,4,2,2,65,0,0
85126,-100,4,2,2,5,0,0
85228,-100,4,2,2,70,0,0
85432,-100,4,2,2,5,0,0
85534,-100,4,2,2,85,0,0
85841,-100,4,2,2,5,0,0
85943,-100,4,2,2,45,0,0
86045,-100,4,2,2,5,0,0
86147,-100,4,2,2,50,0,0
86249,-100,4,2,2,53,0,0
86351,-100,4,2,2,56,0,0
86453,-100,4,2,2,59,0,0
86555,-100,4,2,3,60,0,1
86861,-100,4,2,2,5,0,1
86963,-100,4,2,4,80,0,1
92269,-100,4,2,2,70,0,1
92473,-100,4,2,4,60,0,1
92677,-100,4,2,2,50,0,1
92881,-100,4,2,4,65,0,1
93085,-100,4,2,2,80,0,0
93902,-100,4,2,2,80,0,0
94106,-100,4,2,4,80,0,0
94208,-100,4,2,2,5,0,0
94310,-100,4,2,2,80,0,0
94514,-100,4,2,4,80,0,0
94616,-100,4,2,2,80,0,0
94922,-100,4,2,4,80,0,0
95534,-100,4,2,2,80,0,0
95738,-100,4,2,4,80,0,0
95841,-100,4,2,2,5,0,0
95943,-100,4,2,2,80,0,0
96147,-100,4,2,4,80,0,0
96351,-100,4,2,2,75,0,1
96453,-100,4,2,2,15,0,1
96555,-100,4,2,2,25,0,1
96657,-100,4,2,2,35,0,1
96759,-100,4,2,2,45,0,1
96861,-100,4,2,2,55,0,1
96963,-100,4,2,2,65,0,1
97065,-100,4,2,2,75,0,1
97167,-100,4,2,2,90,0,1
97371,-100,4,2,2,70,0,1
97473,-100,4,2,2,70,0,1
97575,-100,4,2,2,70,0,1
97677,-100,4,2,2,70,0,1
97779,-100,4,2,2,70,0,1
97983,-100,4,2,2,75,0,1
98187,-100,4,2,2,5,0,1
98289,-100,4,2,2,75,0,1
98494,-100,4,2,2,5,0,1
98596,-100,4,2,2,80,0,1
98800,-100,4,2,2,85,0,1
98902,-100,4,2,2,75,0,1
99004,-100,4,2,2,65,0,1
99106,-100,4,2,2,55,0,1
99208,-100,4,2,2,85,0,1
99514,-100,4,2,2,5,0,0
99616,-100,4,2,3,60,0,1
99922,-100,4,2,2,5,0,1
100024,-100,4,2,4,80,0,1
104514,-100,4,2,2,80,0,1
104616,-100,4,2,2,5,0,1
104718,-100,4,2,2,45,0,1
104820,-100,4,2,2,55,0,1
104922,-100,4,2,2,65,0,1
105024,-100,4,2,2,75,0,1
105126,-100,4,2,2,85,0,1
105330,-100,4,2,2,5,0,1
105432,-100,4,2,2,80,0,1
106147,-100,4,2,2,60,0,0
106351,-100,4,2,2,5,0,0
106453,-100,4,2,2,60,0,0
106657,-100,4,2,2,5,0,0
106759,-100,4,2,2,60,0,0
107983,-100,4,2,2,5,0,0
108085,-100,4,2,2,60,0,0
108289,-100,4,2,2,5,0,0
108392,-100,4,2,2,60,0,0
109616,-100,4,2,2,5,0,0
109718,-100,4,2,2,60,0,0
109922,-100,4,2,2,5,0,0
110024,-100,4,2,2,60,0,0
112677,-100,4,2,2,75,0,1
112881,-100,4,2,2,5,0,1
112983,-100,4,2,2,75,0,1
113902,-100,4,2,2,75,0,1
114310,-100,4,2,2,65,0,0
114718,-100,4,2,2,5,0,0
115126,-100,4,2,2,65,0,0
115943,-100,4,2,2,80,0,1
116147,-100,4,2,2,5,0,1
116249,-100,4,2,2,80,0,1
116453,-100,4,2,2,5,0,1
116555,-100,4,2,2,80,0,1
116759,-100,4,2,2,5,0,1
116861,-100,4,2,2,80,0,1
117065,-100,4,2,2,5,0,1
117167,-100,4,2,2,80,0,1
117575,-100,4,2,2,70,0,0
118289,-100,4,2,2,5,0,0
118392,-100,4,2,2,20,0,0
118596,-100,4,2,2,40,0,0
118800,-100,4,2,2,60,0,0
119004,-100,4,2,2,70,0,0
119208,-100,4,2,2,90,0,1
119310,-100,4,2,2,40,0,0
120432,-100,4,2,2,5,0,0

[Colours]
Combo1 : 170,240,233
Combo2 : 64,224,208
Combo3 : 162,168,249
Combo4 : 92,99,240

[HitObjects]
32,379,3290,6,0,P|4:311|81:206,1,200,2|2,0:0|0:0,0:0:0:0:
231,323,4922,2,0,P|291:247|265:155,1,200,2|2,0:0|0:0,0:0:0:0:
68,117,6555,2,0,L|64:8,1,99.9999999999999,2|0,0:0|0:0,0:0:0:0:
162,36,7371,2,0,L|159:135,1,99.9999999999999,2|0,0:0|0:0,0:0:0:0:
196,228,8187,2,0,B|237:237|237:237|295:237,2,99.9999999999999,2|0|2,0:0|0:0|0:0,0:0:0:0:
18,135,9820,6,0,P|3:82|114:30,1,200,2|2,0:0|0:0,0:0:0:0:
292,113,11453,2,0,P|382:116|387:26,1,200,2|2,0:0|0:0,0:0:0:0:
191,63,13085,2,0,B|181:122|181:122|199:217,1,150,2|2,0:0|0:0,0:0:0:0:
235,355,14310,1,2,0:0:0:0:
327,318,14718,2,0,B|336:258|336:258|320:170,1,150,2|2,0:0|0:0,0:0:0:0:
304,122,15534,1,2,0:0:0:0:
219,176,15943,1,2,0:0:0:0:
127,136,16351,6,0,L|130:21,1,99.9999999999999,2|0,0:0|0:0,0:0:0:0:
228,21,17167,2,0,B|332:-15|320:70|434:10,1,200,2|2,0:0|0:0,0:0:0:0:
266,143,18800,2,0,B|164:197|176:112|72:148,1,200,2|2,0:0|0:0,0:0:0:0:
3,334,20432,2,0,P|96:365|195:319,2,200,2|2|2,0:0|0:0|0:0,0:0:0:0:
93,155,22881,6,0,P|95:96|43:13,2,150,2|2|2,0:0|0:0|0:0,0:0:0:0:
63,250,24514,1,2,0:0:0:0:
212,1,26147,6,0,P|202:49|218:96,1,99.9999999999999,2|2,0:0|0:0,0:0:0:0:
267,96,26759,2,0,P|294:136|338:159,1,99.9999999999999,2|2,0:0|0:0,0:0:0:0:
373,124,27371,2,0,P|421:133|468:117,1,99.9999999999999,2|2,0:0|0:0,0:0:0:0:
414,33,28187,1,2,0:0:0:0:
319,0,28596,1,2,0:0:0:0:
243,66,29004,1,2,0:0:0:0:
263,165,29412,6,0,P|260:233|308:300,2,150,2|2|2,0:0|0:0|0:0,0:0:0:0:
168,133,31045,1,2,0:0:0:0:
256,192,31147,12,4,32677,0:1:0:0:
62,258,38596,6,0,P|52:210|68:163,1,99.9999999999999,2|2,0:0|0:0,0:0:0:0:
103,126,39208,2,0,B|146:102|146:102|244:119,1,150,12|12,0:0|0:0,0:0:0:0:
315,190,40228,2,0,P|325:238|309:285,1,99.9999999999999,2|2,0:0|0:0,0:0:0:0:
273,320,40840,2,0,B|369:288|337:352|433:320,1,150,12|12,0:0|0:0,0:0:0:0:
489,253,41861,6,0,L|477:153,1,99.9999999999999,8|2,0:3|0:0,0:0:0:0:
441,118,42473,2,0,B|377:129|377:129|349:150|349:150|286:161,1,150,12|12,0:0|0:0,0:0:0:0:
228,230,43494,2,0,B|213:278|213:278|231:325,1,99.9999999999999,2|2,0:0|0:0,0:0:0:0:
278,340,44106,2,0,P|352:334|426:345,2,150,12|12|14,0:0|0:0|0:0,0:0:0:0:
213,264,45738,6,0,B|180:287|176:325|176:325|143:299|104:315,2,150,0|4|8,0:0|0:0|0:0,0:0:0:0:
278,340,47371,6,0,L|385:330,1,99.9999999999999,2|8,0:0|0:0,0:0:0:0:
464,378,48187,2,0,P|476:330|463:283,1,99.9999999999999,0|8,0:0|0:0,0:0:0:0:
379,232,49004,1,2,0:0:0:0:
467,185,49412,1,8,0:0:0:0:
382,134,49820,2,0,L|387:70,2,50,0|2|8,0:0|0:0|0:0,0:0:0:0:
294,182,50636,6,0,B|252:186|223:165|223:165|185:140|144:151,1,150,6|6,0:0|0:0,0:0:0:0:
166,248,51657,2,0,L|170:303,1,50,2|8,0:0|0:0,0:0:0:0:
258,345,52269,6,0,B|308:368|308:368|411:359,2,150,6|0|8,0:0|0:0|0:0,0:0:0:0:
170,297,53902,2,0,L|70:305,1,99.9999999999999,2|8,0:0|0:0,0:0:0:0:
2,232,54718,2,0,P|-10:184|1:136,1,99.9999999999999,0|8,0:0|0:0,0:0:0:0:
68,62,55534,1,2,0:0:0:0:
165,82,55943,1,8,0:0:0:0:
262,102,56351,2,0,L|256:165,2,50,0|2|8,0:0|0:0|0:0,0:0:0:0:
327,27,57167,5,6,0:0:0:0:
424,45,58800,6,0,P|436:92|424:140,1,99.9999999999999,6|8,0:0|0:0,0:0:0:0:
346,203,59616,2,0,L|351:266,2,50,0|2|8,0:0|0:0|0:0,0:0:0:0:
257,151,60432,2,0,L|157:159,1,99.9999999999999,2|8,0:0|0:0,0:0:0:0:
61,190,61249,2,0,P|56:165|58:137,2,50,0|0|8,0:0|0:0|0:0,0:0:0:0:
135,259,62065,2,0,L|234:267,1,99.9999999999999,2|8,0:0|0:0,0:0:0:0:
331,298,62882,2,0,P|335:273|334:244,2,50,0|2|8,0:0|0:0|0:0,0:0:0:0:
257,367,63698,6,0,L|107:353,2,150,8|10|8,0:0|0:0|0:0,0:0:0:0:
331,298,65330,6,0,L|430:289,1,99.9999999999999,6|8,0:0|0:0,0:0:0:0:
462,194,66147,2,0,L|525:199,2,50,0|2|8,0:0|0:0|0:0,0:0:0:0:
430,98,66962,2,0,L|330:89,1,99.9999999999999,2|8,0:0|0:0,0:0:0:0:
230,102,67779,2,0,P|229:77|236:49,2,50,0|2|8,0:0|0:0|0:0,0:0:0:0:
291,183,68596,2,0,P|241:202|186:194,1,99.9999999999999,2|8,0:0|0:0,0:0:0:0:
135,120,69412,2,0,L|71:125,2,50,0|2|8,0:0|0:0|0:0,0:0:0:0:
230,102,70228,6,0,B|280:78|280:78|383:87,2,150,4|2|4,0:0|0:0|0:3,0:0:0:0:
160,174,71861,6,0,B|16:161|16:161|64:112,1,200,4|8,0:0|0:0,0:0:0:0:
120,45,73085,1,0,0:0:0:0:
218,65,73494,2,0,P|278:137|261:243,1,200,2|8,0:0|0:0,0:0:0:0:
92,338,75126,2,0,L|291:355,1,200,4|10,0:0|0:0,0:0:0:0:
384,318,76351,1,2,0:0:0:0:
470,368,76759,6,0,B|498:320|470:268|470:268|438:216|470:168,1,200,14|10,0:0|0:0,0:0:0:0:
314,45,78392,2,0,P|217:31|142:92,1,200,4|2,0:0|0:0,0:0:0:0:
103,184,79616,1,8,0:0:0:0:
164,262,80024,2,0,B|214:282|214:282|312:258|312:258|363:279,1,200,4|2,0:0|0:0,0:0:0:0:
448,307,81249,1,8,0:3:0:0:
478,212,81657,6,0,P|488:163|492:97,1,99.9999999999999,6|2,0:0|0:0,0:0:0:0:
402,68,82473,2,0,P|353:78|287:82,1,99.9999999999999,2|2,0:0|0:0,0:0:0:0:
212,123,83289,2,0,P|203:89|216:30,2,74.9999999999999,12|8|4,0:0|0:3|0:3,0:0:0:0:
228,170,84106,2,0,P|179:180|113:184,1,99.9999999999999,4|8,0:0|0:0,0:0:0:0:
66,261,84922,2,0,P|66:298|71:335,2,74.9999999999999,12|12|12,0:0|0:0|0:0,0:0:0:0:
310,333,86555,6,0,L|302:230,1,99.9999999999999,6|8,0:0|0:0,0:0:0:0:
294,133,87371,1,2,0:0:0:0:
383,177,87779,1,8,0:0:0:0:
459,112,88187,2,0,B|473:67|473:67|454:17,1,99.9999999999999,2|8,0:0|0:0,0:0:0:0:
355,34,89004,2,0,L|244:39,1,99.9999999999999,2|8,0:0|0:0,0:0:0:0:
184,108,89820,6,0,L|73:103,1,99.9999999999999,2|8,0:0|0:0,0:0:0:0:
23,183,90636,1,2,0:0:0:0:
85,261,91045,1,8,0:0:0:0:
171,210,91453,2,0,L|270:214,1,99.9999999999999,2|8,0:0|0:0,0:0:0:0:
356,266,92269,2,0,L|368:150,1,99.9999999999999,2|8,0:0|0:0,0:0:0:0:
304,88,93085,6,0,P|213:46|134:107,1,200,6|2,0:0|0:0,0:0:0:0:
102,191,94310,1,8,0:0:0:0:
166,267,94718,2,0,P|163:315|158:383,2,99.9999999999999,2|8|2,0:0|0:0|0:0,0:0:0:0:
205,174,95943,1,8,0:0:0:0:
277,105,96351,6,0,P|367:64|429:147,1,200,4|4,0:0|0:0,0:0:0:0:
467,219,97575,1,2,0:0:0:0:
419,307,97983,2,0,P|457:312|494:316,2,74.9999999999999,6|6|2,0:0|0:0|0:0,0:0:0:0:
370,295,98800,2,0,B|318:288|318:288|268:312,1,99.9999999999999,8|8,0:3|0:0,0:0:0:0:
195,368,99616,6,0,B|174:325|174:325|181:273,1,99.9999999999999,6|8,0:0|0:0,0:0:0:0:
256,206,100432,1,2,0:0:0:0:
181,139,100841,1,8,0:0:0:0:
254,71,101249,2,0,B|358:61,1,99.9999999999999,2|8,0:0|0:0,0:0:0:0:
438,115,102065,2,0,B|457:160|457:160|448:211,1,99.9999999999999,2|8,0:0|0:0,0:0:0:0:
404,300,102881,6,0,L|293:309,1,99.9999999999999,2|8,0:0|0:0,0:0:0:0:
219,254,103698,1,2,0:0:0:0:
142,318,104106,1,8,0:0:0:0:
58,262,104514,2,0,L|49:162,1,99.9999999999999,4|8,0:0|0:0,0:0:0:0:
64,114,105126,2,0,B|115:133|115:133|163:123|230:109,1,150,2|8,0:0|0:0,0:0:0:0:
297,160,106147,6,0,P|305:93|257:23,2,150,6|2|8,0:0|0:0|0:0,0:0:0:0:
343,248,107779,2,0,L|417:273,2,74.9999999999999,2|2|0,0:0|0:0|0:0,0:0:0:0:
244,244,108800,1,2,0:0:0:0:
95,223,109412,2,0,P|55:248|19:295,2,99.9999999999999,2|8|2,0:0|0:0|0:0,0:0:0:0:
157,145,110636,1,8,0:0:0:0:
187,240,111045,2,0,B|247:204|247:204|270:108,2,150,14|14|12,0:0|0:0|0:0,0:0:0:0:
180,339,112677,6,0,P|104:316|85:301,1,99.9999999999999,6|8,0:0|0:0,0:0:0:0:
57,209,113494,1,8,0:0:0:0:
110,126,113902,1,8,0:0:0:0:
63,38,114310,1,2,0:0:0:0:
256,112,115943,5,12,0:0:0:0:
184,236,116555,1,12,0:0:0:0:
328,237,117167,1,8,0:0:0:0:
256,192,117575,12,12,119208,0:0:0:0:
256,192,119310,12,0,120432,0:0:0:0:
