osu file format v14

[General]
AudioFilename: This game.mp3
AudioLeadIn: 0
PreviewTime: 86453
Countdown: 0
SampleSet: Normal
StackLeniency: 0.6
Mode: 1
LetterboxInBreaks: 0
WidescreenStoryboard: 0

[Editor]
Bookmarks: 3290,16351,32677,39208,45738,52269,58800,65330,71861,78392,86555,114310,115943,117575,119208,120432
DistanceSpacing: 1.22
BeatDivisor: 4
GridSize: 32
TimelineZoom: 1.750002

[Metadata]
Title:This game
TitleUnicode:This game
Artist:Roselia
ArtistUnicode:Roselia
Creator:-Aqua
Version:Ayyri's Oni
Source:バンドリ! ガールズバンドパーティ!
Tags:BanG Dream! Bandori! Girls Band Party! ガルパ Garupa cover insert song Bandori project Girl Party Garupa! Rozeria ロゼリア Minato Yukina 湊友希那 Hikawa Sayo 氷川紗夜 Imai Lisa 今井リサ Udagawa Ako 宇田川あこ Shirokane Rinko 白金燐子 Aiba Aina Aiai 相羽あいな Kudō Haruka Kudo Kudou Kudoharu Kdhr Fries 工藤晴香 Endō Yurika Endo Endou Yurishii 遠藤ゆりか Sakuragawa Megu 桜川めぐ Akesaka Satomi Akeko 明坂聡美 Suzuki Konomi 鈴木このみ No Game No Life ノーゲーム・ノーライフ NGNL nextplay My Angel Kanan My_Angel_Kanan Lulu- Lulu newton- newton newqua domSaur Xidorn ailv aliv alvi _Meep_ Meep scanter Naotoshi Nao Tomori Lasse Naosse Ayyri eiri- Xetopia Raveille Rave Crowley
BeatmapID:1692784
BeatmapSetID:749557

[Difficulty]
HPDrainRate:6
CircleSize:2
OverallDifficulty:6
ApproachRate:10
SliderMultiplier:1.4
SliderTickRate:1

[Events]
//Background and Video events
0,0,"Sayo best girl fight me.jpg",0,15
//Break Periods
//Storyboard Layer 0 (Background)
//Storyboard Layer 1 (Fail)
//Storyboard Layer 2 (Pass)
//Storyboard Layer 3 (Foreground)
//Storyboard Sound Samples

[TimingPoints]
3290,408.163265306122,4,1,0,50,1,0
38596,-100,4,1,0,75,0,0
86555,-100,4,1,0,100,0,1
114310,-100,4,1,0,100,0,0

[Colours]
Combo1 : 170,240,233
Combo2 : 64,224,208
Combo3 : 162,168,249
Combo4 : 92,99,240

[HitObjects]
256,192,3290,5,0,0:0:0:0:
256,192,3596,1,8,0:0:0:0:
256,192,3902,1,0,0:0:0:0:
256,192,4106,1,8,0:0:0:0:
256,192,4412,1,8,0:0:0:0:
256,192,4718,1,0,0:0:0:0:
256,192,4922,1,8,0:0:0:0:
256,192,5228,1,0,0:0:0:0:
256,192,5534,1,0,0:0:0:0:
256,192,5738,1,8,0:0:0:0:
256,192,6045,1,8,0:0:0:0:
256,192,6351,1,0,0:0:0:0:
256,192,6555,1,8,0:0:0:0:
256,192,6861,1,0,0:0:0:0:
256,192,7167,1,8,0:0:0:0:
256,192,7371,1,0,0:0:0:0:
256,192,7677,1,8,0:0:0:0:
256,192,7983,1,0,0:0:0:0:
256,192,8187,1,8,0:0:0:0:
256,192,8494,1,0,0:0:0:0:
256,192,8800,1,8,0:0:0:0:
256,192,9004,1,0,0:0:0:0:
256,192,9616,1,0,0:0:0:0:
256,192,9718,1,0,0:0:0:0:
256,192,9820,1,8,0:0:0:0:
256,192,10432,1,8,0:0:0:0:
256,192,10534,1,8,0:0:0:0:
256,192,10636,1,0,0:0:0:0:
256,192,11249,1,8,0:0:0:0:
256,192,11351,1,0,0:0:0:0:
256,192,11453,1,8,0:0:0:0:
256,192,12065,1,0,0:0:0:0:
256,192,12167,1,8,0:0:0:0:
256,192,12269,1,0,0:0:0:0:
256,192,12881,1,0,0:0:0:0:
256,192,13085,1,8,0:0:0:0:
256,192,13392,1,0,0:0:0:0:
256,192,13698,1,8,0:0:0:0:
256,192,13902,1,0,0:0:0:0:
256,192,14106,1,8,0:0:0:0:
256,192,14310,1,8,0:0:0:0:
256,192,14514,1,0,0:0:0:0:
256,192,14718,1,8,0:0:0:0:
256,192,15024,1,0,0:0:0:0:
256,192,15330,1,0,0:0:0:0:
256,192,15534,1,8,0:0:0:0:
256,192,15943,1,0,0:0:0:0:
256,192,16351,1,8,0:0:0:0:
256,192,16555,1,0,0:0:0:0:
256,192,16759,1,0,0:0:0:0:
256,192,17167,1,0,0:0:0:0:
256,192,17473,1,8,0:0:0:0:
256,192,17779,1,0,0:0:0:0:
256,192,17983,1,8,0:0:0:0:
256,192,18187,1,0,0:0:0:0:
256,192,18392,1,8,0:0:0:0:
256,192,18596,1,8,0:0:0:0:
256,192,18800,1,0,0:0:0:0:
256,192,19106,1,8,0:0:0:0:
256,192,19412,1,8,0:0:0:0:
256,192,19616,1,0,0:0:0:0:
256,192,19820,1,8,0:0:0:0:
256,192,20024,1,0,0:0:0:0:
256,192,20432,1,8,0:0:0:0:
256,192,20738,1,8,0:0:0:0:
256,192,21045,1,0,0:0:0:0:
256,192,21249,1,8,0:0:0:0:
256,192,21555,1,0,0:0:0:0:
256,192,21861,1,8,0:0:0:0:
256,192,22065,1,0,0:0:0:0:
256,192,22677,1,0,0:0:0:0:
256,192,22779,1,0,0:0:0:0:
256,192,22881,1,8,0:0:0:0:
256,192,23187,1,8,0:0:0:0:
256,192,23494,1,0,0:0:0:0:
256,192,23902,1,8,0:0:0:0:
256,192,24106,1,8,0:0:0:0:
256,192,24310,1,0,0:0:0:0:
256,192,24514,1,8,0:0:0:0:
256,192,25126,1,8,0:0:0:0:
256,192,25194,1,8,0:0:0:0:
256,192,25262,1,8,0:0:0:0:
256,192,25330,1,0,0:0:0:0:
256,192,26147,1,8,0:0:0:0:
256,192,26351,1,0,0:0:0:0:
256,192,26555,1,0,0:0:0:0:
256,192,26759,1,8,0:0:0:0:
256,192,27167,1,0,0:0:0:0:
256,192,27371,1,8,0:0:0:0:
256,192,27575,1,0,0:0:0:0:
256,192,27779,1,0,0:0:0:0:
256,192,28187,1,8,0:0:0:0:
256,192,28596,1,0,0:0:0:0:
256,192,29004,1,0,0:0:0:0:
256,192,29412,1,8,0:0:0:0:
256,192,30024,1,0,0:0:0:0:
256,192,30432,1,0,0:0:0:0:
256,192,30636,1,8,0:0:0:0:
256,192,31045,1,8,0:0:0:0:
256,192,31657,1,0,0:0:0:0:
256,192,31861,1,8,0:0:0:0:
256,192,32065,1,8,0:0:0:0:
256,192,32269,1,8,0:0:0:0:
256,192,32473,1,8,0:0:0:0:
256,192,32677,1,12,0:0:0:0:
256,192,32983,1,0,0:0:0:0:
256,192,33289,1,8,0:0:0:0:
256,192,33698,1,0,0:0:0:0:
256,192,33902,1,8,0:0:0:0:
256,192,34106,1,0,0:0:0:0:
256,192,34310,1,8,0:0:0:0:
256,192,34616,1,8,0:0:0:0:
256,192,34922,1,0,0:0:0:0:
256,192,35330,1,0,0:0:0:0:
256,192,35534,1,8,0:0:0:0:
256,192,35738,1,8,0:0:0:0:
256,192,35943,1,0,0:0:0:0:
256,192,36249,1,0,0:0:0:0:
256,192,36555,1,8,0:0:0:0:
256,192,36963,1,0,0:0:0:0:
256,192,37167,1,8,0:0:0:0:
256,192,37371,1,0,0:0:0:0:
256,192,37575,1,8,0:0:0:0:
256,192,37881,1,0,0:0:0:0:
256,192,38187,1,8,0:0:0:0:
256,192,38596,1,8,0:0:0:0:
256,192,38800,1,8,0:0:0:0:
256,192,39004,1,0,0:0:0:0:
256,192,39208,1,12,0:0:0:0:
256,192,39514,1,8,0:0:0:0:
256,192,39616,1,0,0:0:0:0:
256,192,39820,1,12,0:0:0:0:
256,192,40024,1,0,0:0:0:0:
256,192,40228,1,0,0:0:0:0:
256,192,40432,1,8,0:0:0:0:
256,192,40534,1,8,0:0:0:0:
256,192,40636,1,0,0:0:0:0:
256,192,40841,1,12,0:0:0:0:
256,192,41147,1,8,0:0:0:0:
256,192,41249,1,0,0:0:0:0:
256,192,41453,1,12,0:0:0:0:
256,192,41657,1,0,0:0:0:0:
256,192,41861,1,8,0:0:0:0:
256,192,42065,1,0,0:0:0:0:
256,192,42167,1,0,0:0:0:0:
256,192,42269,1,8,0:0:0:0:
256,192,42473,1,12,0:0:0:0:
256,192,42779,1,8,0:0:0:0:
256,192,42881,1,0,0:0:0:0:
256,192,43085,1,8,0:0:0:0:
256,192,43289,1,0,0:0:0:0:
256,192,43493,1,8,0:0:0:0:
256,192,43697,1,8,0:0:0:0:
256,192,43799,1,0,0:0:0:0:
256,192,43901,1,8,0:0:0:0:
256,192,44106,1,12,0:0:0:0:
256,192,44412,1,0,0:0:0:0:
256,192,44514,1,8,0:0:0:0:
256,192,44718,1,12,0:0:0:0:
256,192,45126,1,0,0:0:0:0:
256,192,45330,1,12,0:0:0:0:
256,192,45738,1,0,0:0:0:0:
256,192,46045,1,0,0:0:0:0:
256,192,46351,1,12,0:0:0:0:
256,192,46759,1,0,0:0:0:0:
256,192,46963,1,8,0:0:0:0:
256,192,47167,1,8,0:0:0:0:
256,192,47269,1,8,0:0:0:0:
256,192,47371,1,0,0:0:0:0:
256,192,47575,1,0,0:0:0:0:
256,192,47677,1,8,0:0:0:0:
256,192,47779,1,0,0:0:0:0:
256,192,47983,1,0,0:0:0:0:
256,192,48187,1,0,0:0:0:0:
256,192,48392,1,0,0:0:0:0:
256,192,48596,1,8,0:0:0:0:
256,192,48800,1,0,0:0:0:0:
256,192,48902,1,0,0:0:0:0:
256,192,49004,1,8,0:0:0:0:
256,192,49208,1,0,0:0:0:0:
256,192,49310,1,8,0:0:0:0:
256,192,49412,1,0,0:0:0:0:
256,192,49616,1,8,0:0:0:0:
256,192,49820,1,0,0:0:0:0:
256,192,50024,1,0,0:0:0:0:
256,192,50228,1,8,0:0:0:0:
256,192,50432,1,8,0:0:0:0:
256,192,50534,1,8,0:0:0:0:
256,192,50636,1,0,0:0:0:0:
256,192,50943,1,0,0:0:0:0:
256,192,51249,1,12,0:0:0:0:
256,192,51657,1,0,0:0:0:0:
256,192,51861,1,8,0:0:0:0:
256,192,51963,1,8,0:0:0:0:
256,192,52065,1,0,0:0:0:0:
256,192,52269,1,12,0:0:0:0:
256,192,52575,1,0,0:0:0:0:
256,192,52677,1,8,0:0:0:0:
256,192,52881,1,8,0:0:0:0:
256,192,53085,1,0,0:0:0:0:
256,192,53289,1,0,0:0:0:0:
256,192,53494,1,8,0:0:0:0:
256,192,53698,1,0,0:0:0:0:
256,192,53800,1,8,0:0:0:0:
256,192,53902,1,0,0:0:0:0:
256,192,54106,1,0,0:0:0:0:
256,192,54208,1,0,0:0:0:0:
256,192,54310,1,8,0:0:0:0:
256,192,54514,1,8,0:0:0:0:
256,192,54616,1,0,0:0:0:0:
256,192,54718,1,8,0:0:0:0:
256,192,54922,1,0,0:0:0:0:
256,192,55024,1,8,0:0:0:0:
256,192,55126,1,8,0:0:0:0:
256,192,55330,1,0,0:0:0:0:
256,192,55534,1,8,0:0:0:0:
256,192,55841,1,0,0:0:0:0:
256,192,55943,1,8,0:0:0:0:
256,192,56147,1,0,0:0:0:0:
256,192,56555,1,0,0:0:0:0:
256,192,56759,1,8,0:0:0:0:
256,192,56963,1,0,0:0:0:0:
256,192,57167,1,8,0:0:0:0:
256,192,57473,1,8,0:0:0:0:
256,192,57779,1,0,0:0:0:0:
256,192,58085,1,0,0:0:0:0:
256,192,58392,1,8,0:0:0:0:
256,192,58800,1,12,0:0:0:0:
256,192,59004,1,0,0:0:0:0:
256,192,59208,1,8,0:0:0:0:
256,192,59412,1,0,0:0:0:0:
256,192,59514,1,8,0:0:0:0:
256,192,59718,1,8,0:0:0:0:
256,192,59820,1,0,0:0:0:0:
256,192,59922,1,0,0:0:0:0:
256,192,60024,1,8,0:0:0:0:
256,192,60228,1,8,0:0:0:0:
256,192,60432,1,0,0:0:0:0:
256,192,60636,1,0,0:0:0:0:
256,192,60841,1,8,0:0:0:0:
256,192,61045,1,0,0:0:0:0:
256,192,61147,1,8,0:0:0:0:
256,192,61351,1,8,0:0:0:0:
256,192,61453,1,0,0:0:0:0:
256,192,61555,1,8,0:0:0:0:
256,192,61657,1,8,0:0:0:0:
256,192,61861,1,8,0:0:0:0:
256,192,62065,1,0,0:0:0:0:
256,192,62269,1,0,0:0:0:0:
256,192,62473,1,8,0:0:0:0:
256,192,62677,1,0,0:0:0:0:
256,192,62779,1,8,0:0:0:0:
256,192,62983,1,0,0:0:0:0:
256,192,63085,1,0,0:0:0:0:
256,192,63187,1,8,0:0:0:0:
256,192,63289,1,0,0:0:0:0:
256,192,63392,1,0,0:0:0:0:
256,192,63494,1,8,0:0:0:0:
256,192,63698,1,12,0:0:0:0:
256,192,63902,1,0,0:0:0:0:
256,192,64004,1,8,0:0:0:0:
256,192,64310,1,12,0:0:0:0:
256,192,64514,1,0,0:0:0:0:
256,192,64616,1,8,0:0:0:0:
256,192,64718,1,0,0:0:0:0:
256,192,64820,1,0,0:0:0:0:
256,192,64922,1,8,0:0:0:0:
256,192,65330,1,12,0:0:0:0:
256,192,65534,1,0,0:0:0:0:
256,192,65738,1,8,0:0:0:0:
256,192,65942,1,0,0:0:0:0:
256,192,66044,1,8,0:0:0:0:
256,192,66248,1,8,0:0:0:0:
256,192,66351,1,0,0:0:0:0:
256,192,66453,1,0,0:0:0:0:
256,192,66554,1,8,0:0:0:0:
256,192,66759,1,8,0:0:0:0:
256,192,66963,1,0,0:0:0:0:
256,192,67166,1,0,0:0:0:0:
256,192,67371,1,8,0:0:0:0:
256,192,67575,1,0,0:0:0:0:
256,192,67677,1,8,0:0:0:0:
256,192,67881,1,8,0:0:0:0:
256,192,67983,1,0,0:0:0:0:
256,192,68187,1,8,0:0:0:0:
256,192,68392,1,8,0:0:0:0:
256,192,68595,1,0,0:0:0:0:
256,192,68799,1,0,0:0:0:0:
256,192,69003,1,8,0:0:0:0:
256,192,69207,1,0,0:0:0:0:
256,192,69309,1,8,0:0:0:0:
256,192,69513,1,8,0:0:0:0:
256,192,69616,1,0,0:0:0:0:
256,192,69819,1,8,0:0:0:0:
256,192,69922,1,8,0:0:0:0:
256,192,70024,1,0,0:0:0:0:
256,192,70228,1,12,0:0:0:0:
256,192,70534,1,4,0:0:0:0:
256,192,70841,1,12,0:0:0:0:
256,192,71045,1,8,0:0:0:0:
256,192,71249,1,0,0:0:0:0:
256,192,71351,1,0,0:0:0:0:
256,192,71453,1,8,0:0:0:0:
256,192,71861,1,12,0:0:0:0:
256,192,72167,1,0,0:0:0:0:
256,192,72473,1,0,0:0:0:0:
256,192,72677,1,8,0:0:0:0:
256,192,72881,1,8,0:0:0:0:
256,192,72983,1,0,0:0:0:0:
256,192,73085,1,8,0:0:0:0:
256,192,73289,1,0,0:0:0:0:
256,192,73494,1,8,0:0:0:0:
256,192,73800,1,0,0:0:0:0:
256,192,74106,1,8,0:0:0:0:
256,192,74208,1,0,0:0:0:0:
256,192,74310,1,8,0:0:0:0:
256,192,74616,1,0,0:0:0:0:
256,192,74922,1,0,0:0:0:0:
256,192,75126,1,12,0:0:0:0:
256,192,75432,1,0,0:0:0:0:
256,192,75534,1,8,0:0:0:0:
256,192,75738,1,0,0:0:0:0:
256,192,75943,1,8,0:0:0:0:
256,192,76147,1,8,0:0:0:0:
256,192,76249,1,0,0:0:0:0:
256,192,76351,1,8,0:0:0:0:
256,192,76555,1,0,0:0:0:0:
256,192,76657,1,0,0:0:0:0:
256,192,76759,1,8,0:0:0:0:
256,192,76861,1,0,0:0:0:0:
256,192,76963,1,8,0:0:0:0:
256,192,77065,1,8,0:0:0:0:
256,192,77167,1,0,0:0:0:0:
256,192,77371,1,0,0:0:0:0:
256,192,77575,1,8,0:0:0:0:
256,192,77881,1,8,0:0:0:0:
256,192,78187,1,8,0:0:0:0:
256,192,78392,1,12,0:0:0:0:
256,192,79208,1,0,0:0:0:0:
256,192,79616,1,0,0:0:0:0:
256,192,79718,1,0,0:0:0:0:
256,192,79820,1,8,0:0:0:0:
256,192,80024,1,12,0:0:0:0:
256,192,80636,1,8,0:0:0:0:
256,192,80841,1,0,0:0:0:0:
256,192,81045,1,8,0:0:0:0:
256,192,81249,1,4,0:0:0:0:
256,192,81657,1,12,0:0:0:0:
256,192,81861,1,0,0:0:0:0:
256,192,82065,1,0,0:0:0:0:
256,192,82269,1,0,0:0:0:0:
256,192,82371,1,0,0:0:0:0:
256,192,82473,1,8,0:0:0:0:
256,192,82677,1,0,0:0:0:0:
256,192,82881,1,8,0:0:0:0:
256,192,83085,1,0,0:0:0:0:
256,192,83289,1,8,0:0:0:0:
256,192,83596,1,0,0:0:0:0:
256,192,83902,1,0,0:0:0:0:
256,192,84106,1,8,0:0:0:0:
256,192,84310,1,0,0:0:0:0:
256,192,84412,1,8,0:0:0:0:
256,192,84514,1,0,0:0:0:0:
256,192,84718,1,0,0:0:0:0:
256,192,84922,1,12,0:0:0:0:
256,192,85228,1,12,0:0:0:0:
256,192,85534,1,12,0:0:0:0:
256,192,86147,1,8,0:0:0:0:
256,192,86249,1,0,0:0:0:0:
256,192,86351,1,8,0:0:0:0:
256,192,86555,1,12,0:0:0:0:
256,192,86963,1,8,0:0:0:0:
256,192,87371,1,0,0:0:0:0:
256,192,87677,1,0,0:0:0:0:
256,192,87779,1,8,0:0:0:0:
256,192,87983,1,0,0:0:0:0:
256,192,88187,1,8,0:0:0:0:
256,192,88596,1,8,0:0:0:0:
256,192,89004,1,0,0:0:0:0:
256,192,89310,1,8,0:0:0:0:
256,192,89412,1,8,0:0:0:0:
256,192,89616,1,0,0:0:0:0:
256,192,89820,1,8,0:0:0:0:
256,192,90228,1,8,0:0:0:0:
256,192,90636,1,0,0:0:0:0:
256,192,90943,1,0,0:0:0:0:
256,192,91045,1,8,0:0:0:0:
256,192,91249,1,0,0:0:0:0:
256,192,91453,1,8,0:0:0:0:
256,192,91759,1,8,0:0:0:0:
256,192,91861,1,8,0:0:0:0:
256,192,92065,1,0,0:0:0:0:
256,192,92269,1,8,0:0:0:0:
256,192,92473,1,0,0:0:0:0:
256,192,92575,1,0,0:0:0:0:
256,192,92677,1,8,0:0:0:0:
256,192,92881,1,0,0:0:0:0:
256,192,93085,1,12,0:0:0:0:
256,192,93494,1,8,0:0:0:0:
256,192,93698,1,0,0:0:0:0:
256,192,93902,1,8,0:0:0:0:
256,192,94310,1,8,0:0:0:0:
256,192,94514,1,0,0:0:0:0:
256,192,94616,1,0,0:0:0:0:
256,192,94718,1,8,0:0:0:0:
256,192,94922,1,0,0:0:0:0:
256,192,95126,1,8,0:0:0:0:
256,192,95330,1,8,0:0:0:0:
256,192,95432,1,0,0:0:0:0:
256,192,95534,1,8,0:0:0:0:
256,192,95943,1,0,0:0:0:0:
256,192,96045,1,0,0:0:0:0:
256,192,96147,1,8,0:0:0:0:
256,192,96351,1,12,0:0:0:0:
256,192,96657,1,8,0:0:0:0:
256,192,96759,1,8,0:0:0:0:
256,192,96861,1,0,0:0:0:0:
256,192,96963,1,8,0:0:0:0:
256,192,97167,1,12,0:0:0:0:
256,192,97371,1,0,0:0:0:0:
256,192,97575,1,8,0:0:0:0:
256,192,97779,1,0,0:0:0:0:
256,192,97983,1,12,0:0:0:0:
256,192,98289,1,12,0:0:0:0:
256,192,98596,1,4,0:0:0:0:
256,192,98800,1,12,0:0:0:0:
256,192,99004,1,0,0:0:0:0:
256,192,99106,1,0,0:0:0:0:
256,192,99208,1,8,0:0:0:0:
256,192,99616,1,12,0:0:0:0:
256,192,100024,1,8,0:0:0:0:
256,192,100432,1,8,0:0:0:0:
256,192,100534,1,0,0:0:0:0:
256,192,100738,1,0,0:0:0:0:
256,192,100841,1,8,0:0:0:0:
256,192,101044,1,0,0:0:0:0:
256,192,101248,1,8,0:0:0:0:
256,192,101453,1,0,0:0:0:0:
256,192,101657,1,8,0:0:0:0:
256,192,102065,1,8,0:0:0:0:
256,192,102167,1,0,0:0:0:0:
256,192,102371,1,0,0:0:0:0:
256,192,102473,1,8,0:0:0:0:
256,192,102677,1,0,0:0:0:0:
256,192,102881,1,8,0:0:0:0:
256,192,103085,1,0,0:0:0:0:
256,192,103289,1,8,0:0:0:0:
256,192,103697,1,8,0:0:0:0:
256,192,103800,1,0,0:0:0:0:
256,192,104004,1,8,0:0:0:0:
256,192,104106,1,8,0:0:0:0:
256,192,104310,1,0,0:0:0:0:
256,192,104514,1,12,0:0:0:0:
256,192,104718,1,0,0:0:0:0:
256,192,104820,1,8,0:0:0:0:
256,192,104922,1,8,0:0:0:0:
256,192,105126,1,4,0:0:0:0:
256,192,105432,1,0,0:0:0:0:
256,192,105534,1,8,0:0:0:0:
256,192,105738,1,8,0:0:0:0:
256,192,105841,1,8,0:0:0:0:
256,192,105943,1,0,0:0:0:0:
256,192,106146,1,12,0:0:0:0:
256,192,106453,1,0,0:0:0:0:
256,192,106555,1,8,0:0:0:0:
256,192,106759,1,8,0:0:0:0:
256,192,106861,1,8,0:0:0:0:
256,192,106963,1,0,0:0:0:0:
256,192,107167,1,0,0:0:0:0:
256,192,107371,1,8,0:0:0:0:
256,192,107575,1,0,0:0:0:0:
256,192,107779,1,8,0:0:0:0:
256,192,108085,1,0,0:0:0:0:
256,192,108187,1,8,0:0:0:0:
256,192,108392,1,8,0:0:0:0:
256,192,108494,1,8,0:0:0:0:
256,192,108596,1,0,0:0:0:0:
256,192,108698,1,8,0:0:0:0:
256,192,108800,1,0,0:0:0:0:
256,192,109004,1,8,0:0:0:0:
256,192,109208,1,0,0:0:0:0:
256,192,109412,1,12,0:0:0:0:
256,192,109718,1,0,0:0:0:0:
256,192,109820,1,8,0:0:0:0:
256,192,110024,1,8,0:0:0:0:
256,192,110126,1,0,0:0:0:0:
256,192,110228,1,8,0:0:0:0:
256,192,110330,1,8,0:0:0:0:
256,192,110432,1,0,0:0:0:0:
256,192,110636,1,8,0:0:0:0:
256,192,110841,1,0,0:0:0:0:
256,192,111045,1,12,0:0:0:0:
256,192,111249,1,0,0:0:0:0:
256,192,111453,1,0,0:0:0:0:
256,192,111657,1,12,0:0:0:0:
256,192,111861,1,0,0:0:0:0:
256,192,112065,1,0,0:0:0:0:
256,192,112269,1,12,0:0:0:0:
256,192,112677,1,12,0:0:0:0:
256,192,112983,1,0,0:0:0:0:
256,192,113085,1,8,0:0:0:0:
256,192,113289,1,0,0:0:0:0:
256,192,113494,1,8,0:0:0:0:
256,192,113698,1,0,0:0:0:0:
256,192,113902,1,8,0:0:0:0:
256,192,114004,1,0,0:0:0:0:
256,192,114106,1,8,0:0:0:0:
256,192,114310,1,12,0:0:0:0:
256,192,115126,1,8,0:0:0:0:
256,192,115432,1,8,0:0:0:0:
256,192,115738,1,0,0:0:0:0:
256,192,115943,1,12,0:0:0:0:
256,192,116249,1,0,0:0:0:0:
256,192,116555,1,12,0:0:0:0:
256,192,116861,1,0,0:0:0:0:
256,192,117167,1,12,0:0:0:0:
256,192,117371,1,0,0:0:0:0:
256,192,117575,1,12,0:0:0:0:
256,192,119004,1,0,0:0:0:0:
256,192,119208,1,12,0:0:0:0:
256,192,119412,8,0,120432,0:0:0:0:
