osu file format v14

[General]
AudioFilename: bgm097.mp3
AudioLeadIn: 0
PreviewTime: 76907
Countdown: 0
SampleSet: Normal
StackLeniency: 0.7
Mode: 1
LetterboxInBreaks: 0
WidescreenStoryboard: 0

[Editor]
DistanceSpacing: 0.8
BeatDivisor: 3
GridSize: 8
TimelineZoom: 2.350003

[Metadata]
Title:Opera of the wasteland
TitleUnicode:Opera of the wasteland
Artist:Roselia
ArtistUnicode:Roselia
Creator:KamizonoShinobu
Version:Ura Oni
Source:バンドリ!ガールズバンドパーティ!
Tags:BanG Dream! Bandori! Girls Band Party! ガルパ Garupa insert song Bandori project Girl Party Garupa! Rozeria ロゼリア Minato Yukina 湊友希那 Hikawa Sayo 氷川紗夜 Imai Lisa 今井リサ Udagawa Ako 宇田川あこ Shirokane Rinko 白金燐子 Aiba Aina 相羽あいな Kudō Haruka Kudo Kudou 工藤晴香 Endō Yurika Endo Endou 遠藤ゆりか Sakuragawa Megu 桜川めぐ Akesaka Satomi 明坂聡美
BeatmapID:1613906
BeatmapSetID:767730

[Difficulty]
HPDrainRate:6.5
CircleSize:6.5
OverallDifficulty:7.5
ApproachRate:10
SliderMultiplier:1.4
SliderTickRate:1

[Events]
//Background and Video events
0,0,"38362-BanG_Dream-PC.jpg",0,0
//Break Periods
//Storyboard Layer 0 (Background)
//Storyboard Layer 1 (Fail)
//Storyboard Layer 2 (Pass)
//Storyboard Layer 3 (Foreground)
//Storyboard Sound Samples

[TimingPoints]
3576,444.444444444444,4,1,0,60,1,0
17798,222.222222222222,4,1,0,60,1,0
33797,444.444444444444,4,1,0,60,1,0
33797,-50,4,1,0,60,0,0
33908,-100,4,1,0,60,0,0
76463,222.222222222222,4,1,0,60,1,0
78129,-100,4,1,0,60,0,1
109351,-100,4,1,0,60,0,0

[HitObjects]
208,216,3576,5,0,0:0:0:0:
208,216,4464,1,0,0:0:0:0:
208,216,4798,1,0,0:0:0:0:
208,216,5131,1,0,0:0:0:0:
208,216,5353,1,0,0:0:0:0:
208,200,6020,1,0,0:0:0:0:
208,200,6131,1,0,0:0:0:0:
208,200,6242,1,0,0:0:0:0:
208,200,6687,1,0,0:0:0:0:
208,200,7131,1,8,0:0:0:0:
208,200,7798,1,0,0:0:0:0:
208,200,7909,1,0,0:0:0:0:
208,200,8020,1,0,0:0:0:0:
208,200,8464,1,0,0:0:0:0:
208,200,8909,1,0,0:0:0:0:
176,56,9575,1,0,0:0:0:0:
176,56,9687,1,0,0:0:0:0:
176,56,9798,1,0,0:0:0:0:
176,56,10020,1,0,0:0:0:0:
176,56,10242,1,0,0:0:0:0:
200,136,10390,1,0,0:0:0:0:
176,56,10538,1,0,0:0:0:0:
176,56,10687,1,0,0:0:0:0:
264,144,11353,1,0,0:0:0:0:
264,144,11464,1,0,0:0:0:0:
264,144,11575,1,0,0:0:0:0:
264,144,12242,1,0,0:0:0:0:
264,144,12464,1,0,0:0:0:0:
264,144,12798,1,0,0:0:0:0:
264,144,13131,1,0,0:0:0:0:
264,144,13242,1,0,0:0:0:0:
264,144,13353,1,0,0:0:0:0:
264,144,13798,1,0,0:0:0:0:
176,56,14242,1,0,0:0:0:0:
264,144,14908,1,0,0:0:0:0:
264,144,15019,1,0,0:0:0:0:
264,144,15130,1,0,0:0:0:0:
264,144,15797,1,0,0:0:0:0:
264,144,16019,1,0,0:0:0:0:
264,144,16353,1,0,0:0:0:0:
264,144,16686,1,0,0:0:0:0:
264,144,16797,1,0,0:0:0:0:
264,144,16908,1,0,0:0:0:0:
264,144,17353,1,0,0:0:0:0:
272,168,17798,1,0,0:0:0:0:
272,168,17909,1,0,0:0:0:0:
272,168,18020,1,0,0:0:0:0:
272,168,18131,1,8,0:0:0:0:
272,168,18464,1,0,0:0:0:0:
272,168,18575,1,0,0:0:0:0:
272,168,18686,1,0,0:0:0:0:
272,168,18798,1,8,0:0:0:0:
272,168,19131,1,0,0:0:0:0:
272,168,19242,1,0,0:0:0:0:
272,168,19353,1,0,0:0:0:0:
272,168,19464,1,4,0:0:0:0:
344,136,19686,1,0,0:0:0:0:
344,136,19797,1,8,0:0:0:0:
344,136,19909,1,0,0:0:0:0:
344,136,20020,1,0,0:0:0:0:
344,136,20075,1,0,0:0:0:0:
344,136,20131,1,0,0:0:0:0:
344,136,20242,1,8,0:0:0:0:
176,192,20353,1,0,0:0:0:0:
176,192,20575,1,0,0:0:0:0:
176,192,20686,1,8,0:0:0:0:
176,192,20797,1,0,0:0:0:0:
176,192,20909,1,8,0:0:0:0:
176,192,20964,1,8,0:0:0:0:
176,192,21020,1,8,0:0:0:0:
176,192,21131,1,8,0:0:0:0:
176,192,21242,1,0,0:0:0:0:
280,136,21464,1,0,0:0:0:0:
280,136,21575,1,8,0:0:0:0:
280,136,21686,1,0,0:0:0:0:
280,136,21797,1,0,0:0:0:0:
280,136,21909,1,0,0:0:0:0:
280,136,21964,1,0,0:0:0:0:
280,136,22020,1,8,0:0:0:0:
280,136,22131,1,0,0:0:0:0:
280,136,22353,1,0,0:0:0:0:
280,136,22464,1,8,0:0:0:0:
280,136,22575,1,0,0:0:0:0:
280,136,22686,1,8,0:0:0:0:
280,136,22742,1,8,0:0:0:0:
280,136,22797,1,8,0:0:0:0:
280,136,22853,1,8,0:0:0:0:
280,136,22909,1,8,0:0:0:0:
280,136,23020,1,0,0:0:0:0:
296,120,23242,1,0,0:0:0:0:
296,120,23353,1,8,0:0:0:0:
296,120,23464,1,8,0:0:0:0:
296,120,23575,1,0,0:0:0:0:
296,120,23686,1,0,0:0:0:0:
296,120,23797,1,8,0:0:0:0:
296,120,23909,1,8,0:0:0:0:
296,120,24020,1,0,0:0:0:0:
208,152,24075,1,0,0:0:0:0:
296,120,24131,1,0,0:0:0:0:
296,120,24242,1,8,0:0:0:0:
296,120,24353,1,8,0:0:0:0:
208,152,24464,1,0,0:0:0:0:
208,152,24520,1,0,0:0:0:0:
208,152,24575,1,0,0:0:0:0:
208,152,24686,1,8,0:0:0:0:
208,152,24797,1,0,0:0:0:0:
208,152,24853,1,0,0:0:0:0:
208,152,24908,1,0,0:0:0:0:
208,152,25020,1,0,0:0:0:0:
208,152,25131,1,8,0:0:0:0:
208,152,25242,1,0,0:0:0:0:
208,152,25353,1,8,0:0:0:0:
208,152,25464,1,8,0:0:0:0:
208,152,25575,1,0,0:0:0:0:
208,152,25686,1,8,0:0:0:0:
184,216,25797,1,0,0:0:0:0:
184,216,25853,1,0,0:0:0:0:
184,216,25909,1,0,0:0:0:0:
184,216,25964,1,0,0:0:0:0:
184,216,26020,1,8,0:0:0:0:
184,216,26075,1,8,0:0:0:0:
184,216,26131,1,8,0:0:0:0:
184,216,26186,1,8,0:0:0:0:
184,216,26242,1,0,0:0:0:0:
184,216,26297,1,0,0:0:0:0:
184,216,26353,1,0,0:0:0:0:
184,216,26409,1,0,0:0:0:0:
184,216,26464,1,8,0:0:0:0:
184,216,26575,1,4,0:0:0:0:
184,216,26797,1,0,0:0:0:0:
184,216,26909,1,8,0:0:0:0:
184,216,27020,1,0,0:0:0:0:
184,216,27131,1,0,0:0:0:0:
216,160,27242,1,0,0:0:0:0:
216,160,27297,1,0,0:0:0:0:
216,160,27353,1,8,0:0:0:0:
216,160,27464,1,0,0:0:0:0:
216,160,27686,1,0,0:0:0:0:
216,160,27797,1,8,0:0:0:0:
216,160,27909,1,0,0:0:0:0:
216,160,28019,1,8,0:0:0:0:
216,160,28075,1,8,0:0:0:0:
216,160,28130,1,8,0:0:0:0:
216,160,28241,1,8,0:0:0:0:
216,160,28353,1,0,0:0:0:0:
184,216,28575,1,0,0:0:0:0:
184,216,28687,1,8,0:0:0:0:
184,216,28798,1,0,0:0:0:0:
184,216,28909,1,0,0:0:0:0:
216,160,29020,1,0,0:0:0:0:
216,160,29075,1,0,0:0:0:0:
216,160,29131,1,8,0:0:0:0:
216,160,29242,1,0,0:0:0:0:
216,160,29464,1,0,0:0:0:0:
216,160,29575,1,8,0:0:0:0:
216,160,29687,1,0,0:0:0:0:
216,160,29797,1,8,0:0:0:0:
216,160,29853,1,8,0:0:0:0:
216,160,29908,1,8,0:0:0:0:
216,160,30019,1,8,0:0:0:0:
216,160,30131,1,0,0:0:0:0:
216,176,30353,1,0,0:0:0:0:
216,176,30464,1,8,0:0:0:0:
216,176,30575,1,8,0:0:0:0:
216,176,30686,1,0,0:0:0:0:
216,176,30797,1,0,0:0:0:0:
216,176,30909,1,8,0:0:0:0:
216,176,31020,1,8,0:0:0:0:
216,176,31131,1,0,0:0:0:0:
216,176,31242,1,8,0:0:0:0:
216,176,31353,1,0,0:0:0:0:
216,176,31464,1,8,0:0:0:0:
216,176,31575,1,8,0:0:0:0:
216,176,31686,1,0,0:0:0:0:
264,176,31797,1,8,0:0:0:0:
200,128,31909,1,0,0:0:0:0:
200,128,31965,1,0,0:0:0:0:
200,128,32020,1,0,0:0:0:0:
200,128,32131,1,0,0:0:0:0:
200,128,32242,1,8,0:0:0:0:
200,128,32297,1,8,0:0:0:0:
200,128,32353,1,8,0:0:0:0:
200,128,32464,1,8,0:0:0:0:
200,128,32575,1,0,0:0:0:0:
200,128,32631,1,0,0:0:0:0:
200,128,32687,1,0,0:0:0:0:
200,128,32798,1,0,0:0:0:0:
200,128,32909,1,8,0:0:0:0:
200,128,32964,1,8,0:0:0:0:
200,128,33020,1,8,0:0:0:0:
200,128,33075,1,0,0:0:0:0:
200,128,33131,1,0,0:0:0:0:
200,128,33187,1,0,0:0:0:0:
200,128,33242,1,8,0:0:0:0:
200,128,33298,1,8,0:0:0:0:
200,128,33353,1,8,0:0:0:0:
200,128,33409,1,0,0:0:0:0:
200,128,33464,1,0,0:0:0:0:
240,112,33520,1,0,0:0:0:0:
192,200,33575,1,0,0:0:0:0:
192,184,33797,1,4,0:0:0:0:
232,152,34463,1,0,0:0:0:0:
232,152,34685,1,0,0:0:0:0:
216,168,35352,1,0,0:0:0:0:
232,152,35463,1,0,0:0:0:0:
216,168,35574,1,0,0:0:0:0:
232,152,36241,1,0,0:0:0:0:
216,168,36463,1,0,0:0:0:0:
208,96,36797,1,0,0:0:0:0:
216,168,37130,1,0,0:0:0:0:
216,168,37352,1,0,0:0:0:0:
224,88,38019,1,0,0:0:0:0:
224,88,38241,1,0,0:0:0:0:
224,88,38908,1,0,0:0:0:0:
224,88,39019,1,0,0:0:0:0:
224,88,39130,1,0,0:0:0:0:
224,88,39574,1,0,0:0:0:0:
224,88,39796,1,0,0:0:0:0:
224,88,40019,1,0,0:0:0:0:
224,88,40130,1,0,0:0:0:0:
224,88,40241,1,0,0:0:0:0:
224,88,40463,1,0,0:0:0:0:
224,88,40685,1,0,0:0:0:0:
192,184,40908,1,4,0:0:0:0:
232,152,41574,1,0,0:0:0:0:
232,152,41796,1,0,0:0:0:0:
216,168,42463,1,0,0:0:0:0:
232,152,42574,1,0,0:0:0:0:
216,168,42685,1,0,0:0:0:0:
232,152,43352,1,0,0:0:0:0:
216,168,43574,1,0,0:0:0:0:
208,96,43908,1,0,0:0:0:0:
216,168,44241,1,0,0:0:0:0:
216,168,44463,1,0,0:0:0:0:
224,88,45130,1,0,0:0:0:0:
224,88,45352,1,0,0:0:0:0:
224,88,46019,1,0,0:0:0:0:
224,88,46130,1,0,0:0:0:0:
224,88,46241,1,0,0:0:0:0:
224,88,46685,1,0,0:0:0:0:
224,88,46907,1,0,0:0:0:0:
224,88,47130,1,0,0:0:0:0:
224,88,47241,1,0,0:0:0:0:
224,88,47352,1,0,0:0:0:0:
224,88,47574,1,0,0:0:0:0:
224,88,47796,1,0,0:0:0:0:
216,168,48019,1,0,0:0:0:0:
192,152,48241,1,0,0:0:0:0:
192,152,48352,1,0,0:0:0:0:
192,152,48574,1,0,0:0:0:0:
192,152,48685,1,0,0:0:0:0:
192,152,49130,1,8,0:0:0:0:
192,152,49352,1,8,0:0:0:0:
192,152,49574,1,0,0:0:0:0:
192,152,49796,1,8,0:0:0:0:
192,152,50019,1,8,0:0:0:0:
192,152,50130,1,8,0:0:0:0:
192,152,50352,1,8,0:0:0:0:
192,152,50463,1,8,0:0:0:0:
192,152,50908,1,0,0:0:0:0:
192,152,51130,1,0,0:0:0:0:
192,152,51352,1,8,0:0:0:0:
192,152,51574,1,0,0:0:0:0:
192,152,51796,1,0,0:0:0:0:
192,152,51908,1,0,0:0:0:0:
192,152,52130,1,0,0:0:0:0:
192,152,52241,1,0,0:0:0:0:
192,152,52685,1,8,0:0:0:0:
192,152,52908,1,8,0:0:0:0:
192,152,53130,1,0,0:0:0:0:
192,152,53352,1,8,0:0:0:0:
192,152,53574,1,8,0:0:0:0:
192,152,53685,1,8,0:0:0:0:
192,152,53908,1,8,0:0:0:0:
192,152,54019,1,8,0:0:0:0:
160,168,54352,1,0,0:0:0:0:
160,168,54463,1,0,0:0:0:0:
160,168,54574,1,0,0:0:0:0:
160,168,54685,1,8,0:0:0:0:
160,168,54796,1,8,0:0:0:0:
160,168,54908,1,8,0:0:0:0:
216,168,55130,1,0,0:0:0:0:
192,152,55352,1,0,0:0:0:0:
192,152,55463,1,0,0:0:0:0:
192,152,55685,1,0,0:0:0:0:
192,152,55796,1,0,0:0:0:0:
192,152,56241,1,8,0:0:0:0:
192,152,56463,1,8,0:0:0:0:
192,152,56685,1,0,0:0:0:0:
192,152,56907,1,8,0:0:0:0:
192,152,57130,1,8,0:0:0:0:
192,152,57241,1,8,0:0:0:0:
192,152,57463,1,8,0:0:0:0:
192,152,57574,1,8,0:0:0:0:
192,152,58019,1,0,0:0:0:0:
192,152,58241,1,0,0:0:0:0:
192,152,58463,1,8,0:0:0:0:
192,152,58685,1,0,0:0:0:0:
192,152,58907,1,0,0:0:0:0:
192,152,59019,1,0,0:0:0:0:
192,152,59241,1,0,0:0:0:0:
192,152,59352,1,0,0:0:0:0:
192,152,59796,1,8,0:0:0:0:
192,152,60019,1,8,0:0:0:0:
192,152,60241,1,0,0:0:0:0:
192,152,60463,1,8,0:0:0:0:
192,152,60685,1,8,0:0:0:0:
192,152,60796,1,8,0:0:0:0:
192,152,61019,1,8,0:0:0:0:
192,152,61130,1,8,0:0:0:0:
160,168,61463,1,0,0:0:0:0:
160,168,61574,1,0,0:0:0:0:
160,168,61685,1,0,0:0:0:0:
160,168,61796,1,8,0:0:0:0:
160,168,61907,1,8,0:0:0:0:
160,168,62019,1,8,0:0:0:0:
200,168,62241,1,4,0:0:0:0:
200,168,62685,1,0,0:0:0:0:
200,168,62834,1,0,0:0:0:0:
200,168,62982,1,0,0:0:0:0:
200,168,63130,1,0,0:0:0:0:
200,168,63574,1,0,0:0:0:0:
200,168,63722,1,0,0:0:0:0:
200,168,63871,1,0,0:0:0:0:
200,168,64019,1,0,0:0:0:0:
200,168,64463,1,0,0:0:0:0:
200,168,64611,1,0,0:0:0:0:
200,168,64759,1,0,0:0:0:0:
200,168,64908,1,0,0:0:0:0:
200,168,65204,1,8,0:0:0:0:
200,168,65352,1,0,0:0:0:0:
200,168,65500,1,0,0:0:0:0:
200,168,65648,1,0,0:0:0:0:
200,168,65796,1,0,0:0:0:0:
200,168,66241,1,0,0:0:0:0:
200,168,66389,1,0,0:0:0:0:
200,168,66537,1,0,0:0:0:0:
200,168,66685,1,0,0:0:0:0:
200,168,67130,1,0,0:0:0:0:
200,168,67278,1,0,0:0:0:0:
200,168,67426,1,0,0:0:0:0:
200,168,67574,1,0,0:0:0:0:
200,168,68019,1,0,0:0:0:0:
200,168,68167,1,0,0:0:0:0:
200,168,68315,1,0,0:0:0:0:
192,152,68463,1,8,0:0:0:0:
200,168,68611,1,8,0:0:0:0:
200,168,68760,1,8,0:0:0:0:
200,168,68908,1,0,0:0:0:0:
200,168,69056,1,0,0:0:0:0:
200,168,69204,1,0,0:0:0:0:
200,168,69352,1,0,0:0:0:0:
200,168,69796,1,0,0:0:0:0:
200,168,69945,1,0,0:0:0:0:
200,168,70093,1,0,0:0:0:0:
200,168,70241,1,0,0:0:0:0:
200,168,70685,1,0,0:0:0:0:
200,168,70834,1,0,0:0:0:0:
200,168,70982,1,0,0:0:0:0:
200,168,71130,1,0,0:0:0:0:
200,168,71574,1,0,0:0:0:0:
200,168,71722,1,0,0:0:0:0:
200,168,71871,1,0,0:0:0:0:
200,168,72019,1,0,0:0:0:0:
200,168,72315,1,8,0:0:0:0:
200,168,72463,1,0,0:0:0:0:
200,168,72611,1,0,0:0:0:0:
200,168,72759,1,0,0:0:0:0:
200,168,72908,1,0,0:0:0:0:
200,168,73352,1,0,0:0:0:0:
200,168,73500,1,0,0:0:0:0:
200,168,73648,1,0,0:0:0:0:
200,168,73796,1,0,0:0:0:0:
200,168,74241,1,0,0:0:0:0:
200,168,74389,1,0,0:0:0:0:
200,168,74537,1,0,0:0:0:0:
256,192,74685,12,0,76019,0:0:0:0:
232,200,76463,5,4,0:0:0:0:
232,200,76574,1,4,0:0:0:0:
232,200,76796,1,4,0:0:0:0:
232,200,76907,1,4,0:0:0:0:
232,200,77129,1,4,0:0:0:0:
232,200,77240,1,4,0:0:0:0:
232,200,77463,1,4,0:0:0:0:
232,200,77574,1,4,0:0:0:0:
232,200,77796,1,12,0:0:0:0:
176,144,78129,1,4,0:0:0:0:
176,144,78351,1,0,0:0:0:0:
176,144,78463,1,8,0:0:0:0:
176,144,78574,1,0,0:0:0:0:
176,144,78685,1,0,0:0:0:0:
176,144,78796,1,0,0:0:0:0:
176,144,78851,1,0,0:0:0:0:
176,144,78907,1,8,0:0:0:0:
176,144,79018,1,0,0:0:0:0:
176,144,79129,1,0,0:0:0:0:
176,144,79240,1,8,0:0:0:0:
176,144,79296,1,8,0:0:0:0:
176,144,79351,1,8,0:0:0:0:
176,144,79463,1,8,0:0:0:0:
176,144,79574,1,0,0:0:0:0:
176,144,79685,1,0,0:0:0:0:
176,144,79796,1,8,0:0:0:0:
176,144,79907,1,4,0:0:0:0:
232,136,80129,1,0,0:0:0:0:
232,136,80240,1,8,0:0:0:0:
232,136,80351,1,0,0:0:0:0:
232,136,80463,1,0,0:0:0:0:
232,136,80518,1,8,0:0:0:0:
232,136,80574,1,0,0:0:0:0:
232,136,80629,1,0,0:0:0:0:
232,136,80685,1,8,0:0:0:0:
232,136,80796,1,0,0:0:0:0:
232,136,80907,1,0,0:0:0:0:
232,136,81018,1,0,0:0:0:0:
232,136,81074,1,0,0:0:0:0:
232,136,81129,1,8,0:0:0:0:
232,136,81240,1,0,0:0:0:0:
232,136,81351,1,8,0:0:0:0:
232,136,81407,1,8,0:0:0:0:
232,136,81463,1,8,0:0:0:0:
232,136,81574,1,8,0:0:0:0:
232,136,81685,1,4,0:0:0:0:
192,200,81907,1,0,0:0:0:0:
192,200,82018,1,8,0:0:0:0:
192,200,82129,1,0,0:0:0:0:
192,200,82240,1,0,0:0:0:0:
192,200,82296,1,0,0:0:0:0:
192,200,82351,1,0,0:0:0:0:
192,200,82463,1,8,0:0:0:0:
192,200,82574,1,0,0:0:0:0:
192,200,82685,1,8,0:0:0:0:
248,136,82740,1,8,0:0:0:0:
192,200,82796,1,8,0:0:0:0:
192,200,82907,1,0,0:0:0:0:
192,200,83018,1,8,0:0:0:0:
192,200,83129,1,0,0:0:0:0:
192,200,83184,1,0,0:0:0:0:
192,200,83240,1,0,0:0:0:0:
192,200,83351,1,8,0:0:0:0:
192,200,83463,1,4,0:0:0:0:
200,224,83685,1,0,0:0:0:0:
200,224,83796,1,0,0:0:0:0:
200,224,83907,1,8,0:0:0:0:
200,224,84018,1,0,0:0:0:0:
200,224,84074,1,0,0:0:0:0:
200,224,84129,1,0,0:0:0:0:
200,224,84185,1,0,0:0:0:0:
200,224,84240,1,8,0:0:0:0:
200,224,84351,1,0,0:0:0:0:
272,96,84574,1,0,0:0:0:0:
272,96,84685,1,8,0:0:0:0:
272,96,84796,1,0,0:0:0:0:
272,96,84907,1,8,0:0:0:0:
208,152,85129,1,8,0:0:0:0:
144,184,85240,1,4,0:0:0:0:
0,48,85351,1,0,0:0:0:0:
34,48,85406,1,0,0:0:0:0:
69,52,85462,1,0,0:0:0:0:
103,59,85517,1,0,0:0:0:0:
137,69,85573,1,8,0:0:0:0:
170,80,85628,1,8,0:0:0:0:
203,92,85684,1,8,0:0:0:0:
235,106,85739,1,8,0:0:0:0:
268,119,85795,1,0,0:0:0:0:
300,132,85851,1,0,0:0:0:0:
333,143,85906,1,0,0:0:0:0:
368,150,85962,1,0,0:0:0:0:
402,146,86017,1,8,0:0:0:0:
390,119,86073,1,8,0:0:0:0:
358,106,86128,1,8,0:0:0:0:
323,102,86184,1,8,0:0:0:0:
288,104,86239,1,0,0:0:0:0:
255,113,86295,1,0,0:0:0:0:
224,130,86351,1,8,0:0:0:0:
200,155,86406,1,8,0:0:0:0:
190,188,86462,1,0,0:0:0:0:
196,222,86517,1,0,0:0:0:0:
216,251,86573,1,8,0:0:0:0:
245,268,86628,1,8,0:0:0:0:
257,236,86684,1,0,0:0:0:0:
259,201,86739,1,0,0:0:0:0:
255,167,86795,1,0,0:0:0:0:
240,135,86851,1,0,0:0:0:0:
214,113,86906,1,8,0:0:0:0:
235,106,87018,1,4,0:0:0:0:
216,160,87129,1,8,0:0:0:0:
203,92,87184,1,8,0:0:0:0:
170,80,87240,1,0,0:0:0:0:
137,69,87295,1,0,0:0:0:0:
103,59,87351,1,0,0:0:0:0:
69,52,87406,1,0,0:0:0:0:
34,48,87462,1,8,0:0:0:0:
0,48,87517,1,8,0:0:0:0:
323,102,87573,1,0,0:0:0:0:
358,106,87629,1,0,0:0:0:0:
390,119,87684,1,0,0:0:0:0:
402,146,87740,1,0,0:0:0:0:
368,150,87795,1,8,0:0:0:0:
333,143,87851,1,8,0:0:0:0:
300,132,87906,1,0,0:0:0:0:
268,119,87962,1,0,0:0:0:0:
245,268,88018,1,8,0:0:0:0:
216,251,88074,1,8,0:0:0:0:
196,222,88129,1,0,0:0:0:0:
190,188,88185,1,0,0:0:0:0:
200,155,88240,1,0,0:0:0:0:
224,130,88296,1,0,0:0:0:0:
255,113,88350,1,8,0:0:0:0:
288,104,88406,1,8,0:0:0:0:
257,236,88462,1,0,0:0:0:0:
259,201,88517,1,0,0:0:0:0:
255,167,88573,1,0,0:0:0:0:
240,135,88629,1,0,0:0:0:0:
214,113,88684,1,8,0:0:0:0:
145,102,88796,1,12,0:0:0:0:
350,3,88906,1,0,0:0:0:0:
315,4,88962,1,0,0:0:0:0:
280,6,89017,1,0,0:0:0:0:
245,7,89073,1,0,0:0:0:0:
210,9,89128,1,8,0:0:0:0:
175,10,89184,1,8,0:0:0:0:
140,12,89239,1,8,0:0:0:0:
105,13,89295,1,8,0:0:0:0:
70,13,89351,1,0,0:0:0:0:
35,14,89406,1,0,0:0:0:0:
0,13,89462,1,0,0:0:0:0:
0,11,89517,1,0,0:0:0:0:
0,12,89573,1,8,0:0:0:0:
0,47,89628,1,8,0:0:0:0:
0,81,89684,1,8,0:0:0:0:
0,116,89739,1,8,0:0:0:0:
0,150,89795,1,0,0:0:0:0:
0,184,89851,1,0,0:0:0:0:
0,217,89906,1,0,0:0:0:0:
0,251,89962,1,0,0:0:0:0:
5,283,90017,1,8,0:0:0:0:
21,314,90073,1,0,0:0:0:0:
42,342,90128,1,0,0:0:0:0:
71,361,90184,1,0,0:0:0:0:
106,364,90239,1,8,0:0:0:0:
184,184,90296,1,0,0:0:0:0:
184,184,90351,1,0,0:0:0:0:
184,184,90407,1,8,0:0:0:0:
184,184,90462,1,8,0:0:0:0:
184,184,90574,1,12,0:0:0:0:
208,184,90796,1,0,0:0:0:0:
208,184,90907,1,8,0:0:0:0:
208,184,91018,1,8,0:0:0:0:
208,184,91129,1,0,0:0:0:0:
208,184,91185,1,0,0:0:0:0:
208,184,91240,1,0,0:0:0:0:
208,184,91296,1,0,0:0:0:0:
208,184,91351,1,8,0:0:0:0:
208,184,91462,1,8,0:0:0:0:
208,184,91574,1,0,0:0:0:0:
208,184,91629,1,8,0:0:0:0:
208,184,91685,1,8,0:0:0:0:
208,184,91740,1,8,0:0:0:0:
208,184,91796,1,0,0:0:0:0:
208,184,91851,1,8,0:0:0:0:
208,184,91907,1,0,0:0:0:0:
208,184,92018,1,8,0:0:0:0:
128,144,92055,1,8,0:0:0:0:
208,184,92092,1,8,0:0:0:0:
208,184,92129,1,0,0:0:0:0:
208,184,92185,1,8,0:0:0:0:
208,184,92240,1,0,0:0:0:0:
176,144,92351,1,4,0:0:0:0:
176,144,92573,1,0,0:0:0:0:
176,144,92685,1,8,0:0:0:0:
176,144,92796,1,0,0:0:0:0:
176,144,92907,1,0,0:0:0:0:
176,144,93018,1,0,0:0:0:0:
176,144,93073,1,0,0:0:0:0:
176,144,93129,1,8,0:0:0:0:
176,144,93240,1,0,0:0:0:0:
176,144,93351,1,0,0:0:0:0:
176,144,93462,1,8,0:0:0:0:
176,144,93518,1,8,0:0:0:0:
176,144,93573,1,8,0:0:0:0:
176,144,93685,1,8,0:0:0:0:
176,144,93796,1,0,0:0:0:0:
176,144,93907,1,0,0:0:0:0:
176,144,94018,1,8,0:0:0:0:
176,144,94129,1,4,0:0:0:0:
232,136,94351,1,0,0:0:0:0:
232,136,94462,1,8,0:0:0:0:
232,136,94573,1,0,0:0:0:0:
232,136,94685,1,0,0:0:0:0:
232,136,94740,1,8,0:0:0:0:
232,136,94796,1,0,0:0:0:0:
232,136,94851,1,0,0:0:0:0:
232,136,94907,1,8,0:0:0:0:
232,136,95018,1,0,0:0:0:0:
232,136,95129,1,0,0:0:0:0:
232,136,95240,1,0,0:0:0:0:
232,136,95296,1,0,0:0:0:0:
232,136,95351,1,8,0:0:0:0:
232,136,95462,1,0,0:0:0:0:
232,136,95573,1,8,0:0:0:0:
232,136,95629,1,8,0:0:0:0:
232,136,95685,1,8,0:0:0:0:
232,136,95796,1,8,0:0:0:0:
232,136,95907,1,4,0:0:0:0:
192,200,96129,1,0,0:0:0:0:
192,200,96240,1,8,0:0:0:0:
192,200,96351,1,0,0:0:0:0:
192,200,96462,1,0,0:0:0:0:
192,200,96518,1,0,0:0:0:0:
192,200,96573,1,0,0:0:0:0:
192,200,96685,1,8,0:0:0:0:
192,200,96796,1,0,0:0:0:0:
192,200,96907,1,8,0:0:0:0:
248,136,96962,1,8,0:0:0:0:
192,200,97018,1,8,0:0:0:0:
192,200,97129,1,0,0:0:0:0:
192,200,97240,1,8,0:0:0:0:
192,200,97351,1,0,0:0:0:0:
192,200,97406,1,0,0:0:0:0:
192,200,97462,1,0,0:0:0:0:
192,200,97573,1,8,0:0:0:0:
192,200,97685,1,4,0:0:0:0:
200,224,97907,1,0,0:0:0:0:
200,224,98018,1,0,0:0:0:0:
200,224,98129,1,8,0:0:0:0:
200,224,98240,1,0,0:0:0:0:
200,224,98296,1,0,0:0:0:0:
200,224,98351,1,0,0:0:0:0:
200,224,98407,1,0,0:0:0:0:
200,224,98462,1,8,0:0:0:0:
200,224,98573,1,0,0:0:0:0:
272,96,98796,1,0,0:0:0:0:
272,96,98907,1,8,0:0:0:0:
272,96,99018,1,8,0:0:0:0:
272,96,99129,1,0,0:0:0:0:
272,96,99240,1,8,0:0:0:0:
208,152,99351,1,8,0:0:0:0:
0,48,99463,1,4,0:0:0:0:
272,216,99685,1,0,0:0:0:0:
272,216,99796,1,8,0:0:0:0:
272,216,99907,1,0,0:0:0:0:
272,216,100018,1,0,0:0:0:0:
200,168,100055,1,0,0:0:0:0:
272,216,100092,1,0,0:0:0:0:
272,216,100129,1,0,0:0:0:0:
272,216,100240,1,8,0:0:0:0:
272,216,100351,1,4,0:0:0:0:
272,216,100574,1,0,0:0:0:0:
272,216,100685,1,8,0:0:0:0:
272,216,100796,1,0,0:0:0:0:
272,216,100907,1,8,0:0:0:0:
136,184,100944,1,8,0:0:0:0:
272,216,100981,1,8,0:0:0:0:
272,216,101018,1,8,0:0:0:0:
272,216,101129,1,8,0:0:0:0:
272,216,101240,1,4,0:0:0:0:
272,216,101462,1,0,0:0:0:0:
272,216,101574,1,8,0:0:0:0:
272,216,101685,1,0,0:0:0:0:
272,216,101796,1,0,0:0:0:0:
144,176,101833,1,0,0:0:0:0:
272,216,101870,1,0,0:0:0:0:
272,216,101907,1,8,0:0:0:0:
272,216,102018,1,8,0:0:0:0:
272,216,102129,1,4,0:0:0:0:
272,216,102351,1,0,0:0:0:0:
272,216,102462,1,8,0:0:0:0:
272,216,102574,1,0,0:0:0:0:
272,216,102685,1,8,0:0:0:0:
160,152,102722,1,8,0:0:0:0:
272,216,102759,1,8,0:0:0:0:
272,216,102796,1,0,0:0:0:0:
272,216,102907,1,8,0:0:0:0:
272,216,103018,1,4,0:0:0:0:
272,168,103240,1,0,0:0:0:0:
272,168,103351,1,8,0:0:0:0:
272,168,103462,1,0,0:0:0:0:
272,168,103574,1,0,0:0:0:0:
56,160,103611,1,0,0:0:0:0:
96,96,103648,1,8,0:0:0:0:
272,168,103685,1,8,0:0:0:0:
272,168,103796,1,8,0:0:0:0:
272,168,103907,1,0,0:0:0:0:
192,216,104018,1,8,0:0:0:0:
192,216,104074,1,8,0:0:0:0:
192,216,104129,1,0,0:0:0:0:
192,216,104240,1,0,0:0:0:0:
192,216,104351,1,8,0:0:0:0:
192,216,104407,1,8,0:0:0:0:
192,216,104462,1,0,0:0:0:0:
224,192,104574,1,0,0:0:0:0:
224,192,104685,1,8,0:0:0:0:
224,192,104740,5,8,0:0:0:0:
256,192,104796,12,0,106240,0:0:0:0:
184,176,106685,5,4,0:0:0:0:
184,176,106796,1,4,0:0:0:0:
184,176,107018,1,4,0:0:0:0:
184,176,107129,1,4,0:0:0:0:
184,176,107351,1,4,0:0:0:0:
184,176,107462,1,4,0:0:0:0:
184,176,107685,1,4,0:0:0:0:
184,176,107796,1,4,0:0:0:0:
184,176,108018,1,12,0:0:0:0:
184,176,108240,1,12,0:0:0:0:
184,176,108462,1,4,0:0:0:0:
184,176,108574,1,12,0:0:0:0:
184,176,108796,1,4,0:0:0:0:
184,176,108907,1,12,0:0:0:0:
184,176,109129,1,4,0:0:0:0:
184,176,109240,1,12,0:0:0:0:
