osu file format v14

[General]
AudioFilename: Hakana.mp3
AudioLeadIn: 0
PreviewTime: 758
Countdown: 0
SampleSet: Soft
StackLeniency: 0.7
Mode: 2
LetterboxInBreaks: 0
WidescreenStoryboard: 0

[Editor]
DistanceSpacing: 1
BeatDivisor: 2
GridSize: 4
TimelineZoom: 1

[Metadata]
Title:sweets parade
TitleUnicode:sweets parade
Artist:Roromiya Karuta(Hanazawa Kana)
ArtistUnicode:髏々宮 カルタ(花澤香奈)
Creator:-[ Asuna ]-
Version:Salad
Source:妖狐×僕SS
Tags:youko inu x boku secret service ending ury chi-mey ookubo tomohiro 大久保友裕 tv size ver
BeatmapID:1469269
BeatmapSetID:470336

[Difficulty]
HPDrainRate:4
CircleSize:3
OverallDifficulty:6.5
ApproachRate:6.5
SliderMultiplier:1.2
SliderTickRate:1

[Events]
//Background and Video events
0,0,"SPBG.jpg",0,0
//Break Periods
//Storyboard Layer 0 (Background)
//Storyboard Layer 1 (Fail)
//Storyboard Layer 2 (Pass)
//Storyboard Layer 3 (Foreground)
//Storyboard Sound Samples

[TimingPoints]
831,291.26213592233,4,2,0,55,1,0
10151,-100,4,2,0,40,0,0
47432,-100,4,2,0,25,0,0
56753,-100,4,2,0,70,0,1
74811,-100,4,2,0,70,0,0

[Colours]
Combo1 : 213,69,0
Combo2 : 255,100,100
Combo3 : 255,106,255

[HitObjects]
192,312,831,5,0,0:0:0:0:
312,304,1122,1,0,0:0:0:0:
192,312,1413,2,0,P|168:248|176:196,1,120
220,152,1850,1,0,0:0:0:0:
340,152,2141,2,0,P|376:104|368:48,1,120
308,48,2578,2,0,L|188:48,1,120
44,196,3161,6,0,L|164:196,1,120
284,196,3743,2,0,L|160:196,1,120
224,196,4180,2,0,L|344:196,2,120
164,196,4908,1,0,0:0:0:0:
284,196,5199,1,0,0:0:0:0:
428,199,5491,6,0,P|440:141|428:84,1,120
308,64,6073,2,0,P|248:76|192:64,1,120
191,63,6510,1,0,0:0:0:0:
311,199,6801,2,0,P|371:187|427:199,1,120
427,200,7238,1,0,0:0:0:0:
308,256,7530,1,0,0:0:0:0:
68,256,7821,6,0,L|192:256,2,120
188,256,8695,1,0,0:0:0:0:
248,256,8840,2,0,L|368:256,2,120
188,256,9568,2,0,L|128:256,2,60
432,260,10151,6,0,P|456:200|428:152,1,120
376,136,10588,2,0,L|252:148,1,120
196,156,11025,1,0,0:0:0:0:
316,224,11316,1,0,0:0:0:0:
196,284,11607,1,0,0:0:0:0:
75,239,11898,2,0,P|55:184|75:129,1,120
220,120,12481,6,0,L|340:120,1,120
220,120,13064,2,0,L|96:120,1,120
160,120,13500,2,0,L|280:120,2,120
100,120,14229,1,0,0:0:0:0:
220,124,14520,1,0,0:0:0:0:
364,128,14811,6,0,P|380:192|368:248,1,120
248,284,15394,2,0,P|188:268|128:280,2,120
368,268,16267,1,0,0:0:0:0:
248,284,16559,2,0,P|227:229|252:175,1,120
492,192,17141,6,0,L|372:172,1,120
252,172,17724,2,0,L|380:160,1,120
432,156,18161,1,0,0:0:0:0:
252,172,18597,1,0,0:0:0:0:
132,156,18889,1,0,0:0:0:0:
132,156,19180,1,0,0:0:0:0:
372,312,19471,6,0,P|380:248|368:192,1,120
248,200,20054,2,0,L|364:160,1,120
416,140,20491,1,0,0:0:0:0:
248,80,20928,1,0,0:0:0:0:
128,100,21219,2,0,L|64:104,2,60
248,80,21801,6,0,L|372:96,1,120
248,80,22384,2,0,L|124:96,1,120
68,103,22821,2,0,L|192:115,2,120
8,92,23549,1,0,0:0:0:0:
128,96,23840,1,0,0:0:0:0:
248,104,24131,6,0,P|264:164|244:224,1,120
132,244,24714,2,0,L|260:232,1,120
372,220,25297,2,0,L|248:208,2,120
492,200,26170,1,0,0:0:0:0:
248,288,26462,6,0,P|232:224|248:172,1,120
368,164,27044,2,0,L|252:128,1,120
196,112,27481,1,0,0:0:0:0:
316,112,27772,2,0,L|380:112,2,60
256,112,28209,2,0,L|132:112,1,120
256,112,28792,6,0,P|272:176|256:232,1,120
140,244,29374,2,0,L|264:252,2,120
20,228,30248,1,0,0:0:0:0:
136,204,30539,1,0,0:0:0:0:
252,236,30830,1,0,0:0:0:0:
135,203,31122,6,0,P|123:145|139:88,1,120
256,64,31704,2,0,L|376:72,1,120
316,76,32141,2,0,L|192:88,2,120
376,72,32869,1,0,0:0:0:0:
492,100,33161,1,0,0:0:0:0:
376,124,33452,6,0,P|360:184|372:240,1,120
488,264,34034,2,0,L|360:252,1,120
248,264,34617,2,0,L|120:252,1,120
248,264,35199,1,0,0:0:0:0:
248,264,35491,1,0,0:0:0:0:
488,208,35782,6,0,P|504:151|486:94,1,120
368,72,36364,2,0,L|240:60,1,120
188,52,36801,1,0,0:0:0:0:
308,48,37093,2,0,L|372:44,2,60
248,52,37530,2,0,L|116:64,1,120
252,140,38112,6,0,P|264:198|251:256,1,120
188,292,38549,2,0,P|248:268|308:280,1,120
356,300,38986,1,0,0:0:0:0:
476,280,39277,1,0,0:0:0:0:
364,240,39568,1,0,0:0:0:0:
243,267,39860,2,0,P|231:209|246:151,1,120
364,128,40442,6,0,L|240:100,1,120
188,88,40879,2,0,L|316:80,1,120
368,76,41316,1,0,0:0:0:0:
248,60,41607,1,0,0:0:0:0:
128,72,41898,1,0,0:0:0:0:
16,120,42190,2,0,L|16:180,2,60
128,72,42772,6,0,P|152:136|140:188,1,120
28,268,43355,2,0,P|85:253|144:261,1,120
200,285,43792,1,0,0:0:0:0:
380,252,44229,1,0,0:0:0:0:
264,232,44520,1,0,0:0:0:0:
380,164,44811,1,0,0:0:0:0:
140,88,45102,6,0,P|120:156|136:212,1,120
252,212,45685,2,0,P|272:280|256:336,1,120
200,368,46122,2,0,L|328:344,1,120
376,332,46559,1,0,0:0:0:0:
268,280,46850,1,0,0:0:0:0:
152,304,47141,1,0,0:0:0:0:
392,284,47432,6,0,P|444:232|316:32,1,360
200,40,48597,2,0,P|327:148|462:50,1,360
339,55,49763,6,0,P|315:115|323:175,1,120
440,188,50345,2,0,L|321:169,1,120
204,196,50928,2,0,L|84:180,1,120
200,212,51510,2,0,L|264:212,1,60
320,212,51801,1,0,0:0:0:0:
80,348,52093,6,0,P|22:190|151:81,1,360
272,72,53258,2,0,P|246:210|168:93,1,360
288,76,54423,6,0,P|324:132|328:188,1,120
272,200,54860,2,0,L|144:204,1,120
92,208,55297,1,0,0:0:0:0:
92,208,55442,1,0,0:0:0:0:
212,204,55733,1,0,0:0:0:0:
332,204,56025,1,0,0:0:0:0:
332,204,56170,2,0,L|312:76,1,120
192,80,56753,6,0,P|168:140|180:200,1,120
296,264,57335,2,0,L|420:252,1,120
356,244,57772,2,0,L|216:240,2,120
416,248,58500,1,0,0:0:0:0:
300,168,58792,1,0,0:0:0:0:
420,164,59083,6,0,P|440:108|432:48,1,120
312,36,59665,2,0,L|188:36,1,120
132,36,60102,1,0,0:0:0:0:
252,36,60394,2,0,P|273:90|269:149,1,120
220,196,60830,1,0,0:0:0:0:
336,240,61122,1,0,0:0:0:0:
220,264,61413,6,0,P|148:276|96:260,1,120
224,264,61996,2,0,P|296:252|348:268,1,120
396,292,62432,2,0,L|424:160,2,120
380,352,63161,1,0,0:0:0:0:
260,344,63452,1,0,0:0:0:0:
20,340,63743,6,0,P|4:280|20:224,1,120
140,208,64326,2,0,P|156:148|140:92,1,120
92,44,64763,1,0,0:0:0:0:
212,28,65054,2,0,P|276:44|340:24,1,120
384,16,65491,2,0,L|396:80,2,60
264,24,66073,5,0,0:0:0:0:
148,48,66364,1,0,0:0:0:0:
268,60,66656,2,0,P|288:120|276:180,1,120
224,204,67093,2,0,L|96:192,2,120
284,212,67821,1,0,0:0:0:0:
404,228,68112,1,0,0:0:0:0:
288,252,68403,6,0,L|164:256,1,120
52,288,68986,2,0,L|172:284,1,120
232,284,69423,2,0,L|104:288,2,120
292,284,70151,1,0,0:0:0:0:
412,276,70442,1,0,0:0:0:0:
292,284,70733,6,0,P|276:224|292:164,1,120
404,132,71316,2,0,L|284:104,1,120
228,88,71753,1,0,0:0:0:0:
107,76,72044,2,0,P|84:130|91:189,1,120
120,244,72481,1,0,0:0:0:0:
236,268,72772,1,0,0:0:0:0:
476,276,73064,6,0,L|364:232,2,120
416,276,73792,1,0,0:0:0:0:
296,344,74083,2,0,L|172:344,2,120
356,344,74811,2,0,L|416:344,2,60
112,352,75394,6,0,P|100:280|116:232,1,120
232,220,75976,2,0,P|244:148|228:100,1,120
100,88,76559,2,0,L|220:88,1,120
340,168,77141,2,0,L|220:168,1,120
340,168,77724,6,0,L|460:168,2,120
220,188,78597,1,0,0:0:0:0:
100,192,78889,2,0,P|85:249|93:308,1,120
212,316,79471,2,0,L|336:308,1,120
212,316,80054,5,0,0:0:0:0:
92,312,80345,1,0,0:0:0:0:
212,316,80636,2,0,P|228:256|212:192,1,120
164,172,81073,2,0,L|44:184,2,120
224,164,81801,1,0,0:0:0:0:
344,144,82093,1,0,0:0:0:0:
224,164,82384,6,0,P|208:232|220:288,1,120
336,268,82966,2,0,L|464:252,1,120
396,240,83403,2,0,L|272:256,2,120
456,228,84131,1,0,0:0:0:0:
336,208,84423,1,0,0:0:0:0:
216,228,84714,6,0,P|200:168|216:112,1,120
336,104,85297,2,0,L|208:80,1,120
160,76,85733,1,0,0:0:0:0:
280,72,86025,1,0,0:0:0:0:
160,76,86316,2,0,L|92:72,2,60
220,84,86753,1,0,0:0:0:0:
460,92,87044,5,0,0:0:0:0:
340,88,87335,2,0,P|336:152|356:207,1,120
296,216,87772,1,0,0:0:0:0:
176,224,88064,1,0,0:0:0:0:
296,216,88355,2,0,L|356:216,2,60
236,216,88792,1,0,0:0:0:0:
