osu file format v14

[General]
AudioFilename: Hakana.mp3
AudioLeadIn: 0
PreviewTime: 758
Countdown: 0
SampleSet: Soft
StackLeniency: 0.7
Mode: 2
LetterboxInBreaks: 0
WidescreenStoryboard: 0

[Editor]
DistanceSpacing: 1
BeatDivisor: 2
GridSize: 4
TimelineZoom: 1

[Metadata]
Title:sweets parade
TitleUnicode:sweets parade
Artist:Roromiya Karuta(Hanazawa Kana)
ArtistUnicode:髏々宮 カルタ(花澤香奈)
Creator:-[ Asuna ]-
Version:Platter
Source:妖狐×僕SS
Tags:youko inu x boku secret service ending ury chi-mey ookubo tomohiro 大久保友裕 tv size ver
BeatmapID:1469268
BeatmapSetID:470336

[Difficulty]
HPDrainRate:5
CircleSize:3.5
OverallDifficulty:7.6
ApproachRate:7.6
SliderMultiplier:1.3
SliderTickRate:1

[Events]
//Background and Video events
0,0,"SPBG.jpg",0,0
//Break Periods
//Storyboard Layer 0 (Background)
//Storyboard Layer 1 (Fail)
//Storyboard Layer 2 (Pass)
//Storyboard Layer 3 (Foreground)
//Storyboard Sound Samples

[TimingPoints]
831,291.26213592233,4,2,0,55,1,0
10151,-100,4,2,0,40,0,0
47432,-100,4,2,0,25,0,0
56753,-100,4,2,0,70,0,1
74811,-100,4,2,0,70,0,0

[Colours]
Combo1 : 213,69,0
Combo2 : 255,100,100
Combo3 : 255,106,255

[HitObjects]
180,312,831,5,0,0:0:0:0:
308,308,1122,1,0,0:0:0:0:
112,312,1413,1,0,0:0:0:0:
240,312,1704,1,0,0:0:0:0:
308,308,1850,2,0,P|336:256|312:188,1,130
252,192,2287,1,0,0:0:0:0:
208,144,2432,1,0,0:0:0:0:
220,80,2578,1,0,0:0:0:0:
416,76,2869,1,0,0:0:0:0:
220,80,3161,6,0,P|200:144|220:204,1,130
416,208,3743,2,0,L|280:208,1,130
352,208,4180,2,0,L|484:208,2,130
288,208,4908,1,0,0:0:0:0:
160,212,5199,1,0,0:0:0:0:
288,208,5491,5,0,0:0:0:0:
416,208,5782,1,0,0:0:0:0:
216,312,6073,2,0,P|200:264|216:188,1,130
280,200,6510,2,0,L|148:172,1,130
216,172,6947,1,0,0:0:0:0:
264,128,7093,1,0,0:0:0:0:
256,64,7238,1,0,0:0:0:0:
60,64,7530,1,0,0:0:0:0:
352,64,7821,6,0,P|363:127|356:191,1,130
160,208,8403,2,0,P|148:271|155:335,1,130
220,336,8840,1,0,0:0:0:0:
348,336,9131,1,0,0:0:0:0:
220,336,9423,1,0,0:0:0:0:
164,304,9568,1,0,0:0:0:0:
140,244,9714,1,0,0:0:0:0:
164,184,9860,1,0,0:0:0:0:
424,248,10151,6,0,L|404:120,1,130
340,120,10588,2,0,P|272:132|212:120,1,130
152,92,11025,1,0,0:0:0:0:
128,32,11170,1,0,0:0:0:0:
164,88,11316,1,0,0:0:0:0:
360,32,11607,1,0,0:0:0:0:
232,36,11898,1,0,0:0:0:0:
184,80,12044,1,0,0:0:0:0:
172,144,12190,1,0,0:0:0:0:
200,204,12335,1,0,0:0:0:0:
332,308,12481,6,0,L|196:304,1,130
72,316,13064,2,0,L|48:256,1,65
128,244,13355,2,0,L|140:176,1,65
268,164,13792,2,0,P|336:176|396:160,1,130
456,136,14229,2,0,L|436:268,1,130
236,308,14811,6,0,L|172:308,1,65
236,308,15102,2,0,P|296:276|320:216,2,130
172,292,15830,1,0,0:0:0:0:
148,232,15976,1,0,0:0:0:0:
344,144,16267,1,0,0:0:0:0:
148,136,16559,1,0,0:0:0:0:
148,136,16850,1,0,0:0:0:0:
408,132,17141,6,0,L|296:212,1,130
104,252,17724,2,0,L|216:172,1,130
264,140,18161,1,0,0:0:0:0:
68,144,18597,1,0,0:0:0:0:
200,144,18889,1,0,0:0:0:0:
68,144,19180,1,0,0:0:0:0:
268,320,19471,6,0,P|288:252|264:192,1,130
140,200,20054,2,0,L|264:148,1,130
320,128,20491,1,0,0:0:0:0:
320,128,20636,1,0,0:0:0:0:
124,128,20928,1,0,0:0:0:0:
252,124,21219,1,0,0:0:0:0:
300,164,21364,1,0,0:0:0:0:
312,228,21510,1,0,0:0:0:0:
288,288,21656,1,0,0:0:0:0:
160,324,21801,5,0,0:0:0:0:
96,336,21947,2,0,P|164:352|220:336,1,130
280,308,22384,2,0,L|256:176,1,130
192,180,22821,1,0,0:0:0:0:
68,177,23112,2,0,P|130:161|191:179,1,130
256,188,23549,2,0,P|276:120|256:64,1,130
60,56,24131,6,0,P|40:120|64:180,1,130
108,224,24568,1,0,0:0:0:0:
172,244,24714,2,0,P|244:224|300:240,1,130
352,272,25151,1,0,0:0:0:0:
352,272,25297,1,0,0:0:0:0:
156,332,25588,1,0,0:0:0:0:
356,344,25879,1,0,0:0:0:0:
356,344,26170,1,0,0:0:0:0:
95,263,26462,6,0,P|83:200|99:137,1,130
296,48,27044,2,0,P|308:111|292:174,1,130
228,172,27481,1,0,0:0:0:0:
356,172,27772,1,0,0:0:0:0:
404,220,27918,1,0,0:0:0:0:
424,284,28064,1,0,0:0:0:0:
408,348,28209,2,0,L|272:344,1,130
80,348,28792,6,0,L|124:224,1,130
252,212,29374,1,0,0:0:0:0:
124,212,29665,1,0,0:0:0:0:
320,216,29957,2,0,L|452:212,1,130
320,216,30539,1,0,0:0:0:0:
288,160,30685,1,0,0:0:0:0:
296,96,30830,1,0,0:0:0:0:
344,56,30976,1,0,0:0:0:0:
472,56,31122,6,0,L|340:52,1,130
276,52,31559,1,0,0:0:0:0:
276,49,31704,1,0,0:0:0:0:
408,49,31996,1,0,0:0:0:0:
472,57,32141,2,0,L|336:49,1,130
210,48,32724,1,0,0:0:0:0:
146,56,32869,2,0,L|282:48,1,130
76,105,33452,6,0,P|52:165|76:229,1,130
136,245,33889,1,0,0:0:0:0:
180,293,34034,2,0,L|40:309,2,130
380,253,34908,1,0,0:0:0:0:
180,165,35199,1,0,0:0:0:0:
180,165,35491,1,0,0:0:0:0:
440,164,35782,6,0,L|444:296,1,130
248,300,36364,2,0,L|244:170,1,130
308,164,36801,1,0,0:0:0:0:
180,165,37093,1,0,0:0:0:0:
124,196,37238,1,0,0:0:0:0:
108,260,37384,1,0,0:0:0:0:
128,320,37530,2,0,L|268:316,1,130
456,316,38112,6,0,P|468:252|452:184,1,130
388,188,38549,2,0,L|256:184,1,130
192,184,38986,1,0,0:0:0:0:
388,188,39277,2,0,P|408:120|380:60,1,130
256,52,39860,1,0,0:0:0:0:
216,100,40005,1,0,0:0:0:0:
224,164,40151,1,0,0:0:0:0:
280,200,40297,1,0,0:0:0:0:
411,114,40442,6,0,P|438:171|412:227,1,130
344,228,40879,2,0,L|208:228,1,130
148,228,41316,1,0,0:0:0:0:
84,224,41462,1,0,0:0:0:0:
148,224,41607,1,0,0:0:0:0:
276,228,41898,1,0,0:0:0:0:
408,232,42190,2,0,L|476:232,2,65
212,236,42772,6,0,L|328:172,1,130
196,156,43355,2,0,L|156:104,1,65
76,112,43646,2,0,L|116:164,1,65
408,160,44229,1,0,0:0:0:0:
212,56,44520,1,0,0:0:0:0:
212,56,44811,1,0,0:0:0:0:
472,56,45102,6,0,P|488:124|476:184,1,130
280,224,45685,2,0,L|412:184,1,130
468,168,46122,1,0,0:0:0:0:
340,172,46413,1,0,0:0:0:0:
284,204,46559,1,0,0:0:0:0:
264,264,46704,1,0,0:0:0:0:
284,328,46850,1,0,0:0:0:0:
340,364,46996,2,0,L|408:360,2,65
80,352,47432,6,0,P|14:247|83:145,1,260
216,144,48306,1,0,0:0:0:0:
476,144,48597,2,0,L|208:144,1,260
84,144,49471,1,0,0:0:0:0:
476,144,49763,6,0,P|492:212|480:280,1,130
356,288,50345,2,0,L|256:192,1,130
104,188,50928,2,0,L|204:92,1,130
68,96,51510,2,0,L|40:160,2,65
428,72,52093,6,0,P|477:166|466:317,1,260
336,320,52966,1,0,0:0:0:0:
108,316,53258,2,0,P|48:266|106:115,1,260
232,120,54131,1,0,0:0:0:0:
496,160,54423,6,0,L|480:292,1,130
416,296,54860,2,0,P|340:272|288:288,1,130
232,308,55297,2,0,L|264:248,1,65
392,240,55733,1,0,0:0:0:0:
196,228,56025,1,0,0:0:0:0:
196,228,56170,1,0,0:0:0:0:
392,144,56462,1,0,0:0:0:0:
196,228,56753,6,0,P|176:160|196:100,1,130
392,144,57335,1,0,0:0:0:0:
260,148,57627,1,0,0:0:0:0:
196,148,57772,2,0,L|332:148,1,130
388,172,58209,1,0,0:0:0:0:
412,232,58355,1,0,0:0:0:0:
396,296,58500,1,0,0:0:0:0:
196,300,58792,1,0,0:0:0:0:
396,296,59083,6,0,L|260:296,1,130
66,300,59665,2,0,L|202:300,1,130
260,300,60102,2,0,L|128:300,1,130
64,300,60539,1,0,0:0:0:0:
24,248,60685,1,0,0:0:0:0:
44,184,60830,1,0,0:0:0:0:
172,184,61122,1,0,0:0:0:0:
44,184,61413,5,0,0:0:0:0:
172,184,61704,1,0,0:0:0:0:
368,192,61996,2,0,L|232:184,1,130
304,188,62432,1,0,0:0:0:0:
176,204,62724,1,0,0:0:0:0:
124,168,62869,1,0,0:0:0:0:
108,104,63015,1,0,0:0:0:0:
136,44,63161,1,0,0:0:0:0:
332,48,63452,1,0,0:0:0:0:
72,44,63743,6,0,P|48:112|64:168,1,130
260,184,64326,2,0,P|284:252|268:308,1,130
204,308,64763,2,0,L|60:296,1,130
140,288,65199,1,0,0:0:0:0:
192,248,65345,1,0,0:0:0:0:
216,188,65491,1,0,0:0:0:0:
88,176,65782,2,0,L|24:168,1,65
120,120,66073,6,0,L|252:104,1,130
444,136,66656,2,0,L|312:152,1,130
248,156,67093,2,0,L|384:172,1,130
312,164,67530,1,0,0:0:0:0:
248,156,67675,1,0,0:0:0:0:
184,148,67821,1,0,0:0:0:0:
380,40,68112,1,0,0:0:0:0:
184,148,68403,6,0,P|168:212|188:272,1,130
384,304,68986,1,0,0:0:0:0:
256,304,69277,1,0,0:0:0:0:
192,308,69423,2,0,P|168:248|192:184,1,130
252,176,69860,1,0,0:0:0:0:
296,128,70005,1,0,0:0:0:0:
280,64,70151,1,0,0:0:0:0:
148,64,70442,1,0,0:0:0:0:
280,64,70733,5,0,0:0:0:0:
148,64,71025,1,0,0:0:0:0:
344,64,71316,2,0,P|360:128|352:192,1,130
288,196,71753,2,0,L|152:184,1,130
224,192,72190,2,0,L|300:196,2,65
68,256,72772,1,0,0:0:0:0:
332,320,73064,6,0,L|468:292,2,130
268,332,73792,1,0,0:0:0:0:
140,328,74083,2,0,L|272:292,1,130
396,280,74665,1,0,0:0:0:0:
460,288,74811,2,0,L|324:272,1,130
32,288,75394,6,0,P|16:216|36:156,1,130
84,124,75830,1,0,0:0:0:0:
148,108,75976,2,0,L|280:112,1,130
148,108,76413,2,0,L|4:104,2,130
212,112,77141,1,0,0:0:0:0:
80,256,77432,1,0,0:0:0:0:
340,284,77724,6,0,P|352:212|332:156,1,130
272,132,78161,1,0,0:0:0:0:
208,148,78306,2,0,L|344:164,1,130
468,120,78743,2,0,L|336:104,2,130
404,112,79471,1,0,0:0:0:0:
272,92,79763,1,0,0:0:0:0:
16,112,80054,6,0,P|4:176|16:244,1,130
208,264,80636,1,0,0:0:0:0:
76,272,80928,1,0,0:0:0:0:
12,276,81073,2,0,L|142:276,1,130
208,264,81510,1,0,0:0:0:0:
252,216,81656,1,0,0:0:0:0:
244,152,81801,1,0,0:0:0:0:
48,144,82093,1,0,0:0:0:0:
248,152,82384,6,0,P|312:164|376:152,1,130
176,80,82966,2,0,P|108:72|44:88,1,130
116,112,83403,2,0,L|204:212,1,130
136,220,83840,2,0,L|68:220,2,65
268,220,84423,1,0,0:0:0:0:
464,220,84714,5,0,0:0:0:0:
336,220,85005,1,0,0:0:0:0:
140,224,85297,2,0,P|132:160|144:92,1,130
204,80,85733,2,0,L|344:80,1,130
400,80,86170,2,0,L|468:80,2,65
204,80,86753,1,0,0:0:0:0:
400,80,87044,5,0,0:0:0:0:
272,80,87335,1,0,0:0:0:0:
468,152,87627,1,0,0:0:0:0:
468,152,87772,1,0,0:0:0:0:
336,152,88064,1,0,0:0:0:0:
208,152,88355,2,0,L|140:152,2,65
468,152,88792,1,0,0:0:0:0:
