osu file format v14

[General]
AudioFilename: Hakana.mp3
AudioLeadIn: 0
PreviewTime: 758
Countdown: 0
SampleSet: Soft
StackLeniency: 0.7
Mode: 2
LetterboxInBreaks: 0
WidescreenStoryboard: 1

[Editor]
DistanceSpacing: 1
BeatDivisor: 2
GridSize: 4
TimelineZoom: 1.5

[Metadata]
Title:sweets parade
TitleUnicode:sweets parade
Artist:Roromiya Karuta(Hanazawa Kana)
ArtistUnicode:髏々宮 カルタ(花澤香奈)
Creator:-[ Asuna ]-
Version:Diabetes
Source:妖狐×僕SS
Tags:youko inu x boku secret service ending ury chi-mey ookubo tomohiro 大久保友裕 tv size ver
BeatmapID:1469267
BeatmapSetID:470336

[Difficulty]
HPDrainRate:6.5
CircleSize:4
OverallDifficulty:8.7
ApproachRate:8.7
SliderMultiplier:1.4
SliderTickRate:1

[Events]
//Background and Video events
0,0,"SPBG.jpg",0,0
//Break Periods
//Storyboard Layer 0 (Background)
//Storyboard Layer 1 (Fail)
//Storyboard Layer 2 (Pass)
//Storyboard Layer 3 (Foreground)
//Storyboard Sound Samples

[TimingPoints]
831,291.26213592233,4,2,0,55,1,0
10151,-100,4,2,0,40,0,0
47432,-100,4,2,0,25,0,0
56753,-100,4,2,0,70,0,1
74811,-100,4,2,0,70,0,0

[Colours]
Combo1 : 213,69,0
Combo2 : 255,100,100
Combo3 : 255,106,255

[HitObjects]
224,288,831,5,0,0:0:0:0:
84,208,1122,1,0,0:0:0:0:
292,152,1413,1,0,0:0:0:0:
152,112,1704,1,0,0:0:0:0:
280,76,1850,6,0,P|292:140|252:212,1,140
192,224,2287,1,0,0:0:0:0:
160,288,2432,1,0,0:0:0:0:
188,352,2578,1,0,0:0:0:0:
400,352,2869,1,0,0:0:0:0:
184,52,3161,5,0,0:0:0:0:
316,100,3452,1,0,0:0:0:0:
104,188,3743,1,0,0:0:0:0:
244,176,4034,1,0,0:0:0:0:
116,184,4180,6,0,P|104:248|136:312,1,140
224,312,4617,2,0,L|296:312,2,69.9999999999999
84,312,5199,1,0,0:0:0:0:
324,296,5491,5,0,0:0:0:0:
456,248,5782,1,0,0:0:0:0:
240,244,6073,2,0,P|220:192|248:112,1,140
388,120,6510,6,0,L|256:56,1,140
192,64,6947,1,0,0:0:0:0:
160,124,7093,1,0,0:0:0:0:
180,192,7238,1,0,0:0:0:0:
392,188,7530,1,0,0:0:0:0:
40,284,7821,6,0,L|172:240,1,140
384,240,8403,2,0,L|256:180,1,140
328,176,8840,1,0,0:0:0:0:
200,176,9131,5,0,0:0:0:0:
432,176,9423,1,0,0:0:0:0:
488,148,9568,1,0,0:0:0:0:
500,88,9714,1,0,0:0:0:0:
476,28,9860,1,0,0:0:0:0:
196,56,10151,6,0,P|156:120|176:176,1,140
316,120,10588,2,0,P|340:188|296:248,1,140
236,244,11025,5,0,0:0:0:0:
184,292,11170,1,0,0:0:0:0:
196,360,11316,1,0,0:0:0:0:
360,360,11607,1,0,0:0:0:0:
148,360,11898,5,0,0:0:0:0:
204,316,12044,1,0,0:0:0:0:
224,248,12190,1,0,0:0:0:0:
192,188,12335,1,0,0:0:0:0:
36,168,12481,6,0,L|172:120,1,140
308,120,13064,2,0,L|320:192,1,70
212,192,13355,2,0,L|200:264,1,70
412,32,13792,5,0,0:0:0:0:
204,76,14083,1,0,0:0:0:0:
204,76,14229,2,0,L|184:220,1,140
400,208,14811,5,0,0:0:0:0:
460,244,14957,1,0,0:0:0:0:
468,312,15102,2,0,P|400:296|328:320,1,140
248,336,15539,1,0,0:0:0:0:
180,348,15685,2,0,P|144:356|112:352,2,70
368,296,16267,5,0,0:0:0:0:
220,280,16559,1,0,0:0:0:0:
432,240,16850,1,0,0:0:0:0:
80,224,17141,6,0,L|60:152,1,70
168,144,17432,2,0,L|148:72,1,70
8,80,17724,2,0,L|24:152,1,70
164,144,18015,1,0,0:0:0:0:
80,144,18161,1,0,0:0:0:0:
248,144,18452,5,0,0:0:0:0:
248,144,18597,2,0,L|120:203,2,140
416,140,19471,6,0,P|464:192|424:316,1,210
340,324,20054,2,0,P|272:296|256:232,1,140
276,172,20491,1,0,0:0:0:0:
328,124,20636,1,0,0:0:0:0:
116,280,20928,1,0,0:0:0:0:
332,240,21219,5,0,0:0:0:0:
380,204,21364,1,0,0:0:0:0:
396,144,21510,1,0,0:0:0:0:
376,84,21656,1,0,0:0:0:0:
200,56,21801,5,0,0:0:0:0:
128,56,21947,2,0,P|80:120|92:176,1,140
156,200,22384,1,0,0:0:0:0:
196,260,22530,1,0,0:0:0:0:
188,328,22675,1,0,0:0:0:0:
140,380,22821,1,0,0:0:0:0:
312,344,23112,6,0,P|352:296|352:216,1,140
248,212,23549,2,0,P|228:144|264:72,1,140
396,68,23986,6,0,L|260:36,1,140
188,32,24423,1,0,0:0:0:0:
132,72,24568,1,0,0:0:0:0:
136,144,24714,1,0,0:0:0:0:
244,152,24860,1,0,0:0:0:0:
288,204,25005,1,0,0:0:0:0:
272,272,25151,1,0,0:0:0:0:
60,324,25588,6,0,L|204:324,2,140
420,284,26462,6,0,L|492:284,2,70
336,284,26898,1,0,0:0:0:0:
168,276,27044,2,0,L|288:200,1,140
356,200,27481,1,0,0:0:0:0:
140,88,27772,5,0,1:0:0:0:
88,120,27918,1,0,1:0:0:0:
80,180,28064,1,0,1:0:0:0:
236,216,28209,1,0,1:0:0:0:
292,244,28355,1,0,1:0:0:0:
308,304,28500,1,0,1:0:0:0:
284,360,28646,1,0,1:0:0:0:
108,356,28792,6,0,L|64:300,2,70,0|0|0,1:0|0:0|0:0,0:0:0:0:
176,368,29229,1,0,0:0:0:0:
284,360,29374,2,0,P|284:288|240:240,1,140
412,180,29957,1,0,1:0:0:0:
272,168,30248,1,0,0:0:0:0:
60,116,30539,5,0,0:0:0:0:
40,176,30685,1,0,0:0:0:0:
72,228,30830,1,0,0:0:0:0:
132,240,30976,1,0,0:0:0:0:
276,204,31122,6,0,L|136:204,1,140
80,156,31559,1,0,0:0:0:0:
80,156,31704,1,0,0:0:0:0:
328,136,31996,5,0,0:0:0:0:
396,136,32141,2,0,L|252:128,1,140,0|0,1:0|1:0,0:0:0:0:
116,288,32724,1,0,1:0:0:0:
116,288,32869,1,0,1:0:0:0:
328,276,33161,1,0,0:0:0:0:
112,192,33452,6,0,L|184:192,2,70
48,216,33889,1,0,0:0:0:0:
12,276,34034,1,0,0:0:0:0:
36,344,34180,1,0,0:0:0:0:
176,340,34326,1,0,0:0:0:0:
36,344,34617,1,0,0:0:0:0:
204,92,34908,5,0,0:0:0:0:
352,188,35199,1,0,0:0:0:0:
140,204,35491,1,0,0:0:0:0:
492,240,35782,6,0,L|424:200,1,70
308,200,36073,2,0,L|372:156,1,70
488,136,36364,1,0,0:0:0:0:
388,132,36510,2,0,L|248:128,1,140
52,136,37093,5,0,1:0:0:0:
20,196,37238,1,0,1:0:0:0:
56,256,37384,1,0,1:0:0:0:
196,260,37530,2,0,L|268:260,1,70,0|0,1:0|1:0,1:0:0:0:
258,260,37821,1,0,1:0:0:0:
44,240,38112,6,0,L|192:220,1,140,0|0,1:0|0:0,0:0:0:0:
312,212,38549,2,0,L|184:152,1,140
116,148,38986,1,0,0:0:0:0:
76,204,39131,1,0,0:0:0:0:
108,268,39277,1,0,1:0:0:0:
324,80,39568,1,0,0:0:0:0:
112,92,39860,5,0,0:0:0:0:
60,124,40005,1,0,0:0:0:0:
40,184,40151,1,0,0:0:0:0:
48,248,40297,1,0,0:0:0:0:
188,264,40442,6,0,L|260:264,2,70,0|0|0,1:0|0:0|0:0,0:0:0:0:
48,248,40879,2,0,P|48:180|104:127,1,140
168,124,41316,1,0,0:0:0:0:
216,72,41462,1,0,0:0:0:0:
196,4,41607,1,0,0:0:0:0:
28,116,41898,5,0,0:0:0:0:
16,184,42044,1,0,1:0:0:0:
48,248,42190,1,0,0:0:0:0:
112,276,42335,1,0,1:0:0:0:
184,272,42481,1,0,1:0:0:0:
392,248,42772,6,0,L|248:220,1,140,0|0,1:0|0:0,0:0:0:0:
396,188,43355,2,0,L|420:120,1,70
312,120,43646,2,0,L|296:48,1,70
88,72,44229,5,0,0:0:0:0:
224,112,44520,1,0,0:0:0:0:
16,148,44811,1,0,0:0:0:0:
416,144,45102,6,0,P|440:208|412:272,1,140,0|0,1:0|0:0,0:0:0:0:
236,272,45685,2,0,P|212:212|240:144,1,140,0|0,1:0|0:0,0:0:0:0:
360,140,46122,2,0,L|216:120,1,140,0|0,1:0|0:0,0:0:0:0:
156,148,46559,5,0,0:0:0:0:
132,212,46704,1,0,0:0:0:0:
160,276,46850,1,0,0:0:0:0:
244,296,46996,2,0,L|320:296,2,70
32,312,47432,5,0,0:0:0:0:
8,248,47578,1,0,0:0:0:0:
24,180,47724,1,0,0:0:0:0:
84,144,47869,1,0,0:0:0:0:
224,128,48015,1,0,0:0:0:0:
238,197,48161,1,0,0:0:0:0:
214,264,48306,1,0,0:0:0:0:
148,293,48452,1,0,0:0:0:0:
360,336,48597,6,0,L|428:324,2,70
292,344,49034,1,0,0:0:0:0:
148,316,49180,1,0,0:0:0:0:
95,269,49326,1,0,0:0:0:0:
83,200,49471,1,0,0:0:0:0:
124,145,49617,1,0,0:0:0:0:
336,80,49763,2,0,P|336:128|264:176,1,140
56,148,50199,2,0,L|200:148,2,140
268,56,50928,5,0,0:0:0:0:
332,84,51073,1,0,0:0:0:0:
364,148,51219,1,0,0:0:0:0:
348,216,51364,1,0,0:0:0:0:
208,265,51510,2,0,L|136:252,2,70
140,253,51947,1,0,0:0:0:0:
352,312,52093,5,0,0:0:0:0:
364,244,52238,1,0,0:0:0:0:
332,184,52384,1,0,0:0:0:0:
268,160,52530,1,0,0:0:0:0:
408,248,52675,5,0,0:0:0:0:
420,180,52821,1,0,0:0:0:0:
388,120,52966,1,0,0:0:0:0:
324,96,53112,1,0,0:0:0:0:
112,340,53258,6,0,L|40:348,2,70
180,332,53695,1,0,0:0:0:0:
392,328,53840,2,0,L|323:332,1,70
392,328,54131,2,0,L|461:324,1,70
144,124,54423,6,0,P|116:192|136:252,1,140
244,244,54860,2,0,P|312:220|376:236,1,140
444,292,55297,1,0,0:0:0:0:
380,236,55442,1,0,0:0:0:0:
164,112,55733,5,0,0:0:0:0:
376,84,56025,1,0,0:0:0:0:
376,84,56170,2,0,L|388:228,1,140
172,224,56753,5,0,0:0:0:0:
312,224,57044,1,0,0:0:0:0:
100,268,57335,1,0,0:0:0:0:
236,236,57627,1,0,0:0:0:0:
104,240,57772,6,0,P|88:176|116:108,1,140
184,108,58209,2,0,L|256:108,1,70
324,108,58500,1,0,0:0:0:0:
112,112,58792,1,0,0:0:0:0:
324,108,59083,6,0,L|184:108,2,140
464,108,59957,1,0,0:0:0:0:
324,108,60102,6,0,P|292:172|332:232,1,140
392,244,60539,1,0,0:0:0:0:
436,300,60685,1,0,0:0:0:0:
424,368,60830,1,0,0:0:0:0:
208,368,61122,1,0,0:0:0:0:
424,132,61413,5,0,0:0:0:0:
284,136,61704,1,0,0:0:0:0:
72,152,61996,2,0,L|212:152,1,140
368,156,62432,2,0,L|220:156,1,140
312,156,62869,2,0,L|388:156,2,70
108,168,63452,1,0,0:0:0:0:
460,164,63743,6,0,L|320:156,1,140
108,120,64326,1,0,0:0:0:0:
248,100,64617,1,0,0:0:0:0:
108,120,64763,2,0,P|76:184|96:252,1,140
148,288,65199,1,0,0:0:0:0:
216,308,65345,1,0,0:0:0:0:
280,276,65491,1,0,0:0:0:0:
112,232,65782,1,0,0:0:0:0:
104,164,65928,1,0,0:0:0:0:
244,120,66073,5,0,0:0:0:0:
384,124,66364,1,0,0:0:0:0:
168,176,66656,1,0,0:0:0:0:
312,172,66947,1,0,0:0:0:0:
172,176,67093,2,0,P|140:240|176:296,1,140
260,300,67530,2,0,L|336:304,2,70
44,288,68112,1,0,0:0:0:0:
256,232,68403,5,0,0:0:0:0:
128,176,68695,1,0,0:0:0:0:
340,152,68986,2,0,P|376:212|340:264,1,140
200,268,69423,2,0,P|164:204|196:148,1,140
264,144,69860,1,0,0:0:0:0:
308,92,70005,1,0,0:0:0:0:
292,24,70151,1,0,0:0:0:0:
84,64,70442,1,0,0:0:0:0:
296,164,70733,6,0,L|196:272,2,140
432,164,71607,1,0,0:0:0:0:
292,164,71753,2,0,L|152:160,1,140
236,176,72190,1,0,0:0:0:0:
276,232,72335,1,0,0:0:0:0:
268,300,72481,1,0,0:0:0:0:
100,292,72772,1,0,0:0:0:0:
456,288,73064,6,0,P|472:216|440:156,1,140
232,176,73646,1,0,0:0:0:0:
148,184,73792,2,0,L|284:124,1,140
104,300,74374,1,0,0:0:0:0:
320,272,74665,1,0,0:0:0:0:
380,236,74811,1,0,0:0:0:0:
400,168,74957,1,0,0:0:0:0:
372,104,75102,1,0,0:0:0:0:
128,108,75394,5,0,0:0:0:0:
68,144,75539,1,0,0:0:0:0:
52,212,75685,1,0,0:0:0:0:
84,276,75830,1,0,0:0:0:0:
228,280,75976,2,0,L|296:264,1,70
228,280,76267,2,0,L|160:296,1,70
372,248,76559,6,0,L|440:232,1,70
372,200,76850,2,0,L|304:184,1,70
160,140,77141,1,0,0:0:0:0:
104,180,77287,1,0,0:0:0:0:
88,248,77432,1,0,0:0:0:0:
108,316,77578,1,0,0:0:0:0:
432,312,77724,5,0,0:0:0:0:
364,292,77869,1,0,0:0:0:0:
324,236,78015,1,0,0:0:0:0:
332,168,78161,1,0,0:0:0:0:
472,152,78306,2,0,L|488:80,1,70
380,92,78597,2,0,L|368:24,1,70
152,28,78889,5,0,0:0:0:0:
88,52,79034,1,0,0:0:0:0:
60,116,79180,1,0,0:0:0:0:
80,180,79326,1,0,0:0:0:0:
220,188,79471,2,0,L|160:228,1,70
56,256,79763,2,0,L|128:260,1,70
408,264,80054,6,0,L|264:264,2,140
268,268,80928,1,0,0:0:0:0:
408,264,81073,2,0,P|424:188|384:136,1,140
320,132,81510,1,0,0:0:0:0:
256,156,81656,1,0,0:0:0:0:
248,224,81801,1,0,0:0:0:0:
460,220,82093,1,0,0:0:0:0:
248,224,82384,6,0,L|108:224,1,140
320,272,82966,1,0,0:0:0:0:
180,276,83258,1,0,0:0:0:0:
320,272,83403,2,0,P|364:208|344:144,1,140
264,148,83840,2,0,L|192:148,2,70
476,156,84423,1,0,0:0:0:0:
260,232,84714,5,0,0:0:0:0:
120,232,85005,1,0,0:0:0:0:
104,164,85151,1,0,0:0:0:0:
148,112,85297,1,0,0:0:0:0:
288,104,85588,1,0,0:0:0:0:
148,112,85733,2,0,P|132:184|180:228,1,140
244,240,86170,1,0,0:0:0:0:
316,240,86316,2,0,L|280:180,1,70
136,212,86607,1,0,0:0:0:0:
84,164,86753,1,0,0:0:0:0:
100,96,86898,1,0,0:0:0:0:
348,80,87044,5,0,0:0:0:0:
208,84,87335,1,0,0:0:0:0:
420,88,87627,2,0,L|432:156,1,70
224,196,88064,1,0,0:0:0:0:
392,204,88355,2,0,L|428:264,2,70
180,196,88792,1,0,0:0:0:0:
