osu file format v7

[General]
AudioFilename: Lord Of The Dance - Cut.mp3
AudioLeadIn: 0
PreviewTime: 46820
Countdown: 0
SampleSet: Soft
StackLeniency: 0.7
Mode: 0
LetterboxInBreaks: 1

[Editor]
Bookmarks: 26349
DistanceSpacing: 0.899999976158142
BeatDivisor: 4
GridSize: 8

[Metadata]
Title:Lord Of The Dance
Artist:Ronan Hardiman & Michael Flatley
Creator:MusicBoX
Version:Normal+
Source:
Tags:stepdance dance step stepmania irish

[Difficulty]
HPDrainRate:3
CircleSize:3
OverallDifficulty:3
SliderMultiplier:0.8
SliderTickRate:1

[Events]
//Background and Video events
0,0,"Dance_by_xCyniX357.jpg"
//Break Periods
2,38734,45380
//Storyboard Layer 0 (Background)
//Storyboard Layer 1 (Fail)
//Storyboard Layer 2 (Pass)
//Storyboard Layer 3 (Foreground)
//Storyboard Sound Samples
//Background Colour Transformations
3,100,255,255,255

[TimingPoints]
1979.16782343245,243.704305442729,4,2,1,60,1,0
46820,-100,4,2,1,60,0,1
54070,-100,4,2,1,60,0,0
54131,-100,4,2,1,60,0,1
54192,-100,4,2,1,60,0,0

[Colours]
Combo1 : 255,150,0
Combo2 : 5,240,5
Combo3 : 5,5,240
Combo4 : 240,5,5

[HitObjects]
160,56,7828,2,12,B|248:8|328:64|328:64,1,160,12|8
256,112,8559,1,0
256,112,8802,2,12,B|344:160|424:104|424:104,1,160,8|8
409,112,9534,1,0
409,112,9777,2,0,B|464:128|480:176,3,80
472,224,10752,5,10
432,272,10996,1,0
368,288,11239,1,8
352,56,11727,6,0,B|264:8|184:64|184:64,1,160,0|8
256,112,12458,1,8
256,112,12702,2,0,B|168:160|88:104|88:104,1,160,0|8
102,112,13433,1,2
102,112,13676,2,0,B|48:128|32:176,3,80,2|0|8|8
40,224,14651,5,8
80,272,14895,1,8
144,288,15138,1,8
256,232,15626,6,0,B|328:184|328:184,1,80,0|0
352,128,16114,2,6,B|280:88|280:88,1,80,2|2
216,88,16601,2,8,B|216:168|216:160|184:160,1,80
136,160,17088,1,8
296,192,17576,6,0,B|224:240|224:240,1,80,0|0
200,296,18064,2,6,B|272:336|272:336,1,80,2|2
336,336,18551,2,8,B|336:256|336:264|368:264,1,80
416,264,19038,1,8
472,40,19525,5,0
408,40,19769,2,0,B|424:80|424:80,4,40,0|8|0|8|0
344,40,20500,1,0
280,40,20744,2,0,B|296:80|296:80,2,40
256,192,21475,12,8,22937
40,344,23425,6,0,B|208:344|208:344,1,160
256,344,24156,1,8
312,344,24399,2,0,B|480:344|480:344,1,160
256,192,25374,6,8,B|296:152|256:112,1,80,8|0
256,192,25862,2,8,B|216:152|176:192,1,80,8|0
256,192,26349,2,0,B|216:232|256:272,2,80
472,40,27324,6,0,B|304:40|304:40,1,160
256,40,28055,1,8
200,40,28298,2,0,B|32:40|32:40,1,160
256,192,29273,6,8,B|216:232|256:272,1,80,8|0
256,192,29761,2,8,B|296:232|336:192,1,80,8|0
256,192,30248,2,0,B|296:152|256:112,2,80
80,264,31223,6,0,B|136:336|232:328,1,160
432,264,32198,2,0,B|376:336|280:328,1,160
256,40,33173,6,0,B|200:56|192:104,1,80,2|0
256,136,33660,2,0,B|312:152|320:200,1,80,2|0
256,232,34148,2,0,B|200:248|192:296,2,80,0|8|8
80,120,35122,6,0,B|136:48|232:56,1,160
432,120,36097,2,0,B|376:48|280:56,1,160
256,344,37072,6,0,B|200:328|192:280,1,80,2|0
256,248,37559,2,0,B|312:232|320:184,1,80,2|0
256,152,38047,2,0,B|200:136|192:88,2,80,4|12|12
176,48,46820,6,10,B|48:64|184:120|112:160,1,160
336,48,47795,2,10,B|464:64|328:120|400:160,1,160
256,288,48770,6,4,B|256:240|256:240,3,40,8|0|8|8
256,208,49257,2,4,B|256:160|256:160,3,40,8|0|8|0
256,128,49745,1,0
200,80,49988,1,0
136,112,50232,1,0
336,128,50720,5,8
256,192,51207,1,0
176,128,51694,1,8
256,192,52182,1,0
400,192,52669,6,10,B|328:272|256:296|184:272|120:192|120:192,1,320
72,144,53888,1,12
48,72,54131,1,12
