osu file format v7

[General]
AudioFilename: Lord Of The Dance - Cut.mp3
AudioLeadIn: 3000
PreviewTime: 46820
Countdown: 0
SampleSet: Normal
StackLeniency: 0.7
Mode: 0
LetterboxInBreaks: 1

[Editor]
DistanceSpacing: 1
BeatDivisor: 8
GridSize: 8

[Metadata]
Title:Lord Of The Dance
Artist:Ronan Hardiman & Michael Flatley
Creator:MusicBoX
Version:GOD Of The Dance
Source:
Tags:stepdance dance step stepmania irish

[Difficulty]
HPDrainRate:2
CircleSize:4
OverallDifficulty:7
SliderMultiplier:1.5
SliderTickRate:1

[Events]
//Background and Video events
0,0,"Dance_by_xCyniX357-Neg.jpg"
//Break Periods
2,38734,43971
//Storyboard Layer 0 (Background)
//Storyboard Layer 1 (Fail)
//Storyboard Layer 2 (Pass)
//Storyboard Layer 3 (Foreground)
//Storyboard Sound Samples
//Background Colour Transformations
3,100,255,255,255

[TimingPoints]
1979.16782343245,243.704305442729,4,2,1,80,1,0
14895,-50,4,2,1,80,0,0
15626,-100,4,2,1,80,0,0
22450,-50,4,2,1,80,0,0
23425,-100,4,2,1,80,0,0
31223,-100,4,2,1,80,0,0
46820,-50,4,2,1,100,0,1
53888,-100,4,2,1,100,0,1
54131,-100,4,1,1,100,0,1
54192,-100,4,1,1,100,0,0

[Colours]
Combo1 : 255,150,0
Combo2 : 5,240,5
Combo3 : 5,5,240
Combo4 : 240,5,5

[HitObjects]
40,40,1979,1,0
184,40,2222,1,10
256,40,2344,1,0
328,40,2466,1,10
472,40,2710,1,0
472,192,2953,2,0,B|440:256|264:304|160:264,1,300
48,240,3685,1,0
472,40,3928,5,0
328,40,4172,1,10
256,40,4294,1,0
184,40,4416,1,10
40,40,4659,1,0
40,192,4902,2,0,B|72:256|248:304|352:264,1,300
464,240,5634,1,0
344,328,5878,6,0,B|272:360|200:296,1,150
128,288,6365,2,0,B|200:320|272:256,1,150
344,256,6853,2,10,B|280:208|280:208,1,75
168,256,7096,2,10,B|232:208|232:208,1,75
344,192,7340,2,10,B|280:144|280:144,1,75
168,192,7583,2,10,B|232:144|232:144,1,75
472,40,7828,6,0,B|408:56|456:128|368:144,1,150
40,40,8315,2,0,B|104:56|56:128|144:144,1,150
257,85,8681,1,0
256,120,8802,1,8
256,160,8924,1,0
256,200,9046,1,8
256,240,9168,1,0
256,280,9290,1,8
40,344,9534,5,0
56,336,9595,1,10
72,320,9656,1,0
80,304,9717,1,10
472,344,10021,5,10
456,336,10082,1,0
440,320,10143,1,10
432,304,10204,1,0
48,192,10508,2,12,B|96:144|160:248|192:208,1,150
464,192,10996,2,12,B|416:144|352:248|320:208,1,150
224,328,11727,6,0,B|328:312|216:288|288:200,1,150
288,200,12092,1,10
304,192,12214,1,0
320,184,12336,1,10
336,184,12458,1,0
352,184,12580,1,10
368,192,12702,1,0
376,200,12824,1,10
384,216,12945,1,0
392,232,13067,1,10
392,248,13189,1,0
288,328,13433,2,0,B|184:312|296:288|224:200,1,150
224,200,13798,1,8
208,192,13920,1,8
192,184,14042,1,0
176,184,14164,1,8
160,184,14286,1,8
144,192,14408,1,0
136,200,14530,1,8
128,216,14651,1,8
256,344,14895,2,14,B|256:32|256:32,1,300
256,280,15626,6,0,B|296:320|336:248|416:240,1,150
256,104,16114,2,0,B|216:64|176:136|96:144,1,150
472,112,16479,6,0,B|456:104|432:136|448:128,2,37.5
408,152,16723,1,8
336,184,16845,1,0
264,168,16966,1,8
224,104,17088,1,0
80,72,17332,5,8
32,216,17576,2,0,B|112:264|176:184|176:192,1,150
169,195,17880,2,0,B|192:160|192:160,2,37.5
189,163,18063,1,0
248,112,18185,1,0
320,88,18307,1,0
392,104,18429,1,0
480,192,18551,1,8
32,192,18794,1,6
256,344,19038,1,6
256,40,19282,2,12,B|256:192,1,150
472,336,19769,5,0
320,336,19891,1,8
472,264,20013,1,0
320,264,20135,1,8
472,192,20257,1,0
320,192,20379,1,8
472,120,20500,1,8
320,120,20622,1,8
472,48,20744,1,12
320,48,20866,1,4
168,48,20988,1,4
40,320,21231,5,8
72,344,21292,1,8
112,352,21353,1,8
152,344,21414,1,8
472,64,21719,1,0
440,40,21780,1,0
400,32,21841,1,0
360,40,21902,1,0
328,56,21962,1,0
280,112,22084,1,0
256,184,22206,1,0
240,256,22328,1,0
480,192,22450,6,6,B|144:192|144:192,1,300
32,192,22937,2,2,B|368:192|368:192,1,300,4|8
216,352,23425,5,0
312,336,23546,1,0
280,312,23668,1,0
328,264,23790,1,0
248,208,23912,1,0
400,80,24156,2,0,B|400:128|400:128,4,37.5
312,48,24521,1,0
216,40,24643,2,0,B|160:48|144:80,1,75
80,136,24887,1,0
256,216,25131,1,8
112,304,25374,6,0,B|112:256|112:256,4,37.5
200,336,25739,1,0
296,344,25861,2,0,B|352:336|368:304,1,75
432,248,26105,1,0
344,200,26227,1,0
256,168,26349,1,8
256,32,26593,5,4
256,352,26837,1,4
472,40,27324,5,2
376,40,27446,1,8
472,40,27568,1,2
376,40,27689,1,8
472,40,27811,1,2
376,40,27933,1,8
472,40,28055,1,2
376,40,28177,1,8
40,344,28299,5,0
136,344,28421,1,10
40,344,28543,1,0
136,344,28664,1,10
40,344,28786,1,0
136,344,28908,1,10
40,344,29030,1,0
136,344,29152,1,10
200,272,29274,6,0,B|240:312|280:288|280:288,1,75
312,112,29517,2,0,B|272:72|232:96|232:96,1,75
176,136,29761,6,0,B|136:176|160:216|160:216,1,75
336,248,30005,2,0,B|376:208|352:168|352:168,1,75
256,192,30248,5,0
256,216,30309,1,8
256,240,30370,1,0
256,264,30431,1,8
256,280,30492,1,12
256,32,30736,1,6
432,40,31223,6,0,B|464:72|336:120|432:192|416:200,1,150
80,40,31711,2,0,B|48:72|176:120|80:192|96:200,1,150
296,352,32076,5,0
216,352,32198,1,0
352,296,32320,1,0
160,296,32442,1,0
392,232,32564,1,0
120,232,32685,1,0
256,80,32929,2,0,B|256:32,4,37.5
400,56,33295,6,0,B|376:120|264:128,1,150
112,56,33660,2,0,B|136:120|248:128,1,150
488,152,34148,6,0,B|464:216|352:224,1,150,4|4
24,152,34635,2,0,B|48:216|160:224,1,150,4|2
256,192,35122,5,0
472,344,35366,2,0,B|464:256|464:256,1,75
416,344,35610,2,0,B|408:256|408:256,1,75
360,344,35854,2,0,B|352:256|352:256,1,75
256,192,36097,5,0
40,344,36341,2,0,B|48:256|48:256,1,75
96,344,36585,2,0,B|104:256|104:256,1,75
152,344,36829,2,0,B|160:256|160:256,1,75
480,32,37072,5,0
456,40,37133,1,0
432,32,37194,1,0
408,40,37255,1,0
384,32,37316,1,0
336,40,37438,1,0
288,32,37559,1,0
240,40,37681,1,0
192,32,37803,1,0
144,40,37925,1,0
32,192,38047,5,4
480,192,38169,1,4
80,192,38291,1,12
432,192,38412,1,12
256,192,38534,1,14
256,192,44871,12,8,46577
32,32,46820,6,0,B|360:32|360:32,1,300
480,136,47308,2,0,B|152:136|152:136,1,300
200,208,47673,2,0,B|304:328|304:328,5,150,0|8|8|8|8|0
256,32,48526,1,8
480,32,48770,6,0,B|152:32|152:32,1,300
32,136,49258,2,0,B|360:136|360:136,1,300
312,208,49623,2,0,B|208:328|208:328,5,150
256,32,50476,1,0
440,40,50720,5,0
424,80,50780,1,8
392,112,50841,1,0
352,136,50902,1,8
312,152,50963,1,0
72,40,51207,5,0
88,80,51267,1,8
120,112,51328,1,0
160,136,51389,1,8
200,152,51451,1,0
256,320,51694,5,8
256,40,51938,1,4
256,168,52060,1,4
256,40,52182,1,4
480,256,52425,2,0,B|344:192|312:360|184:216|184:216,1,300
32,128,52913,2,0,B|168:192|200:24|328:168|328:168,1,300
256,32,53278,5,0
200,80,53400,1,8
312,80,53522,1,2
160,136,53644,1,10
352,136,53766,1,2
256,192,53888,2,12,B|256:240|256:240,3,37.5
256,232,54131,1,14
