osu file format v8

[General]
AudioFilename: 07._Ronald_Jenkees_-_Stay_Crunchy.mp3
AudioLeadIn: 1996
PreviewTime: 96010
Countdown: 0
SampleSet: Soft
StackLeniency: 0.6
Mode: 0
LetterboxInBreaks: 0

[Editor]
DistanceSpacing: 1.5
BeatDivisor: 4
GridSize: 8

[Metadata]
Title:Stay Crunchy
Artist:Ronald Jenkees
Creator:galvenize
Version:Hard
Source:
Tags:Disorganized fun Glass

[Difficulty]
HPDrainRate:5
CircleSize:3
OverallDifficulty:5
ApproachRate:6
SliderMultiplier:1.4
SliderTickRate:1

[Events]
//Background and Video events
0,0,"BGRJ.jpg"
//Break Periods
2,41382,53847
2,82525,94989
2,123668,136132
2,164855,177275
//Storyboard Layer 0 (Background)
//Storyboard Layer 1 (Fail)
//Storyboard Layer 2 (Pass)
//Storyboard Layer 3 (Foreground)
//Storyboard Sound Samples
//Background Colour Transformations
3,100,163,162,255

[TimingPoints]
40,428.571428571429,4,2,0,42,1,0
1729,-200,4,2,0,42,0,0
4943,-100,4,2,0,42,0,0
70915,-200,4,2,0,42,0,0
72872,-100,4,2,0,42,0,0
82295,-200,4,2,0,42,0,0
95854,-100,4,2,0,42,0,0
102760,-200,4,2,0,42,0,0
103675,-50,4,2,0,42,0,0
109188,-200,4,2,0,42,0,0
112831,-100,4,2,0,42,0,0
116581,-100,4,2,0,42,0,0
160305,-100,4,2,0,0,0,0
164655,428.571428571429,4,2,0,42,1,0
176611,428.571428571429,4,2,0,42,1,0
178305,-100,4,2,0,41,0,0
178831,-200,4,2,0,42,0,0
180331,-200,4,2,0,42,0,0
182367,-100,4,2,0,42,0,0
184831,-200,4,2,0,42,0,0
190081,-100,4,2,0,42,0,0

[Colours]
Combo1 : 70,50,170
Combo2 : 2,130,157
Combo3 : 104,143,172

[HitObjects]
80,104,682,5,0
80,104,790,1,0
80,104,897,1,2
168,160,1111,1,0
264,104,1325,1,2
312,200,1540,1,0
216,248,1754,2,0,B|216:312|280:376|344:344|376:344,1,210,2|0
368,344,3468,1,0
320,184,4111,5,0
320,184,4218,1,0
320,184,4325,1,0
232,256,4540,1,0
144,328,4754,1,0
64,256,4968,2,0,B|80:192|112:176,2,70
160,72,5825,5,0
264,72,6040,1,0
352,136,6254,1,0
344,240,6468,1,0
256,176,6682,1,0
160,216,6897,2,0,B|112:240|176:264|112:304,2,105
144,80,8611,5,0
368,80,9468,1,0
368,272,10325,1,0
144,272,11182,1,0
112,80,12039,5,0
272,80,12468,1,0
320,176,12682,1,0
320,176,12789,1,0
320,176,12897,1,0
284,274,13111,5,0
179,284,13325,1,0
98,216,13539,1,0
143,121,13754,5,4
52,67,13968,1,0
143,121,14182,1,0
144,15,14397,1,0
143,121,14611,1,8
231,65,14825,1,0
231,65,14932,1,0
231,65,15039,1,0
328,104,15254,5,0
376,200,15468,1,0
288,264,15682,1,0
180,276,15897,2,0,B|148:260|132:212,1,70
88,130,16325,2,0,B|56:146|40:194,1,70,8|0
44,182,16647,1,0
44,182,16754,1,0
138,226,16968,5,0
209,148,17182,1,0
301,97,17397,1,0
388,155,17611,1,0
392,256,17825,1,0
312,320,18040,1,8
234,250,18254,1,0
319,189,18468,1,0
233,250,18682,1,0
152,184,18897,1,0
320,96,19325,5,0
260,182,19540,1,0
202,94,19754,1,8
260,182,19968,1,0
260,182,20182,1,0
260,182,20397,1,0
128,64,20611,5,0
384,320,21040,1,0
192,56,21468,2,0,B|256:24|336:64,1,140,8|0
384,160,22111,2,0,B|384:256,1,70
288,272,22540,2,0,B|288:176,1,70
248,104,22968,1,0
176,176,23182,2,0,B|176:288,2,105,8|0|8
344,96,24254,5,0
272,176,24468,1,0
200,256,24682,1,0
128,176,24897,1,8
200,96,25111,1,0
271,175,25325,1,0
344,248,25540,1,0
408,168,25754,1,0
256,320,26182,5,0
254,214,26397,1,0
255,109,26611,1,8
254,214,26825,1,0
152,216,27040,1,0
144,216,27147,1,0
136,216,27254,1,0
128,216,27361,1,0
120,216,27468,1,4
448,64,28325,5,8
224,64,28647,1,0
448,64,28968,1,0
387,149,29182,1,0
332,239,29397,1,0
244,297,29611,6,0,B|180:297|180:265,1,70
114,193,30040,2,0,B|114:161|146:129,1,70,8|0
219,58,30468,2,0,B|315:58|283:58,1,70
371,123,30897,2,0,B|371:219|243:283,1,210
143,275,31754,1,8
352,64,32182,5,0
160,64,32611,2,0,B|96:128,1,70
128,320,33040,2,0,B|192:256,1,70
352,192,33468,2,0,B|416:192,8,35,8|0|0|0|0|0|0|0|4
48,56,35182,6,0,B|192:56,1,140,8|0
192,160,35825,1,0
128,248,36040,1,0
192,328,36254,1,0
296,328,36468,1,0
368,248,36682,5,0
368,248,36790,1,0
368,248,36897,1,8
304,160,37111,1,0
304,160,37325,2,0,B|152:160,2,140
304,160,38611,1,8
256,192,39468,5,0
256,40,39897,1,0
256,192,40325,1,8
256,200,40432,1,0
256,208,40540,1,0
256,216,40647,1,0
256,224,40754,1,0
256,232,40861,1,0
256,240,40968,1,0
256,248,41075,1,0
256,256,41182,1,4
183,105,54897,5,4
256,192,55111,1,0
329,266,55325,1,0
256,192,55539,1,0
256,192,55754,2,0,B|160:288,2,105,8|0|0
334,121,56611,5,0
232,93,56825,1,0
256,192,57039,1,0
328,264,57254,1,0
328,264,57361,1,0
328,264,57468,2,0,B|456:264,2,105,8|0|0
224,288,58325,5,0
256,192,58539,1,0
224,288,58754,1,0
256,191,58968,1,0
296,96,59182,2,0,B|424:96,2,105,8|0|0
144,128,60039,2,0,B|144:192,2,35
368,128,60468,2,0,B|368:192,2,35
304,352,60897,5,8
232,280,61111,1,0
296,200,61325,1,0
216,128,61539,1,0
280,48,61754,1,4
120,320,62611,6,0,B|152:256|88:192,1,140,8|0
90,193,63254,1,0
192,192,63468,1,0
256,104,63682,1,0
360,104,63897,1,0
360,208,64111,5,0
360,208,64218,1,0
360,208,64325,2,0,B|360:304|264:304,2,140,8|0|0
256,312,66039,5,8
400,72,66468,1,0
120,72,66897,1,0
48,248,67325,2,0,B|48:320|152:320,1,140,0|8
256,320,67968,1,0
328,240,68182,1,0
328,128,68397,1,0
256,56,68611,1,4
184,128,68825,5,0
168,368,69254,1,0
328,368,69468,1,8
256,192,69897,1,0
256,192,70111,1,0
256,192,70539,5,0
176,16,70968,1,0
336,16,71182,1,8
256,192,71611,1,0
256,192,71825,1,0
64,320,72254,2,0,L|64:288,2,17.5
64,192,72682,1,0
63,86,72897,2,0,L|271:86,1,210,8|0
416,96,73754,5,0
358,183,73968,1,0
282,256,74182,1,0
214,175,74397,1,0
155,87,74611,1,8
72,144,74825,1,0
72,144,74932,1,0
72,144,75039,1,0
72,40,75254,5,0
72,144,75468,2,0,L|88:224|168:232,1,140,4|0
248,232,76111,1,0
352,232,76325,1,8
448,192,76539,1,0
448,88,76754,1,0
448,88,77182,5,0
256,160,77611,1,0
128,160,77825,1,0
192,272,78039,1,8
256,160,78254,1,0
128,160,78468,1,0
128,32,78897,5,0
64,232,79325,1,0
128,320,79539,1,0
232,320,79754,1,8
336,320,79968,1,0
336,320,80075,1,0
336,320,80182,1,0
408,248,80397,1,0
408,144,80611,1,0
256,48,81039,5,0
152,48,81254,1,0
256,48,81468,1,8
256,152,81682,1,0
256,152,81789,1,0
256,152,81897,1,0
256,256,82111,1,0
256,152,82325,1,4
384,64,96039,5,4
280,72,96254,1,0
240,168,96468,1,0
240,272,96682,1,0
240,272,96789,1,0
240,272,96897,2,0,B|128:272,2,105,8|0|0
240,272,97754,5,0
320,336,97968,1,0
424,336,98182,1,0
376,240,98397,1,0
376,136,98611,2,0,L|504:136,2,105,8|0|8
288,64,99468,5,0
288,256,99682,1,0
224,96,99897,1,0
224,224,100111,1,0
160,160,100325,2,0,L|288:160,2,105,8|0|0
56,168,101182,2,0,B|40:216|56:240|72:264,1,70
144,312,101611,2,0,B|192:328|232:296,1,70
256,208,102039,5,8
256,208,102147,1,0
256,208,102254,1,0
320,120,102468,2,0,B|392:120|400:152,1,70
416,232,102897,2,0,B|424:288|400:312|368:312|368:320,1,105,4|0
272,352,103754,1,8
200,272,103968,1,0
280,200,104182,1,0
200,272,104397,1,0
176,168,104611,1,0
200,272,104825,1,0
96,248,105039,5,0
112,128,105254,1,0
112,128,105361,1,0
112,128,105468,1,8
200,64,105682,1,0
288,120,105897,1,0
376,56,106111,1,0
288,120,106325,1,0
256,192,107182,5,8
256,80,108039,1,0
256,192,108254,1,0
256,192,108361,1,0
256,192,108468,1,0
256,80,108682,5,0
128,192,108897,1,8
256,320,109111,1,0
384,192,109325,1,0
256,192,109539,1,0
256,192,109754,6,0,B|376:96,1,140,0|8
256,192,111468,2,0,L|136:104,1,140,0|8
256,64,113397,5,0
256,64,113504,1,0
256,64,113611,1,0
184,144,113825,1,0
80,144,114039,1,8
128,232,114254,2,0,B|128:328,1,70
232,296,114682,5,0
336,304,114897,1,0
376,208,115111,1,0
376,208,115218,1,0
376,208,115325,1,0
344,104,115539,2,0,B|288:32|288:32,1,70,0|8
192,72,115968,2,0,B|256:72|288:104|288:168,1,140
288,152,116504,5,0
288,152,116611,2,0,L|288:248|224:280,1,140
120,264,117468,2,0,L|81:203|131:121,1,140,8|0
184,40,118325,2,0,L|280:72|280:136,1,140
200,200,118968,1,0
280,288,119182,2,0,L|280:328|176:360,1,140,8|0
256,192,120039,12,0,123468
128,64,137182,6,0,L|296:64,1,140,4|0
256,192,137825,1,0
384,320,138039,2,0,L|224:320,1,140,8|0
64,96,138897,5,0
64,200,139111,1,0
64,200,139218,1,0
64,200,139325,1,0
64,96,139539,1,0
168,96,139754,2,0,B|264:96,2,70,8|0|0
168,200,140397,1,0
256,264,140611,2,0,B|384:296|480:232|512:168|448:72|384:40,1,420
96,96,142325,5,0
352,96,142754,1,0
352,200,142968,1,0
352,200,143075,1,0
352,200,143182,1,8
288,280,143397,1,0
184,264,143611,1,0
192,160,143825,1,0
192,64,144039,6,0,B|96:96|64:160|64:224|96:288,1,280,0|8
192,352,145754,2,0,B|320:288|352:192|352:128,1,280,0|8
256,192,147468,12,0,150468
128,128,150897,6,0,B|96:200,1,70
136,288,151325,2,0,B|168:216,1,70
280,128,151754,2,0,B|360:104,1,70,8|0
440,152,152182,2,0,B|352:184,1,70
256,272,152611,2,0,B|224:336,1,70
192,232,153040,2,0,B|232:160,1,70
296,88,153468,2,0,B|200:88,2,70
144,352,154325,6,0,B|112:312|152:280,1,70
248,272,154754,2,0,B|256:216|200:192,1,70
128,176,155182,2,0,B|96:136|136:104,1,70,8|0
126,112,155504,1,0
126,112,155611,1,0
208,40,155825,5,0
312,56,156040,1,0
408,96,156254,1,0
408,96,156361,1,0
408,96,156468,1,0
472,176,156682,1,0
376,216,156897,2,0,B|312:184|312:152,1,70
216,184,157325,2,0,B|208:216|168:232,1,70
64,96,157754,5,0
152,40,157968,1,0
256,40,158182,1,0
360,40,158397,1,0
448,96,158611,1,8
448,200,158825,5,0
360,264,159040,1,0
360,176,159254,1,0
256,304,159468,1,0
256,128,159682,1,0
152,264,159897,1,0
152,176,160111,1,0
256,192,160325,12,0,164655
128,64,178325,5,4
208,64,178539,1,0
288,64,178753,1,0
368,64,178968,1,0
368,64,179075,1,0
368,64,179182,2,0,B|368:120,2,52.5,8|0|0
320,224,180039,5,0
200,224,180253,1,0
200,224,180361,1,0
200,224,180468,1,0
200,104,180682,5,0
200,104,180789,1,0
200,104,180896,2,0,B|264:104,2,52.5,8|0|0
32,96,181753,5,0
32,256,181968,1,0
192,256,182182,1,0
352,256,182396,1,0
352,256,182503,1,0
352,256,182611,2,0,B|464:256,2,105,8|0|0
192,280,183468,5,0
80,168,183682,1,0
192,64,183896,1,0
304,160,184111,2,0,B|344:160,2,35,0|0|8
200,160,184539,5,0
304,72,184753,1,0
200,160,184968,1,0
304,72,185182,2,0,B|184:72,1,105,4|0
72,72,186039,1,8
72,288,186468,1,0
400,296,186896,6,0,B|400:184,1,105
400,88,187753,1,8
152,88,188182,1,0
96,256,188611,5,0
96,256,188718,1,0
96,256,188825,1,0
192,256,189039,1,0
288,256,189253,1,0
384,256,189468,1,8
288,256,189682,1,0
192,256,189896,1,0
256,160,190111,5,0
352,96,190325,2,0,B|352:136,2,35
160,96,190753,2,0,B|160:160,2,35
256,48,191182,5,8
288,160,191396,1,0
224,256,191611,1,0
288,352,191825,1,0
96,160,192253,6,0,B|96:304,1,140
240,296,192896,1,0
376,296,193111,2,0,B|376:152,1,140
472,32,193968,5,0
400,104,194182,1,0
328,184,194396,1,0
224,184,194611,1,0
120,184,194825,1,0
120,184,195039,2,0,B|120:272|216:264,1,140
408,328,195896,5,0
304,328,196111,1,0
200,328,196325,1,0
200,328,196539,2,0,B|200:184,1,140
96,64,197396,5,0
96,168,197611,1,0
192,208,197825,1,0
296,208,198039,2,0,B|296:144,8,35
448,64,199325,5,0
448,192,199539,1,0
256,320,199968,1,0
256,192,200182,1,0
256,32,200611,5,0
64,64,201039,1,0
64,192,201253,1,0
256,320,201682,1,0
256,192,201896,1,0
448,64,202325,5,0
368,136,202539,1,0
288,64,202753,1,0
208,136,202968,1,0
136,64,203182,1,8
256,352,203611,5,0
256,224,203825,1,0
384,64,204253,1,0
280,64,204468,1,0
280,168,204682,5,0
280,168,204789,1,0
280,168,204896,1,8
200,240,205111,1,0
128,320,205325,1,0
56,240,205539,1,0
56,136,205753,6,0,B|216:136,1,140,4|0
448,320,206611,2,0,B|448:160,1,140,8|0
192,64,207468,2,0,B|32:64,1,140
64,320,208325,2,0,B|224:320,1,140,8|0
160,160,209182,5,0
320,160,209611,1,0
416,288,210039,2,0,B|256:288,1,140,8|0
40,192,210896,5,0
256,192,211325,1,0
256,112,211539,1,0
336,192,211753,1,8
256,272,211968,1,0
176,192,212182,1,0
256,192,212396,1,0
256,192,212611,12,0,216039
