osu file format v8

[General]
AudioFilename: 07._Ronald_Jenkees_-_Stay_Crunchy.mp3
AudioLeadIn: 1996
PreviewTime: 96010
Countdown: 0
SampleSet: Soft
StackLeniency: 0.7
Mode: 0
LetterboxInBreaks: 0

[Editor]
Bookmarks: 45312
DistanceSpacing: 1.5
BeatDivisor: 8
GridSize: 8

[Metadata]
Title:Stay Crunchy
Artist:Ronald Jenkees
Creator:galvenize
Version:Easy
Source:
Tags:Disorganized Fun Glass

[Difficulty]
HPDrainRate:3
CircleSize:3
OverallDifficulty:3
ApproachRate:3
SliderMultiplier:1.4
SliderTickRate:1

[Events]
//Background and Video events
0,0,"BGRJ.jpg"
//Break Periods
2,41382,53457
2,85954,94599
2,123668,135742
2,161382,176885
//Storyboard Layer 0 (Background)
//Storyboard Layer 1 (Fail)
//Storyboard Layer 2 (Pass)
//Storyboard Layer 3 (Foreground)
//Storyboard Sound Samples
//Background Colour Transformations
3,100,163,162,255

[TimingPoints]
40,428.571428571429,4,2,0,25,1,0
1729,-200,4,2,0,25,0,0
82305,-200,4,2,0,0,0,0
96020,-200,4,2,0,33,0,0
122591,-200,4,2,0,0,0,0
137162,-200,4,2,0,32,0,0
164655,428.571428571429,4,2,0,25,1,0
176611,428.571428571429,4,2,0,25,1,0
179182,-200,4,2,0,25,0,0
212611,-200,4,2,0,0,0,0

[Colours]
Combo1 : 70,50,170
Combo2 : 2,130,157
Combo3 : 104,143,172

[HitObjects]
456,48,897,1,0
456,152,1325,1,0
456,256,1754,2,0,B|456:352|344:352,1,140
232,352,3468,1,0
128,72,4325,5,0
232,72,4754,1,0
336,72,5182,1,0
448,248,6039,5,0
352,296,6468,1,0
248,296,6897,2,0,B|248:240,2,52.5
88,256,8611,5,0
88,64,9468,1,0
88,256,10325,1,0
288,256,11182,1,0
192,80,12039,5,0
192,184,12468,1,0
192,288,12897,1,0
296,288,13325,1,0
392,240,13754,5,4
336,152,14182,1,0
232,168,14611,2,0,B|128:168,2,70,8|0|0
296,88,15897,5,0
392,128,16325,2,0,B|392:48,2,70,8|0|0
424,232,17611,1,0
328,280,18039,1,8
120,328,18897,5,0
48,248,19325,1,0
72,144,19754,2,0,B|176:144,2,70,8|0|0
352,40,21468,5,8
352,144,21897,1,0
256,192,22325,1,0
160,40,23182,5,8
160,144,23611,1,0
256,192,24040,1,0
256,64,24897,5,8
168,120,25325,1,0
168,224,25754,1,0
256,288,26182,1,0
344,224,26611,1,8
344,120,27040,1,0
256,64,27468,6,0,B|256:224,1,140,4|0
256,312,28754,1,0
255,204,29182,2,0,B|96:256,1,140,0|8
16,248,30468,1,0
121,247,30897,6,0,B|128:96,1,140,0|8
56,32,32182,1,0
127,107,32611,2,0,B|288:88,1,140,0|8
264,192,33897,1,0
264,296,34325,1,4
400,88,35182,5,8
400,192,35611,1,0
296,192,36040,1,0
192,192,36468,1,0
88,192,36897,2,0,B|88:264,1,70
192,264,37754,1,0
96,80,38611,5,8
368,80,39468,1,0
368,184,39897,1,0
368,288,40325,2,0,B|304:288|256:224|240:192,1,140,8|4
352,208,54897,6,0,B|256:208,1,70,4|0
176,192,55754,2,0,B|176:96,1,70,8|0
256,56,56611,2,0,B|336:56,1,70
408,120,57468,2,0,B|408:216,1,70,8|0
328,264,58325,2,0,B|248:264,1,70
160,232,59182,6,0,B|160:136,1,70,8|0
264,128,60039,2,0,B|264:224,1,70
360,240,60897,2,0,B|360:168,2,70,8|0|8
296,128,62611,5,8
192,128,63039,1,0
136,216,63468,1,0
200,296,63897,1,0
304,296,64325,1,8
232,216,64754,2,0,B|272:216,2,35
256,320,66039,5,8
256,48,66897,1,0
256,184,67754,5,8
256,288,68182,1,0
256,184,68611,1,4
96,96,69468,6,0,B|96:192,1,70,8|0
184,240,70325,2,0,B|184:160,1,70
272,96,71182,2,0,B|272:192,1,70,8|0
360,224,72039,2,0,B|360:128,1,70
288,88,72897,6,0,B|192:88,1,70,8|0
152,176,73754,2,0,B|248:176,1,70
288,264,74611,2,0,B|192:264,2,70,8|0|0
432,72,76325,5,8
232,136,77182,1,0
128,320,78039,1,8
64,120,78897,5,0
136,200,79325,1,0
208,272,79754,1,8
208,168,80182,1,0
312,168,80611,1,0
312,272,81039,1,0
384,200,81468,1,8
448,112,81897,1,0
256,192,82325,12,0,85754
256,96,96039,5,4
256,200,96468,1,0
256,304,96897,2,0,B|184:304,2,70,8|0|0
360,304,98182,1,0
360,200,98611,2,0,B|360:128,2,70
360,304,99897,1,0
264,256,100325,6,0,B|264:328,2,70
192,176,101611,1,0
296,168,102039,2,0,B|440:168,1,140
160,72,103754,6,0,B|312:72,1,140,8|0
368,152,105039,1,0
336,248,105468,2,0,B|168:248,1,140,8|0
120,112,107182,6,0,B|120:216,1,70,8|0
192,256,108039,1,0
296,256,108468,1,0
360,176,108897,1,8
368,72,109325,1,0
264,72,109754,1,4
232,168,110182,6,0,B|184:200,1,35
104,232,110825,2,0,B|72:216,1,35
128,128,111468,1,0
216,72,111897,2,0,B|248:32,1,35
200,168,112539,2,0,B|144:168,1,35
96,96,113182,5,0
208,96,113611,1,0
320,96,114039,1,8
432,96,114468,1,0
376,192,114897,5,0
320,96,115325,1,0
208,96,115754,2,0,B|208:256,1,140,8|4
416,288,117468,6,0,B|416:128,1,140,8|0
96,64,119182,2,0,B|256:64,1,140,8|0
128,320,120897,6,0,B|128:160,1,140,8|0
416,64,122611,2,0,B|416:224,1,140,8|0
160,96,137182,5,4
352,96,138039,1,8
352,208,138468,1,0
352,96,138897,1,0
240,96,139325,1,0
240,208,139754,5,8
128,208,140182,1,0
240,208,140611,2,0,B|400:208,1,140
240,208,142325,6,0,B|240:304,2,70
240,104,143611,1,0
344,104,144039,2,4,B|398:130|398:226,1,140,4|8
212,271,145754,2,0,B|128:272|96:208,1,140,0|8
336,144,147468,2,0,B|304:80|208:80,1,140,0|8
96,240,149182,5,0
192,176,149611,1,0
256,96,150040,1,8
320,176,150468,1,0
416,240,150897,1,4
256,192,151754,12,0,154325
256,192,155611,5,0
256,88,156040,1,0
256,296,156897,1,8
256,88,157754,1,0
416,192,158611,5,8
336,264,159040,1,0
256,192,159468,1,0
256,88,159897,1,0
152,96,160325,2,0,B|152:256,1,140,8|0
64,96,178325,5,4
168,96,178753,1,0
272,96,179182,2,0,B|272:192,1,70,8|0
272,272,180039,1,0
168,272,180468,5,0
168,168,180896,2,0,B|168:72,2,70,8|0|0
168,272,182182,1,0
272,272,182611,1,8
272,168,183039,1,0
376,168,183468,1,0
376,272,183896,1,0
272,272,184325,2,0,B|200:272,2,70
80,64,186039,5,8
184,64,186468,1,0
256,136,186896,1,0
432,64,187753,5,8
328,64,188182,1,0
256,136,188611,1,0
416,288,189468,5,8
416,184,189896,1,0
312,184,190325,1,0
208,184,190753,1,0
208,80,191182,1,8
320,80,191611,1,0
312,184,192039,6,0,B|312:224|272:256,1,70,4|0
184,272,192896,2,0,B|144:272|112:232,1,70,4|0
96,144,193753,2,0,B|96:104|136:72,1,70,4|0
232,88,194611,2,0,B|232:128|192:160,1,70,4|0
192,256,195468,6,0,B|232:256|264:216,1,70,4|0
352,272,196325,2,0,B|352:312|312:344,1,70,4|0
248,264,197182,2,0,B|248:224|208:192,1,70,4|0
120,248,198039,2,0,B|120:288|80:320,2,70
256,192,199753,5,8
176,248,200182,1,0
88,192,200611,1,0
256,192,201468,5,8
352,144,201896,1,0
448,192,202325,1,0
256,32,203182,5,8
32,224,204039,1,0
128,160,204468,1,0
224,224,204896,1,8
320,160,205325,1,0
416,224,205753,1,4
96,64,206611,6,0,B|96:224,1,140,8|0
448,320,208325,2,0,B|448:160,1,140,8|0
192,64,210039,2,8,B|32:64,1,140
184,192,211753,5,8
256,112,212182,1,0
328,192,212611,1,0
256,192,213039,12,0,216039
