osu file format v12

[General]
AudioFilename: VOICE.mp3
AudioLeadIn: 1000
PreviewTime: 75716
Countdown: 0
SampleSet: Soft
StackLeniency: 0.7
Mode: 2
LetterboxInBreaks: 0

[Editor]
Bookmarks: 75694,125472
DistanceSpacing: 1.2
BeatDivisor: 4
GridSize: 4

[Metadata]
Title:VOiCE
TitleUnicode:VOiCE
Artist:Romaji
ArtistUnicode:Romaji
Creator:eldnl
Version:Salad
Source:
Tags:hatsune miku vocaloid
BeatmapID:245185
BeatmapSetID:90323

[Difficulty]
HPDrainRate:4
CircleSize:3
OverallDifficulty:0
ApproachRate:6
SliderMultiplier:1.2
SliderTickRate:2

[Events]
//Background and Video events
0,0,"BG.jpg",0,0
//Break Periods
2,91916,94222
//Storyboard Layer 0 (Background)
//Storyboard Layer 1 (Fail)
//Storyboard Layer 2 (Pass)
//Storyboard Layer 3 (Foreground)
//Storyboard Sound Samples
//Background Colour Transformations
3,100,163,162,255

[TimingPoints]
1050,444.444444444444,4,2,0,90,1,0
18827,-100,4,1,1,80,0,0
33049,-100,4,2,0,90,0,0
75716,-100,4,1,1,80,0,1
89938,-100,4,1,0,80,0,0
95272,-100,4,2,1,90,0,0
115716,-100,4,2,1,60,0,0
116605,-100,4,2,1,90,0,0
118605,-100,4,2,1,80,0,0
118827,-100,4,2,1,90,0,0
125494,-100,4,1,1,80,0,1
139272,-100,4,1,1,80,0,0
139716,-100,4,1,1,80,0,1
152161,-100,4,2,0,90,0,0
157494,-100,4,1,0,100,0,1
157716,-100,4,1,0,100,0,0

[Colours]
Combo1 : 255,157,255
Combo2 : 81,255,255

[HitObjects]
256,320,1050,1,4,0:0:0:0:
112,320,1494,1,0,0:0:0:0:
256,320,1938,1,0,0:0:0:0:
400,320,2383,1,2,0:0:0:0:
256,320,2827,5,2,0:0:0:0:
112,320,3272,2,0,L|48:320,2,60
400,320,4161,2,0,L|460:320,2,60,2|0|2,0:0|0:0|0:0,0:0:0:0:
256,320,5272,5,0,0:0:0:0:
256,320,5716,2,0,L|256:252,1,60,0|2,0:0|0:0,0:0:0:0:
144,320,6383,6,0,P|96:276|104:208,1,120,2|0,0:0|0:0,0:0:0:0:
368,320,7272,2,0,P|416:276|408:208,1,120,0|2,0:0|0:0,0:0:0:0:
256,320,8161,5,2,0:0:0:0:
128,192,8605,1,0,0:0:0:0:
384,192,9049,1,0,0:0:0:0:
160,192,9494,2,0,L|160:128,1,60,0|2,0:0|0:0,0:0:0:0:
352,192,10161,2,0,L|352:128,1,60,0|2,0:0|0:0,0:0:0:0:
256,192,10827,1,0,0:0:0:0:
16,192,11716,5,2,0:0:0:0:
256,192,12605,1,0,0:0:0:0:
496,192,13494,1,2,0:0:0:0:
496,192,15272,5,2,0:0:0:0:
256,192,16161,1,0,0:0:0:0:
16,192,17050,1,4,0:0:0:0:
256,192,18827,5,4,0:0:0:0:
416,192,19272,1,8,0:0:0:0:
384,192,19605,2,0,L|384:144,1,30
96,192,20161,1,8,0:0:0:0:
128,192,20494,2,0,L|128:144,1,30
384,192,21049,1,8,0:0:0:0:
128,192,21494,1,0,0:0:0:0:
256,192,21938,1,8,0:0:0:0:
256,192,22383,6,0,L|400:192,1,120,0|8,0:0|0:0,0:0:0:0:
256,192,23272,2,0,L|112:192,1,120,0|8,0:0|0:0,0:0:0:0:
256,192,24161,1,0,0:0:0:0:
376,192,24605,1,8,0:0:0:0:
256,192,25049,1,4,0:0:0:0:
136,192,25494,1,8,0:0:0:0:
256,192,25938,5,4,0:0:0:0:
376,192,26383,2,0,P|396:136|372:80,1,120,8|0,0:0|0:0,0:0:0:0:
256,192,27272,1,8,0:0:0:0:
136,192,27716,2,0,P|116:136|140:80,1,120,0|8,0:0|0:0,0:0:0:0:
376,192,28605,2,0,L|440:192,2,60,0|0|8,0:0|0:0|0:0,0:0:0:0:
256,192,29494,5,4,0:0:0:0:
136,192,29938,2,0,L|72:192,2,60,8|0|0,0:0|0:0|0:0,0:0:0:0:
256,192,30827,2,0,L|256:120,1,60,8|0,0:0|0:0,0:0:0:0:
256,192,31272,12,0,32605,0:0:0:0:
256,192,33049,5,4,0:0:0:0:
312,192,33494,1,0,0:0:0:0:
256,192,33938,1,0,0:0:0:0:
80,192,34605,1,2,0:0:0:0:
256,192,34827,5,4,0:0:0:0:
200,192,35272,1,0,0:0:0:0:
256,192,35716,1,0,0:0:0:0:
432,192,36383,1,2,0:0:0:0:
256,192,36605,5,4,0:0:0:0:
312,192,37049,1,0,0:0:0:0:
256,192,37494,1,0,0:0:0:0:
80,192,38161,1,2,0:0:0:0:
256,192,38383,5,4,0:0:0:0:
200,192,38827,1,2,0:0:0:0:
256,192,39272,1,4,0:0:0:0:
312,192,39716,1,2,0:0:0:0:
256,192,40161,5,4,0:0:0:0:
120,192,41716,6,0,L|56:192,1,60,2|4,0:0|0:0,0:0:0:0:
392,192,43494,6,0,L|456:192,1,60,2|4,0:0|0:0,0:0:0:0:
256,192,44161,1,8,0:0:0:0:
120,192,44605,1,0,0:0:0:0:
144,88,45049,1,10,0:0:0:0:
96,192,45494,5,4,0:0:0:0:
392,192,45938,1,8,0:0:0:0:
368,88,46382,1,4,0:0:0:0:
416,192,46827,1,8,0:0:0:0:
144,192,47272,5,4,0:0:0:0:
256,192,47716,1,8,0:0:0:0:
144,192,48161,1,0,0:0:0:0:
48,192,48605,1,8,0:0:0:0:
256,192,49049,5,0,0:0:0:0:
368,192,49494,1,8,0:0:0:0:
256,192,49938,1,2,0:0:0:0:
144,192,50383,1,8,0:0:0:0:
368,192,50827,5,0,0:0:0:0:
256,192,51271,1,8,0:0:0:0:
368,192,51716,1,0,0:0:0:0:
464,192,52160,1,8,0:0:0:0:
256,192,52605,5,0,0:0:0:0:
144,192,53049,1,8,0:0:0:0:
256,192,53494,1,2,0:0:0:0:
368,192,53938,1,8,0:0:0:0:
144,192,54383,6,0,P|112:144|144:100,1,120,4|8,0:0|0:0,0:0:0:0:
256,192,55272,1,0,0:0:0:0:
368,192,55716,2,0,P|400:144|368:100,1,120,8|0,0:0|0:0,0:0:0:0:
144,192,56605,5,8,0:0:0:0:
256,320,57049,1,0,0:0:0:0:
368,192,57494,1,8,0:0:0:0:
256,320,57938,1,2,0:0:0:0:
256,192,58161,12,0,59272,0:0:0:0:
384,192,59716,5,2,0:0:0:0:
128,192,60161,1,2,0:0:0:0:
384,192,60605,1,2,0:0:0:0:
128,192,61049,1,2,0:0:0:0:
256,192,61494,5,4,0:0:0:0:
256,192,61938,1,8,0:0:0:0:
368,192,62383,1,0,0:0:0:0:
480,192,62827,1,8,0:0:0:0:
256,288,63272,2,0,L|256:96,1,180,2|2,0:0|0:0,0:0:0:0:
256,192,65049,5,4,0:0:0:0:
256,192,65493,1,8,0:0:0:0:
144,192,65938,1,0,0:0:0:0:
32,192,66382,1,8,0:0:0:0:
256,288,66827,2,0,L|256:96,1,180,2|2,0:0|0:0,0:0:0:0:
256,288,67716,2,0,L|256:352,3,60,2|2|0|2,0:0|0:0|0:0|0:0,0:0:0:0:
384,256,68605,6,0,L|400:128,1,120,4|8,0:0|0:0,0:0:0:0:
128,256,69494,2,0,L|113:136,1,120,0|8,0:0|0:0,0:0:0:0:
256,192,70383,2,0,L|256:116,1,60,2|0,0:0|0:0,0:0:0:0:
256,192,71049,1,2,0:0:0:0:
448,304,72161,6,0,L|448:240,1,60,2|0,0:0|0:0,0:0:0:0:
320,304,72605,2,0,L|320:240,1,60,2|0,0:0|0:0,0:0:0:0:
192,304,73049,2,0,L|192:240,1,60,2|0,0:0|0:0,0:0:0:0:
64,304,73494,2,0,L|64:240,1,60,2|0,0:0|0:0,0:0:0:0:
256,192,73938,12,0,75272,0:0:0:0:
384,272,75716,5,4,0:0:0:0:
128,272,76161,1,8,0:0:0:0:
304,192,76605,1,0,0:0:0:0:
208,192,76827,1,0,0:0:0:0:
256,80,77272,1,0,0:0:0:0:
256,80,77716,5,0,0:0:0:0:
144,80,77938,2,0,L|80:80,2,60,8|0|0,0:0|0:0|0:0,0:0:0:0:
368,80,78827,2,0,L|432:80,2,60,8|0|0,0:0|0:0|0:0,0:0:0:0:
256,192,79938,1,0,0:0:0:0:
48,320,80605,5,8,0:0:0:0:
256,336,81049,1,0,0:0:0:0:
464,320,81494,1,8,0:0:0:0:
256,192,81938,2,0,L|256:152,1,30
256,192,82161,2,0,L|204:192,1,30,0|0,0:0|0:0,0:0:0:0:
256,192,82383,2,0,L|296:192,1,30,8|0,0:0|0:0,0:0:0:0:
256,192,82605,2,0,L|256:248,1,30,0|0,0:0|0:0,0:0:0:0:
256,192,82827,1,4,0:0:0:0:
64,192,83272,5,8,0:0:0:0:
256,192,83716,2,0,L|256:64,1,120,0|8,0:0|0:0,0:0:0:0:
448,192,84605,1,0,0:0:0:0:
256,192,85049,2,0,L|256:64,1,120,8|0,0:0|0:0,0:0:0:0:
64,192,85938,1,8,0:0:0:0:
256,192,86383,5,4,0:0:0:0:
448,320,87272,1,4,0:0:0:0:
64,320,88161,1,4,0:0:0:0:
336,272,89049,2,0,L|352:208,1,60
176,272,89494,2,0,L|160:208,1,60
256,192,89938,12,0,91272,0:0:0:0:
256,192,91716,5,4,0:0:0:0:
256,192,95272,5,4,0:0:0:0:
144,192,95716,1,8,0:0:0:0:
144,192,96161,1,0,0:0:0:0:
32,192,96605,1,8,0:0:0:0:
256,192,97049,5,2,0:0:0:0:
368,192,97493,1,8,0:0:0:0:
368,192,97938,1,2,0:0:0:0:
480,192,98382,1,8,0:0:0:0:
256,192,98827,6,0,P|175:176|116:176,1,120,0|0,0:0|0:0,0:0:0:0:
137,174,99494,1,2,0:0:0:0:
256,192,99938,2,0,P|337:176|396:176,1,120,2|0,0:0|0:0,0:0:0:0:
256,192,100605,12,0,101938,0:0:0:0:
128,192,102383,5,4,0:0:0:0:
44,192,102827,1,8,0:0:0:0:
212,192,103272,1,0,0:0:0:0:
168,120,103716,1,8,0:0:0:0:
384,192,104161,5,0,0:0:0:0:
468,192,104605,1,8,0:0:0:0:
300,192,105050,1,0,0:0:0:0:
344,120,105494,1,8,0:0:0:0:
128,192,105938,5,2,0:0:0:0:
384,192,106383,1,2,0:0:0:0:
128,192,106827,1,2,0:0:0:0:
384,192,107272,1,2,0:0:0:0:
180,192,107716,6,0,L|212:128,2,60,2|0|0,0:0|0:0|0:0,0:0:0:0:
332,192,108383,2,0,L|300:128,2,60,2|0|0,0:0|0:0|0:0,0:0:0:0:
256,288,109049,1,8,0:0:0:0:
112,272,109494,6,0,L|112:128,1,120,4|8,0:0|0:0,0:0:0:0:
400,272,110383,2,0,L|400:128,1,120,0|8,0:0|0:0,0:0:0:0:
112,272,111272,6,0,L|112:208,1,60,2|0,0:0|0:0,0:0:0:0:
256,272,111938,1,2,0:0:0:0:
80,128,112383,1,2,0:0:0:0:
400,272,112827,2,0,L|400:208,1,60,2|4,0:0|0:0,0:0:0:0:
256,272,113493,5,2,0:0:0:0:
432,128,113938,1,2,0:0:0:0:
256,272,114383,2,0,L|256:144,1,120,2|2,0:0|0:0,0:0:0:0:
256,272,115272,6,0,L|256:336,1,60,2|2,0:0|0:0,0:0:0:0:
288,80,115716,2,0,L|288:144,1,60,2|0,0:0|0:0,0:0:0:0:
224,80,116161,2,0,L|224:144,1,60,2|0,0:0|0:0,0:0:0:0:
288,80,116605,6,0,L|416:80,1,120,4|8,0:0|0:0,0:0:0:0:
224,80,117494,2,0,L|96:80,1,120,0|8,0:0|0:0,0:0:0:0:
368,272,118383,6,0,L|400:208,1,60,0|4,0:0|0:0,0:0:0:0:
144,272,119049,2,0,L|112:208,1,60
256,192,119716,1,8,0:0:0:0:
192,112,120161,6,0,L|192:48,1,60,2|0,0:0|0:0,0:0:0:0:
320,112,120605,2,0,L|320:48,1,60,2|0,0:0|0:0,0:0:0:0:
256,320,121049,2,0,L|288:320,1,30,2|0,0:0|0:0,0:0:0:0:
256,320,121272,2,0,L|224:320,1,30
256,320,121494,2,0,L|288:320,1,30,2|0,0:0|0:0,0:0:0:0:
256,320,121716,2,0,L|224:320,1,30
256,320,121938,1,4,0:0:0:0:
256,192,122383,12,0,124827,0:0:0:0:
392,192,125272,6,0,L|456:192,2,60,4|4|0,0:0|0:0|0:0,0:0:0:0:
344,96,125938,1,8,0:0:0:0:
168,288,126383,2,0,P|256:304|344:288,1,180
120,192,127494,2,0,L|56:192,2,60,0|8|0,0:0|0:0|0:0,0:0:0:0:
168,96,128161,1,0,0:0:0:0:
392,192,128605,1,8,0:0:0:0:
256,192,128827,1,0,0:0:0:0:
120,192,129049,1,0,0:0:0:0:
440,192,129716,5,0,0:0:0:0:
72,192,130383,1,8,0:0:0:0:
312,280,130827,2,0,L|352:228,1,60
200,280,131272,2,0,L|160:228,1,60,8|0,0:0|0:0,0:0:0:0:
256,192,131716,1,0,0:0:0:0:
256,192,132161,1,8,0:0:0:0:
416,192,132605,5,0,0:0:0:0:
448,192,133049,1,8,0:0:0:0:
96,192,133494,1,0,0:0:0:0:
64,192,133938,1,8,0:0:0:0:
416,304,134383,2,0,L|416:240,1,60
368,144,134827,1,8,0:0:0:0:
96,304,135272,2,0,L|96:240,1,60
144,144,135716,1,8,0:0:0:0:
320,304,136161,6,0,L|320:240,1,60,4|0,0:0|0:0,0:0:0:0:
192,304,136605,2,0,L|192:240,1,60,8|0,0:0|0:0,0:0:0:0:
336,256,137049,2,0,L|336:192,1,60,4|0,0:0|0:0,0:0:0:0:
176,256,137494,2,0,L|176:192,1,60,8|0,0:0|0:0,0:0:0:0:
256,192,137938,12,0,139272,0:0:0:0:
352,192,139716,5,4,0:0:0:0:
160,192,140161,1,8,0:0:0:0:
384,192,140605,1,0,0:0:0:0:
424,148,140827,2,0,L|424:88,1,60,0|8,0:0|0:0,0:0:0:0:
384,192,141272,1,0,0:0:0:0:
128,192,141716,1,0,0:0:0:0:
88,148,141938,2,0,L|88:88,1,60,8|0,0:0|0:0,0:0:0:0:
128,192,142383,1,0,0:0:0:0:
256,192,142827,6,0,L|256:128,2,60,8|0|0,0:0|0:0|0:0,0:0:0:0:
416,320,143938,1,0,0:0:0:0:
96,320,144605,1,8,0:0:0:0:
320,240,145049,2,0,L|432:192,1,120,0|8,0:0|0:0,0:0:0:0:
192,240,145938,2,0,L|80:192,1,120,0|8,0:0|0:0,0:0:0:0:
256,112,146827,5,4,0:0:0:0:
432,288,147272,2,0,L|432:160,1,120,8|0,0:0|0:0,0:0:0:0:
368,80,147938,1,0,0:0:0:0:
80,288,148383,2,0,L|80:160,1,120
144,80,149049,1,8,0:0:0:0:
256,192,149494,1,0,0:0:0:0:
256,192,149938,1,0,0:0:0:0:
480,192,150383,5,4,0:0:0:0:
256,320,151272,1,4,0:0:0:0:
32,192,152161,1,4,0:0:0:0:
256,288,153049,5,2,0:0:0:0:
448,192,153938,1,4,0:0:0:0:
64,192,154827,1,4,0:0:0:0:
256,192,155716,12,0,157049,0:0:0:0:
256,192,157494,5,4,0:0:0:0:
