osu file format v12

[General]
AudioFilename: VOICE.mp3
AudioLeadIn: 1000
PreviewTime: 75716
Countdown: 0
SampleSet: Soft
StackLeniency: 0.7
Mode: 2
LetterboxInBreaks: 0

[Editor]
Bookmarks: 1028,18805,33027,61472,75694,95250,109472,125472,157472
DistanceSpacing: 1.2
BeatDivisor: 4
GridSize: 4

[Metadata]
Title:VOiCE
TitleUnicode:VOiCE
Artist:Romaji
ArtistUnicode:Romaji
Creator:eldnl
Version:Rain
Source:
Tags:hatsune miku vocaloid
BeatmapID:245184
BeatmapSetID:90323

[Difficulty]
HPDrainRate:7
CircleSize:4
OverallDifficulty:8
ApproachRate:9
SliderMultiplier:1.4
SliderTickRate:2

[Events]
//Background and Video events
0,0,"BG.jpg",0,0
//Break Periods
2,91916,94672
//Storyboard Layer 0 (Background)
//Storyboard Layer 1 (Fail)
//Storyboard Layer 2 (Pass)
//Storyboard Layer 3 (Foreground)
//Storyboard Sound Samples
//Background Colour Transformations
3,100,163,162,255

[TimingPoints]
1050,444.444444444444,4,2,0,90,1,0
18827,-100,4,1,1,80,0,0
33049,-100,4,2,1,90,0,0
35272,-100,4,2,1,50,0,0
36383,-100,4,2,1,90,0,0
75716,-100,4,1,1,80,0,1
89938,-100,4,1,0,80,0,0
95272,-100,4,2,0,90,0,0
115716,-100,4,2,0,70,0,0
116605,-100,4,2,0,90,0,0
125494,-100,4,1,1,80,0,1
139049,-100,4,2,0,70,0,1
139272,-100,4,2,0,70,0,0
139716,-100,4,1,1,80,0,1
150383,-66.6666666666667,4,1,1,80,0,1
152161,-100,4,2,0,70,0,0
157494,-100,4,1,0,100,0,1
157716,-100,4,1,0,100,0,0

[Colours]
Combo1 : 255,157,255
Combo2 : 81,255,255

[HitObjects]
32,304,1050,1,4,0:0:0:0:
32,304,1272,1,0,0:0:0:0:
32,304,1494,1,2,0:0:0:0:
104,304,1716,1,2,0:0:0:0:
256,232,1938,1,0,0:0:0:0:
256,232,2161,1,0,0:0:0:0:
184,232,2383,1,2,0:0:0:0:
256,232,2605,1,0,0:0:0:0:
480,304,2827,5,0,0:0:0:0:
480,304,3049,1,0,0:0:0:0:
480,304,3272,1,2,0:0:0:0:
408,304,3493,1,2,0:0:0:0:
256,232,3715,1,0,0:0:0:0:
256,232,3938,1,0,0:0:0:0:
328,232,4160,1,2,0:0:0:0:
256,232,4382,1,0,0:0:0:0:
184,232,4605,6,0,L|120:104,1,140,2|0,0:0|0:0,0:0:0:0:
328,232,5272,2,0,L|392:104,1,140,2|0,0:0|0:0,0:0:0:0:
256,80,5938,1,2,0:0:0:0:
256,80,6161,1,0,0:0:0:0:
168,80,6383,5,2,0:0:0:0:
344,80,6605,1,0,0:0:0:0:
168,80,6827,1,2,0:0:0:0:
344,80,7049,1,0,0:0:0:0:
256,192,7272,1,2,0:0:0:0:
256,192,7383,1,0,0:0:0:0:
256,264,7494,1,0,0:0:0:0:
208,312,7605,1,0,0:0:0:0:
256,352,7716,1,2,0:0:0:0:
304,312,7827,1,0,0:0:0:0:
256,264,7938,1,2,0:0:0:0:
256,264,8049,1,0,0:0:0:0:
256,192,8161,5,2,0:0:0:0:
256,192,8605,1,0,0:0:0:0:
40,192,9049,1,0,0:0:0:0:
136,192,9272,1,0,0:0:0:0:
40,192,9494,1,0,0:0:0:0:
136,192,9716,1,2,0:0:0:0:
472,192,10161,1,0,0:0:0:0:
376,192,10384,1,0,0:0:0:0:
472,192,10606,1,0,0:0:0:0:
376,192,10828,1,2,0:0:0:0:
112,96,11272,5,2,0:0:0:0:
256,48,11494,1,0,0:0:0:0:
400,96,11716,1,2,0:0:0:0:
32,240,12605,1,2,0:0:0:0:
480,240,13494,1,2,0:0:0:0:
256,192,13938,1,0,0:0:0:0:
136,320,14383,5,2,0:0:0:0:
376,320,14605,1,0,0:0:0:0:
112,248,14827,1,2,0:0:0:0:
400,248,15049,1,0,0:0:0:0:
24,192,15272,1,2,0:0:0:0:
488,192,16161,1,2,0:0:0:0:
256,192,17049,5,4,0:0:0:0:
144,192,17272,1,0,0:0:0:0:
80,144,17383,2,0,L|80:80,1,35,0|2,0:0|0:0,0:0:0:0:
368,192,17716,1,2,0:0:0:0:
432,144,17827,2,0,L|432:80,1,35,0|2,0:0|0:0,0:0:0:0:
144,192,18161,1,0,0:0:0:0:
368,192,18383,1,2,0:0:0:0:
96,192,18827,5,4,0:0:0:0:
256,192,19049,1,0,0:0:0:0:
416,192,19272,1,8,0:0:0:0:
152,192,19605,1,0,0:0:0:0:
40,192,19716,2,0,P|-8:128|24:72,1,140,0|8,0:0|0:0,0:0:0:0:
360,192,20494,1,0,0:0:0:0:
472,192,20605,2,0,P|520:128|488:72,1,140,0|8,0:0|0:0,0:0:0:0:
208,328,21383,1,0,0:0:0:0:
304,328,21494,1,0,0:0:0:0:
136,328,21716,1,0,0:0:0:0:
376,328,21938,1,8,0:0:0:0:
136,328,22161,1,0,0:0:0:0:
376,328,22383,5,0,0:0:0:0:
256,72,22605,1,0,0:0:0:0:
256,72,22827,1,8,0:0:0:0:
328,192,23161,1,0,0:0:0:0:
184,192,23272,1,0,0:0:0:0:
112,328,23494,1,0,0:0:0:0:
400,328,23716,1,8,0:0:0:0:
40,248,23938,1,0,0:0:0:0:
472,248,24383,1,0,0:0:0:0:
256,224,24605,1,8,0:0:0:0:
256,224,24827,1,0,0:0:0:0:
128,128,25049,2,0,L|40:184,1,105,4|0,0:0|0:0,0:0:0:0:
384,128,25494,2,0,L|472:184,1,105,4|0,0:0|0:0,0:0:0:0:
256,224,25938,5,4,0:0:0:0:
256,224,26161,1,0,0:0:0:0:
256,224,26383,1,8,0:0:0:0:
24,280,26716,1,0,0:0:0:0:
144,280,26827,2,0,P|192:272|144:240,1,140,0|8,0:0|0:0,0:0:0:0:
488,280,27605,1,0,0:0:0:0:
368,280,27716,2,0,P|320:272|368:240,1,140,0|8,0:0|0:0,0:0:0:0:
208,328,28494,1,0,0:0:0:0:
304,328,28605,1,0,0:0:0:0:
144,280,28827,2,0,L|112:216,1,70,0|8,0:0|0:0,0:0:0:0:
368,280,29272,2,0,L|400:216,1,70,0|4,0:0|0:0,0:0:0:0:
56,192,29938,5,8,0:0:0:0:
256,192,30161,1,0,0:0:0:0:
456,192,30383,1,4,0:0:0:0:
376,104,30827,1,8,0:0:0:0:
136,104,31049,1,0,0:0:0:0:
104,272,31494,1,0,0:0:0:0:
408,272,31716,1,8,0:0:0:0:
464,320,31938,1,0,0:0:0:0:
48,320,32161,1,0,0:0:0:0:
256,336,32605,1,8,0:0:0:0:
256,48,33049,5,6,0:0:0:0:
48,320,33494,2,0,L|40:152,1,140,2|0,0:0|0:0,0:0:0:0:
464,320,34161,2,0,L|472:152,1,140,2|2,0:0|0:0,0:0:0:0:
136,128,34827,1,4,0:0:0:0:
376,128,35049,1,0,0:0:0:0:
192,64,35272,1,8,0:0:0:0:
320,64,35494,1,0,0:0:0:0:
168,208,35716,1,0,0:0:0:0:
344,208,35938,1,0,0:0:0:0:
256,192,36161,1,8,0:0:0:0:
64,192,36383,5,2,0:0:0:0:
64,192,36605,1,4,0:0:0:0:
448,192,37049,1,0,0:0:0:0:
448,192,37271,1,0,0:0:0:0:
48,304,37716,1,0,0:0:0:0:
464,304,38161,1,2,0:0:0:0:
256,264,38383,5,4,0:0:0:0:
24,192,38827,1,0,0:0:0:0:
200,192,39049,1,0,0:0:0:0:
144,120,39272,1,4,0:0:0:0:
488,192,39716,1,0,0:0:0:0:
312,192,39938,1,0,0:0:0:0:
368,120,40161,1,4,0:0:0:0:
144,288,40605,6,0,L|128:136,1,140,2|0,0:0|0:0,0:0:0:0:
368,288,41272,2,0,L|384:136,1,140,2|2,0:0|0:0,0:0:0:0:
168,64,41938,1,4,0:0:0:0:
344,64,42161,1,0,0:0:0:0:
256,100,42383,2,0,L|256:312,1,210,2|2,0:0|0:0,0:0:0:0:
256,100,43272,1,2,0:0:0:0:
64,240,43494,6,0,L|24:336,1,70,2|4,0:0|0:0,0:0:0:0:
448,240,44161,2,0,L|488:336,1,70,2|0,0:0|0:0,0:0:0:0:
200,312,44827,1,0,0:0:0:0:
312,312,45049,1,0,0:0:0:0:
136,240,45272,1,2,0:0:0:0:
376,240,45494,1,4,0:0:0:0:
176,312,45716,2,0,L|128:312,3,35,2|0|0|0,0:0|0:0|0:0|0:0,0:0:0:0:
336,312,46161,2,0,L|384:312,3,35,2|0|0|0,0:0|0:0|0:0|0:0,0:0:0:0:
96,240,46605,2,0,L|72:192,1,35,2|0,0:0|0:0,0:0:0:0:
416,240,46827,2,0,L|440:192,1,35,2|0,0:0|0:0,0:0:0:0:
256,192,47049,2,0,L|256:144,1,35,2|0,0:0|0:0,0:0:0:0:
256,112,47272,5,4,0:0:0:0:
168,112,47494,1,0,0:0:0:0:
256,112,47716,1,8,0:0:0:0:
80,112,47938,1,0,0:0:0:0:
256,112,48161,1,0,0:0:0:0:
344,112,48383,1,0,0:0:0:0:
256,112,48605,1,8,0:0:0:0:
432,112,48827,1,0,0:0:0:0:
344,112,49049,6,0,L|368:40,1,70
168,112,49494,2,0,L|144:40,1,70,8|0,0:0|0:0,0:0:0:0:
368,192,49938,2,0,L|448:192,1,70
144,192,50383,2,0,L|64:192,1,70,8|0,0:0|0:0,0:0:0:0:
368,192,50827,6,0,P|440:168|464:104,1,140,2|8,0:0|0:0,0:0:0:0:
144,192,51494,2,0,P|72:168|48:104,1,140,2|0,0:0|0:0,0:0:0:0:
384,112,52161,1,8,0:0:0:0:
128,112,52383,1,0,0:0:0:0:
256,88,52605,1,2,0:0:0:0:
256,336,52827,5,0,0:0:0:0:
256,336,52938,1,0,0:0:0:0:
320,280,53049,1,2,0:0:0:0:
256,224,53160,1,0,0:0:0:0:
192,280,53272,1,0,0:0:0:0:
256,336,53383,1,0,0:0:0:0:
352,280,53494,1,2,0:0:0:0:
256,224,53605,1,0,0:0:0:0:
160,280,53716,1,0,0:0:0:0:
256,336,53827,1,0,0:0:0:0:
384,280,53938,1,2,0:0:0:0:
256,224,54049,1,0,0:0:0:0:
128,280,54161,1,2,0:0:0:0:
256,336,54272,1,0,0:0:0:0:
256,224,54383,5,6,0:0:0:0:
136,192,54827,2,0,L|120:48,1,140,8|0,0:0|0:0,0:0:0:0:
376,192,55494,2,0,L|392:48,1,140,2|0,0:0|0:0,0:0:0:0:
136,192,56161,6,0,L|120:264,1,70
376,192,56605,2,0,L|392:264,1,70,8|0,0:0|0:0,0:0:0:0:
136,192,57049,2,0,L|120:264,1,70
376,192,57494,2,0,L|392:264,1,70,8|0,0:0|0:0,0:0:0:0:
256,320,57938,5,2,0:0:0:0:
488,224,58383,1,8,0:0:0:0:
488,224,58605,1,0,0:0:0:0:
256,192,58827,1,0,0:0:0:0:
24,224,59049,1,0,0:0:0:0:
24,224,59272,1,8,0:0:0:0:
256,192,59494,1,0,0:0:0:0:
384,192,59716,6,0,L|416:192,2,17.5,2|0|0,0:0|0:0|0:0,0:0:0:0:
384,192,59938,1,0,0:0:0:0:
128,192,60161,2,0,L|96:192,2,17.5,2|0|0,0:0|0:0|0:0,0:0:0:0:
128,192,60383,1,0,0:0:0:0:
256,192,60605,2,0,L|256:160,2,17.5,2|0|0,0:0|0:0|0:0,0:0:0:0:
256,192,60827,1,0,0:0:0:0:
472,320,61049,1,2,0:0:0:0:
40,320,61272,1,2,0:0:0:0:
376,280,61494,6,0,P|376:208|440:208,1,140,4|8,0:0|0:0,0:0:0:0:
136,280,62383,2,0,P|136:208|72:208,1,140,0|8,0:0|0:0,0:0:0:0:
256,72,63272,5,0,0:0:0:0:
256,72,63494,1,2,0:0:0:0:
48,192,63938,1,2,0:0:0:0:
464,192,64383,1,2,0:0:0:0:
256,192,64827,1,2,0:0:0:0:
120,192,65049,6,0,L|120:336,1,140,4|8,0:0|0:0,0:0:0:0:
256,344,65716,1,0,0:0:0:0:
392,192,65938,2,0,L|392:336,1,140,0|8,0:0|0:0,0:0:0:0:
72,192,66827,5,0,0:0:0:0:
440,192,67049,1,0,0:0:0:0:
160,248,67272,1,8,0:0:0:0:
352,248,67494,1,0,0:0:0:0:
104,336,67716,1,2,0:0:0:0:
192,336,67827,1,0,0:0:0:0:
192,336,67938,1,0,0:0:0:0:
408,336,68161,1,8,0:0:0:0:
320,336,68272,1,0,0:0:0:0:
320,336,68383,1,2,0:0:0:0:
96,192,68605,6,0,L|72:48,1,140,4|8,0:0|0:0,0:0:0:0:
416,192,69494,2,0,L|440:48,1,140,0|8,0:0|0:0,0:0:0:0:
256,56,70383,5,2,0:0:0:0:
256,56,70605,1,0,0:0:0:0:
152,192,70827,2,0,L|128:272,1,70,8|0,0:0|0:0,0:0:0:0:
360,192,71271,2,0,L|384:272,1,70
152,192,71716,1,8,0:0:0:0:
360,192,71938,1,0,0:0:0:0:
112,320,72161,5,2,0:0:0:0:
400,320,72383,1,2,0:0:0:0:
72,80,72605,1,2,0:0:0:0:
440,80,72827,1,2,0:0:0:0:
152,192,73049,2,0,L|128:224,1,35,2|0,0:0|0:0,0:0:0:0:
360,192,73272,2,0,L|384:224,1,35,2|0,0:0|0:0,0:0:0:0:
72,192,73494,2,0,L|32:192,1,35,2|0,0:0|0:0,0:0:0:0:
440,192,73716,2,0,L|480:192,1,35,2|0,0:0|0:0,0:0:0:0:
256,192,73938,1,4,0:0:0:0:
256,192,74161,12,0,75049,0:0:0:0:
256,192,75272,5,4,0:0:0:0:
416,192,75716,1,4,0:0:0:0:
496,192,75938,1,0,0:0:0:0:
336,192,76161,1,8,0:0:0:0:
96,192,76383,1,0,0:0:0:0:
16,192,76605,1,0,0:0:0:0:
176,192,76828,1,0,0:0:0:0:
416,192,77049,1,8,0:0:0:0:
416,192,77272,1,0,0:0:0:0:
96,192,77716,5,0,0:0:0:0:
96,192,77939,1,8,0:0:0:0:
336,128,78161,1,0,0:0:0:0:
176,128,78383,1,0,0:0:0:0:
464,304,78827,1,8,0:0:0:0:
256,336,79049,1,0,0:0:0:0:
48,304,79272,1,0,0:0:0:0:
384,192,79716,5,8,0:0:0:0:
304,192,79938,1,0,0:0:0:0:
464,192,80161,1,0,0:0:0:0:
128,192,80383,1,0,0:0:0:0:
208,192,80605,1,8,0:0:0:0:
48,192,80828,1,0,0:0:0:0:
376,112,81049,1,0,0:0:0:0:
136,112,81272,1,0,0:0:0:0:
376,112,81494,1,8,0:0:0:0:
136,112,81716,1,0,0:0:0:0:
376,192,81938,6,0,L|440:192,1,35,0|0,0:0|0:0,0:0:0:0:
136,192,82161,2,0,L|72:192,1,35,0|0,0:0|0:0,0:0:0:0:
480,128,82383,2,0,L|464:80,1,35,8|0,0:0|0:0,0:0:0:0:
32,128,82605,2,0,L|48:80,1,35,8|0,0:0|0:0,0:0:0:0:
256,192,82827,5,4,0:0:0:0:
256,192,83272,1,8,0:0:0:0:
464,192,83716,1,0,0:0:0:0:
256,192,83938,1,0,0:0:0:0:
464,192,84161,1,8,0:0:0:0:
368,192,84383,1,0,0:0:0:0:
48,192,84827,1,0,0:0:0:0:
256,192,85049,1,8,0:0:0:0:
48,192,85272,1,0,0:0:0:0:
144,192,85494,1,0,0:0:0:0:
480,192,85938,5,8,0:0:0:0:
480,192,86161,1,0,0:0:0:0:
368,192,86383,1,4,0:0:0:0:
32,192,86827,1,8,0:0:0:0:
32,192,87050,1,0,0:0:0:0:
144,192,87272,1,4,0:0:0:0:
448,320,88161,5,4,0:0:0:0:
64,320,88605,1,0,0:0:0:0:
368,320,89049,1,0,0:0:0:0:
144,320,89272,1,0,0:0:0:0:
368,320,89494,1,0,0:0:0:0:
144,320,89716,1,0,0:0:0:0:
256,192,89938,1,4,0:0:0:0:
256,192,90161,12,0,91494,0:0:0:0:
256,192,91716,5,4,0:0:0:0:
256,192,95272,5,4,0:0:0:0:
48,192,95605,1,2,0:0:0:0:
48,192,95716,2,0,L|48:112,1,70,8|0,0:0|0:0,0:0:0:0:
144,192,96161,1,0,0:0:0:0:
464,192,96383,2,0,L|464:112,1,70,2|8,0:0|0:0,0:0:0:0:
368,192,96828,1,0,0:0:0:0:
48,192,97049,5,2,0:0:0:0:
464,192,97494,1,8,0:0:0:0:
144,192,97938,1,2,0:0:0:0:
144,192,98161,1,0,0:0:0:0:
368,192,98383,1,8,0:0:0:0:
368,192,98605,1,0,0:0:0:0:
256,192,98827,5,2,0:0:0:0:
464,192,99161,1,2,0:0:0:0:
464,192,99272,2,0,L|464:112,1,70,8|0,0:0|0:0,0:0:0:0:
368,192,99717,1,0,0:0:0:0:
48,192,99939,2,0,L|48:112,1,70,2|8,0:0|0:0,0:0:0:0:
144,192,100384,1,0,0:0:0:0:
464,192,100605,5,2,0:0:0:0:
256,192,100827,1,2,0:0:0:0:
336,192,100938,1,0,0:0:0:0:
336,192,101049,1,8,0:0:0:0:
48,192,101272,1,0,0:0:0:0:
256,192,101494,1,0,0:0:0:0:
176,192,101605,1,0,0:0:0:0:
176,192,101716,1,2,0:0:0:0:
464,192,101938,1,8,0:0:0:0:
256,192,102383,5,4,0:0:0:0:
112,192,102827,2,0,L|48:144,1,70,8|0,0:0|0:0,0:0:0:0:
56,150,103272,1,0,0:0:0:0:
400,192,103494,2,0,L|464:144,1,70,2|8,0:0|0:0,0:0:0:0:
456,150,103939,1,0,0:0:0:0:
176,128,104161,5,0,0:0:0:0:
336,128,104383,1,0,0:0:0:0:
256,80,104605,1,8,0:0:0:0:
208,304,105049,1,0,0:0:0:0:
304,304,105272,1,0,0:0:0:0:
208,304,105494,1,8,0:0:0:0:
304,304,105716,1,0,0:0:0:0:
144,304,105938,5,2,0:0:0:0:
368,304,106161,1,2,0:0:0:0:
144,304,106383,1,2,0:0:0:0:
368,304,106605,1,2,0:0:0:0:
104,224,106827,1,2,0:0:0:0:
408,224,107049,1,2,0:0:0:0:
104,224,107272,1,2,0:0:0:0:
408,224,107494,1,2,0:0:0:0:
104,224,107716,6,0,L|64:224,3,35,2|0|0|0,0:0|0:0|0:0|0:0,0:0:0:0:
408,224,108161,2,0,L|448:224,3,35,2|0|0|0,0:0|0:0|0:0|0:0,0:0:0:0:
104,224,108605,2,0,L|48:224,1,35,2|0,0:0|0:0,0:0:0:0:
408,224,108827,2,0,L|464:224,1,35,2|0,0:0|0:0,0:0:0:0:
256,192,109049,2,0,L|256:144,2,35,2|0|2,0:0|0:0|0:0,0:0:0:0:
48,192,109494,5,4,0:0:0:0:
48,192,109716,1,0,0:0:0:0:
120,192,109938,1,8,0:0:0:0:
48,192,110161,1,0,0:0:0:0:
464,192,110383,1,0,0:0:0:0:
464,192,110605,1,0,0:0:0:0:
392,192,110827,1,8,0:0:0:0:
464,192,111050,1,0,0:0:0:0:
120,264,111272,6,0,L|120:192,1,70,2|0,0:0|0:0,0:0:0:0:
392,264,111938,2,0,L|392:192,1,70,2|0,0:0|0:0,0:0:0:0:
256,336,112383,1,2,0:0:0:0:
256,336,112827,1,2,0:0:0:0:
56,336,113049,6,0,L|40:192,1,140,4|8,0:0|0:0,0:0:0:0:
456,336,113938,2,0,L|472:192,1,140,0|8,0:0|0:0,0:0:0:0:
256,192,114827,5,2,0:0:0:0:
256,192,115272,1,0,0:0:0:0:
256,192,115494,1,2,0:0:0:0:
160,192,115716,1,2,0:0:0:0:
160,192,115938,1,0,0:0:0:0:
352,192,116161,1,2,0:0:0:0:
352,192,116383,1,0,0:0:0:0:
120,112,116605,5,4,0:0:0:0:
392,112,117049,1,8,0:0:0:0:
64,288,117494,1,0,0:0:0:0:
448,288,117938,1,8,0:0:0:0:
256,328,118383,5,2,0:0:0:0:
256,328,118605,2,0,L|256:168,1,140,4|0,0:0|0:0,0:0:0:0:
160,176,119272,2,0,L|152:104,1,70,2|0,0:0|0:0,0:0:0:0:
352,176,119716,2,0,L|360:104,1,70,2|0,0:0|0:0,0:0:0:0:
128,256,120161,6,0,L|48:280,1,70,2|0,0:0|0:0,0:0:0:0:
384,256,120605,2,0,L|464:280,1,70,2|0,0:0|0:0,0:0:0:0:
80,152,121049,1,2,0:0:0:0:
80,152,121161,1,0,0:0:0:0:
152,152,121272,1,2,0:0:0:0:
80,152,121383,1,0,0:0:0:0:
432,152,121494,1,2,0:0:0:0:
432,152,121606,1,0,0:0:0:0:
360,152,121717,1,2,0:0:0:0:
432,152,121828,1,0,0:0:0:0:
256,192,121938,5,4,0:0:0:0:
256,192,122161,12,0,125049,0:0:0:0:
436,280,125272,5,4,0:0:0:0:
76,280,125494,1,4,0:0:0:0:
360,192,125716,1,0,0:0:0:0:
152,192,125938,1,8,0:0:0:0:
152,192,126383,1,0,0:0:0:0:
360,192,126605,1,0,0:0:0:0:
132,280,126827,1,8,0:0:0:0:
380,280,127049,1,0,0:0:0:0:
152,192,127494,6,0,L|120:116,1,70,0|8,0:0|0:0,0:0:0:0:
360,192,127938,2,0,L|392:116,1,70,0|8,0:0|0:0,0:0:0:0:
32,192,128605,1,8,0:0:0:0:
256,192,128827,1,0,0:0:0:0:
480,192,129049,1,0,0:0:0:0:
136,96,129494,5,8,0:0:0:0:
376,96,129716,1,0,0:0:0:0:
48,304,130161,1,0,0:0:0:0:
464,304,130383,1,8,0:0:0:0:
256,320,130605,1,0,0:0:0:0:
320,272,130827,1,0,0:0:0:0:
192,272,131049,1,0,0:0:0:0:
352,192,131272,1,8,0:0:0:0:
160,192,131494,1,0,0:0:0:0:
312,64,131716,6,0,L|352:64,1,35
200,64,131938,2,0,L|160:64,1,35
312,64,132161,2,0,L|352:64,1,35,8|0,0:0|0:0,0:0:0:0:
200,64,132383,2,0,L|160:64,1,35
256,136,132605,5,4,0:0:0:0:
256,212,132827,1,0,0:0:0:0:
256,288,133049,1,8,0:0:0:0:
120,320,133494,1,0,0:0:0:0:
16,320,133716,1,0,0:0:0:0:
192,320,133938,1,8,0:0:0:0:
16,320,134161,1,0,0:0:0:0:
392,320,134605,1,0,0:0:0:0:
496,320,134827,1,8,0:0:0:0:
320,320,135049,1,0,0:0:0:0:
496,320,135272,1,0,0:0:0:0:
192,320,135716,5,8,0:0:0:0:
320,320,135938,1,0,0:0:0:0:
160,240,136161,1,4,0:0:0:0:
352,240,136383,1,0,0:0:0:0:
160,240,136605,1,8,0:0:0:0:
352,240,136827,1,0,0:0:0:0:
112,160,137049,1,4,0:0:0:0:
400,160,137272,1,0,0:0:0:0:
112,160,137494,1,8,0:0:0:0:
400,160,137716,1,0,0:0:0:0:
48,256,137938,5,0,0:0:0:0:
16,256,138049,1,0,0:0:0:0:
16,256,138161,1,0,0:0:0:0:
48,256,138272,1,0,0:0:0:0:
464,256,138383,1,0,0:0:0:0:
496,256,138494,1,0,0:0:0:0:
496,256,138606,1,0,0:0:0:0:
464,256,138717,1,0,0:0:0:0:
256,256,138827,1,0,0:0:0:0:
256,256,138938,1,0,0:0:0:0:
256,256,139049,1,4,0:0:0:0:
256,256,139272,2,0,L|256:176,1,70,2|0,0:0|0:0,0:0:0:0:
88,192,139716,5,4,0:0:0:0:
256,112,139938,1,0,0:0:0:0:
424,192,140161,1,8,0:0:0:0:
48,192,140605,1,0,0:0:0:0:
464,192,140827,1,0,0:0:0:0:
160,192,141049,1,8,0:0:0:0:
352,192,141272,1,0,0:0:0:0:
48,192,141716,1,0,0:0:0:0:
160,192,141938,1,8,0:0:0:0:
120,112,142161,1,0,0:0:0:0:
464,192,142383,1,0,0:0:0:0:
352,192,142605,1,0,0:0:0:0:
392,112,142828,5,8,0:0:0:0:
48,192,143049,2,0,L|48:96,1,70
464,192,143716,2,0,L|464:96,1,70,8|0,0:0|0:0,0:0:0:0:
256,320,144383,1,0,0:0:0:0:
32,320,144605,1,8,0:0:0:0:
112,240,144827,1,0,0:0:0:0:
256,192,145049,1,0,0:0:0:0:
400,240,145272,1,0,0:0:0:0:
480,320,145494,1,8,0:0:0:0:
256,320,145716,1,0,0:0:0:0:
160,192,145938,6,0,L|96:192,1,35
352,192,146161,2,0,L|416:192,1,35
184,128,146383,2,0,L|168:96,1,35
328,128,146605,2,0,L|344:96,1,35
256,64,146827,5,4,0:0:0:0:
256,64,147049,1,0,0:0:0:0:
128,96,147272,2,0,L|112:240,1,140,8|0,0:0|0:0,0:0:0:0:
384,96,147938,2,0,L|400:240,1,140
256,304,148605,1,4,0:0:0:0:
128,192,148827,1,0,0:0:0:0:
384,192,149049,1,8,0:0:0:0:
128,192,149272,1,0,0:0:0:0:
384,192,149494,1,0,0:0:0:0:
256,192,149938,5,8,0:0:0:0:
256,192,150161,1,0,0:0:0:0:
128,192,150383,2,0,L|16:192,1,105.000004005432,4|0,0:0|0:0,0:0:0:0:
384,192,150827,2,0,L|496:192,1,105.000004005432,8|0,0:0|0:0,0:0:0:0:
128,192,151272,2,0,L|16:192,1,105.000004005432,4|0,0:0|0:0,0:0:0:0:
384,192,151716,2,0,L|496:192,1,105.000004005432,8|0,0:0|0:0,0:0:0:0:
128,192,152161,5,4,0:0:0:0:
256,192,152383,1,2,0:0:0:0:
384,192,152605,1,2,0:0:0:0:
256,192,152827,1,4,0:0:0:0:
128,192,153049,2,0,L|96:96,1,70,0|4,0:0|0:0,0:0:0:0:
384,192,153494,2,0,L|416:96,1,70,2|2,0:0|0:0,0:0:0:0:
256,192,153938,5,4,0:0:0:0:
256,192,154827,1,2,0:0:0:0:
256,192,155716,1,4,0:0:0:0:
256,192,155938,12,0,157272,0:0:0:0:
256,192,157494,5,4,0:0:0:0:
