osu file format v12

[General]
AudioFilename: VOICE.mp3
AudioLeadIn: 1000
PreviewTime: 75716
Countdown: 0
SampleSet: Soft
StackLeniency: 0.7
Mode: 2
LetterboxInBreaks: 0

[Editor]
Bookmarks: 75694,95250,125472
DistanceSpacing: 1.2
BeatDivisor: 4
GridSize: 4

[Metadata]
Title:VOiCE
TitleUnicode:VOiCE
Artist:Romaji
ArtistUnicode:Romaji
Creator:eldnl
Version:Cup
Source:
Tags:hatsune miku vocaloid
BeatmapID:255098
BeatmapSetID:90323

[Difficulty]
HPDrainRate:3
CircleSize:2
OverallDifficulty:3
ApproachRate:5
SliderMultiplier:1
SliderTickRate:2

[Events]
//Background and Video events
0,0,"BG.jpg",0,0
//Break Periods
2,91916,94072
//Storyboard Layer 0 (Background)
//Storyboard Layer 1 (Fail)
//Storyboard Layer 2 (Pass)
//Storyboard Layer 3 (Foreground)
//Storyboard Sound Samples
//Background Colour Transformations
3,100,163,162,255

[TimingPoints]
1050,444.444444444444,4,2,0,90,1,0
18827,-100,4,1,1,80,0,0
22605,-100,4,1,2,80,0,0
23049,-100,4,1,1,80,0,0
23938,-100,4,1,1,70,0,0
24383,-100,4,1,1,80,0,0
33049,-100,4,2,0,90,0,0
75716,-100,4,1,1,80,0,1
79494,-100,4,1,2,80,0,1
81716,-100,4,1,1,80,0,1
86605,-100,4,1,2,80,0,1
88827,-100,4,1,1,80,0,1
89938,-100,4,1,0,80,0,0
95272,-100,4,2,1,90,0,0
100827,-66.6666666666667,4,2,1,90,0,0
101938,-100,4,2,1,90,0,0
115716,-100,4,2,1,60,0,0
116605,-100,4,2,1,90,0,0
125494,-100,4,1,1,80,0,1
129272,-100,4,1,2,80,0,1
129716,-100,4,1,1,80,0,1
131049,-100,4,1,2,80,0,1
131494,-100,4,1,1,80,0,1
139272,-100,4,1,1,80,0,0
139716,-100,4,1,1,80,0,1
150716,-100,4,1,2,80,0,1
152161,-100,4,2,0,90,0,0
157494,-100,4,1,0,100,0,1
157716,-100,4,1,0,100,0,0

[Colours]
Combo1 : 255,157,255
Combo2 : 81,255,255

[HitObjects]
256,192,1050,1,4,0:0:0:0:
64,192,2383,6,0,L|64:80,1,100,0|2,0:0|0:0,0:0:0:0:
448,192,4161,6,0,L|448:80,1,100,0|2,0:0|0:0,0:0:0:0:
256,192,5938,5,0,0:0:0:0:
112,192,6383,1,2,0:0:0:0:
256,192,6827,1,0,0:0:0:0:
400,192,7272,1,2,0:0:0:0:
256,192,7716,2,0,L|256:80,1,100,0|2,0:0|0:0,0:0:0:0:
144,304,9049,6,0,L|128:144,1,150,0|2,0:0|0:0,0:0:0:0:
368,304,10161,2,0,L|384:144,1,150,2|0,0:0|0:0,0:0:0:0:
96,192,11716,5,2,0:0:0:0:
256,192,12605,1,0,0:0:0:0:
416,192,13494,1,2,0:0:0:0:
256,192,15272,5,2,0:0:0:0:
256,192,16161,1,0,0:0:0:0:
256,192,17049,1,4,0:0:0:0:
432,192,18827,5,4,0:0:0:0:
336,192,19272,1,8,0:0:0:0:
336,192,19716,2,0,L|336:88,1,100,0|8,0:0|0:0,0:0:0:0:
80,192,20605,5,0,0:0:0:0:
176,192,21050,1,8,0:0:0:0:
176,192,21494,2,0,L|176:88,1,100,0|8,0:0|0:0,0:0:0:0:
344,256,22383,6,0,P|400:184|408:72,1,200
168,256,23716,2,0,P|112:184|104:72,1,200,8|8,0:0|0:0,0:0:0:0:
256,88,25049,1,0,0:0:0:0:
256,88,25494,1,8,0:0:0:0:
440,192,25938,5,0,0:0:0:0:
320,192,26383,1,8,0:0:0:0:
192,192,26827,1,0,0:0:0:0:
72,192,27272,1,8,0:0:0:0:
192,192,27716,6,0,L|192:72,1,100,0|8,0:0|0:0,0:0:0:0:
320,192,28605,2,0,L|320:72,1,100,0|8,0:0|0:0,0:0:0:0:
440,192,29494,5,4,0:0:0:0:
72,192,30383,1,4,0:0:0:0:
256,192,31272,12,0,32605,0:0:0:0:
424,192,33049,5,4,0:0:0:0:
360,192,33494,1,8,0:0:0:0:
424,192,33938,1,0,0:0:0:0:
256,192,34383,1,8,0:0:0:0:
88,192,34827,5,4,0:0:0:0:
152,192,35272,1,8,0:0:0:0:
88,192,35716,1,0,0:0:0:0:
256,192,36161,1,8,0:0:0:0:
408,192,36605,6,0,P|364:144|356:60,1,150,4|0,0:0|0:0,0:0:0:0:
104,192,37716,2,0,P|148:144|156:60,1,150,2|4,0:0|0:0,0:0:0:0:
432,192,39272,5,4,0:0:0:0:
80,192,40161,1,4,0:0:0:0:
448,192,41716,6,0,L|464:136,1,50,2|4,0:0|0:0,0:0:0:0:
64,192,43494,2,0,L|48:136,1,50,2|4,0:0|0:0,0:0:0:0:
256,192,44161,5,8,0:0:0:0:
316,88,44605,1,0,0:0:0:0:
196,88,45049,1,8,0:0:0:0:
256,192,45494,12,0,46827,0:0:0:0:
256,192,47272,5,4,0:0:0:0:
136,192,47716,1,8,0:0:0:0:
16,192,48161,1,0,0:0:0:0:
76,192,48605,1,8,0:0:0:0:
256,192,49049,5,2,0:0:0:0:
376,192,49493,1,8,0:0:0:0:
496,192,49938,1,0,0:0:0:0:
436,192,50382,1,8,0:0:0:0:
256,192,50827,6,0,L|144:192,1,100,2|8,0:0|0:0,0:0:0:0:
32,192,51716,2,0,L|32:88,1,100,0|8,0:0|0:0,0:0:0:0:
256,192,52605,6,0,L|368:192,1,100,2|8,0:0|0:0,0:0:0:0:
480,192,53494,2,0,L|480:88,1,100,0|8,0:0|0:0,0:0:0:0:
256,192,54383,5,4,0:0:0:0:
32,192,54827,2,0,L|32:92,1,100,8|0,0:0|0:0,0:0:0:0:
180,92,55716,1,8,0:0:0:0:
332,92,56161,5,0,0:0:0:0:
480,192,56605,2,0,L|480:92,1,100,8|0,0:0|0:0,0:0:0:0:
256,192,57494,1,8,0:0:0:0:
256,192,57938,12,0,61049,0:0:0:0:
88,192,61494,5,4,0:0:0:0:
48,80,61938,1,8,0:0:0:0:
88,192,62383,1,0,0:0:0:0:
256,192,62827,1,8,0:0:0:0:
424,192,63272,5,2,0:0:0:0:
464,80,63716,1,8,0:0:0:0:
424,192,64161,1,0,0:0:0:0:
256,192,64605,1,8,0:0:0:0:
88,192,65049,6,0,L|88:80,1,100,2|8,0:0|0:0,0:0:0:0:
256,192,65938,1,0,0:0:0:0:
424,192,66383,2,0,L|424:80,1,100,8|0,0:0|0:0,0:0:0:0:
256,192,67272,2,0,L|256:128,1,50,8|0,0:0|0:0,0:0:0:0:
80,316,68605,6,0,P|147:245|83:168,1,200,4|0,0:0|0:0,0:0:0:0:
256,192,69938,1,8,0:0:0:0:
432,316,70383,2,0,P|364:245|428:168,1,200,0|0,0:0|0:0,0:0:0:0:
256,192,71716,1,8,0:0:0:0:
224,84,72161,5,2,0:0:0:0:
192,44,72383,1,0,0:0:0:0:
224,84,72605,1,2,0:0:0:0:
288,84,72827,1,0,0:0:0:0:
320,44,73049,5,2,0:0:0:0:
288,84,73272,1,0,0:0:0:0:
224,84,73494,1,2,0:0:0:0:
192,44,73716,1,0,0:0:0:0:
224,84,73938,1,4,0:0:0:0:
256,192,74161,12,4,75272,0:0:0:0:
160,192,75716,6,0,L|56:192,2,100,4|8|0,0:0|0:0|0:0,0:0:0:0:
352,192,77049,2,0,L|456:192,2,100,8|0|8,0:0|0:0|0:0,0:0:0:0:
160,192,78383,1,0,0:0:0:0:
352,192,78827,1,8,0:0:0:0:
160,192,79272,6,0,P|80:216|112:136,1,200,0|0,0:0|0:0,0:0:0:0:
352,192,81049,2,0,P|432:216|400:136,1,200
256,192,82827,5,4,0:0:0:0:
116,192,83272,2,0,L|164:288,2,100,8|0|8,0:0|0:0|0:0,0:0:0:0:
396,192,84605,2,0,L|348:288,2,100,0|8|0,0:0|0:0|0:0,0:0:0:0:
256,192,85938,1,8,0:0:0:0:
96,192,86383,6,0,P|136:104|72:40,1,200,4|0,0:0|0:0,0:0:0:0:
416,192,88161,2,0,P|376:104|440:40,1,200,4|0,0:0|0:0,0:0:0:0:
256,192,89494,1,8,0:0:0:0:
256,192,89938,12,0,91272,0:0:0:0:
256,192,91716,5,4,0:0:0:0:
88,192,95272,5,4,0:0:0:0:
200,192,95716,1,8,0:0:0:0:
312,192,96161,1,0,0:0:0:0:
424,192,96605,1,8,0:0:0:0:
200,192,97049,6,0,L|160:80,1,100,2|8,0:0|0:0,0:0:0:0:
312,192,97938,2,0,L|352:80,1,100,0|8,0:0|0:0,0:0:0:0:
152,312,98827,5,2,0:0:0:0:
152,312,99272,1,8,0:0:0:0:
360,312,99716,1,0,0:0:0:0:
360,312,100161,1,8,0:0:0:0:
256,192,100605,5,2,0:0:0:0:
220,120,100827,1,0,0:0:0:0:
256,44,101049,1,2,0:0:0:0:
292,120,101272,1,0,0:0:0:0:
256,192,101494,1,2,0:0:0:0:
220,120,101716,1,0,0:0:0:0:
256,44,101938,1,4,0:0:0:0:
56,192,102383,5,4,0:0:0:0:
192,192,102827,1,8,0:0:0:0:
56,192,103272,1,0,0:0:0:0:
192,192,103716,1,8,0:0:0:0:
456,192,104161,5,2,0:0:0:0:
320,192,104605,1,8,0:0:0:0:
456,192,105050,1,0,0:0:0:0:
320,192,105494,1,8,0:0:0:0:
80,192,105938,6,0,P|48:144|120:40,1,200,4|0,0:0|0:0,0:0:0:0:
256,192,107272,1,2,0:0:0:0:
432,192,107716,2,0,P|464:144|392:40,1,200,4|0,0:0|0:0,0:0:0:0:
256,192,109049,1,2,0:0:0:0:
136,320,109494,6,0,L|136:208,1,100,4|8,0:0|0:0,0:0:0:0:
376,320,110383,2,0,L|376:208,1,100,0|8,0:0|0:0,0:0:0:0:
136,64,111272,6,0,L|136:128,1,50,0|2,0:0|0:0,0:0:0:0:
312,192,111938,1,2,0:0:0:0:
200,192,112383,1,2,0:0:0:0:
376,64,112827,2,0,L|376:128,1,50,2|4,0:0|0:0,0:0:0:0:
200,104,113494,6,0,L|144:192,1,100,8|0,0:0|0:0,0:0:0:0:
312,104,114383,2,0,L|368:192,1,100,8|0,0:0|0:0,0:0:0:0:
256,296,115272,2,0,L|256:236,1,50,8|0,0:0|0:0,0:0:0:0:
256,296,115716,2,0,L|256:176,1,100,2|2,0:0|0:0,0:0:0:0:
148,192,116605,5,4,0:0:0:0:
256,192,117049,1,8,0:0:0:0:
364,192,117494,1,0,0:0:0:0:
256,192,117938,1,8,0:0:0:0:
56,192,118383,5,0,0:0:0:0:
256,192,118827,1,8,0:0:0:0:
456,192,119272,1,0,0:0:0:0:
256,192,119716,1,8,0:0:0:0:
192,192,120161,6,0,L|192:128,1,50,2|0,0:0|0:0,0:0:0:0:
320,192,120605,2,0,L|320:128,1,50,2|0,0:0|0:0,0:0:0:0:
184,192,121049,2,0,L|160:192,2,25,2|0|0,0:0|0:0|0:0,0:0:0:0:
328,192,121494,2,0,L|352:192,2,25,2|0|0,0:0|0:0|0:0,0:0:0:0:
256,192,121938,12,0,125049,0:0:0:0:
96,328,125494,6,0,L|96:224,1,100,4|8,0:0|0:0,0:0:0:0:
256,192,126383,2,0,L|168:128,1,100,0|8,0:0|0:0,0:0:0:0:
416,328,127272,6,0,L|416:224,1,100,0|8,0:0|0:0,0:0:0:0:
256,192,128161,2,0,L|344:128,1,100,0|8,0:0|0:0,0:0:0:0:
80,307,129049,6,0,P|31:245|79:121,1,200
256,192,130383,1,8,0:0:0:0:
431,307,130827,2,0,P|480:245|432:121,1,200
256,192,132161,2,0,L|256:80,1,100,8|4,0:0|0:0,0:0:0:0:
64,192,133049,5,8,0:0:0:0:
40,192,133494,1,0,0:0:0:0:
64,192,133938,1,8,0:0:0:0:
256,192,134383,5,0,0:0:0:0:
448,192,134827,1,8,0:0:0:0:
472,192,135272,1,0,0:0:0:0:
448,192,135716,1,8,0:0:0:0:
256,192,136161,6,0,L|256:256,1,50
168,192,136606,1,8,0:0:0:0:
256,192,136828,1,0,0:0:0:0:
344,192,137050,1,0,0:0:0:0:
256,192,137272,2,0,L|256:128,2,50,0|8|0,0:0|0:0|0:0,0:0:0:0:
256,192,137938,12,0,139272,0:0:0:0:
256,192,139716,6,0,L|144:192,1,100,4|8,0:0|0:0,0:0:0:0:
256,192,140605,2,0,L|368:192,1,100,0|8,0:0|0:0,0:0:0:0:
184,80,141494,6,0,L|80:80,1,100,0|8,0:0|0:0,0:0:0:0:
328,80,142383,2,0,L|432:80,1,100,0|8,0:0|0:0,0:0:0:0:
256,192,143272,5,0,0:0:0:0:
136,192,143716,2,0,L|32:192,2,100,8|0|8,0:0|0:0|0:0,0:0:0:0:
256,192,145049,5,0,0:0:0:0:
376,192,145494,2,0,L|480:192,2,100,8|0|8,0:0|0:0|0:0,0:0:0:0:
256,192,146827,5,4,0:0:0:0:
136,192,147272,2,0,L|112:40,1,150,8|0,0:0|0:0,0:0:0:0:
376,192,148383,2,0,L|400:40,1,150,0|8,0:0|0:0,0:0:0:0:
256,192,149494,1,0,0:0:0:0:
256,192,149938,1,8,0:0:0:0:
128,64,150383,6,0,L|64:272,1,200,4|4,0:0|0:0,0:0:0:0:
224,192,151716,1,0,0:0:0:0:
128,64,152161,1,4,0:0:0:0:
384,64,153049,5,2,0:0:0:0:
288,192,153494,1,2,0:0:0:0:
384,64,153938,2,0,L|448:272,1,200,4|4,0:0|0:0,0:0:0:0:
256,192,155716,12,0,157049,0:0:0:0:
256,192,157494,5,4,0:0:0:0:
