osu file format v14

[General]
AudioFilename: VOICE.mp3
AudioLeadIn: 1000
PreviewTime: 171568
Countdown: 0
SampleSet: Normal
StackLeniency: 0.7
Mode: 1
LetterboxInBreaks: 0
WidescreenStoryboard: 1

[Editor]
Bookmarks: 1028,18805,33027,61472,75694,109472,125472,157472
DistanceSpacing: 1.2
BeatDivisor: 6
GridSize: 32
TimelineZoom: 2.1

[Metadata]
Title:VOiCE
TitleUnicode:VOiCE
Artist:Romaji
ArtistUnicode:Romaji
Creator:Jinyan
Version:Oni
Source:
Tags:hatsune miku vocaloid Kin Jinyan
BeatmapID:383741
BeatmapSetID:144095

[Difficulty]
HPDrainRate:7
CircleSize:4
OverallDifficulty:7
ApproachRate:5
SliderMultiplier:1.6
SliderTickRate:2

[Events]
//Background and Video events
0,0,"Voice Jin.jpg",0,120
//Break Periods
//Storyboard Layer 0 (Background)
//Storyboard Layer 1 (Fail)
//Storyboard Layer 2 (Pass)
//Storyboard Layer 3 (Foreground)
//Storyboard Sound Samples

[TimingPoints]
1050,444.444444444444,4,2,0,90,1,0
1050,-100,4,2,0,90,0,0
75716,-100,4,1,0,80,0,1
89938,-100,4,1,0,80,0,0
100827,-100,4,1,0,60,0,0
102383,-100,4,1,0,80,0,0
112383,-100,4,1,0,60,0,0
113049,-100,4,1,0,80,0,0
115716,-100,4,1,0,100,0,0
116383,-100,4,1,0,80,0,0
118047,-100,4,1,0,60,0,0
118380,-100,4,1,0,80,0,0
119492,-100,4,1,0,60,0,0
119714,-100,4,1,0,80,0,0
125494,-100,4,1,0,80,0,1
139272,-100,4,2,0,60,0,0
139716,-100,4,1,0,80,0,1
152161,-100,4,2,0,70,0,0
157268,-100,4,2,0,60,0,0
157490,-100,4,1,0,80,0,0

[Colours]
Combo1 : 255,157,255
Combo2 : 81,255,255

[HitObjects]
256,192,1050,5,2,0:0:0:0:
256,192,1272,1,0,0:0:0:0:
256,192,1494,1,0,0:0:0:0:
256,192,1716,1,0,0:0:0:0:
256,192,1938,1,0,0:0:0:0:
256,192,2161,1,0,0:0:0:0:
256,192,2383,1,0,0:0:0:0:
256,192,2605,1,0,0:0:0:0:
256,192,2827,1,2,0:0:0:0:
256,192,3049,1,0,0:0:0:0:
256,192,3272,1,0,0:0:0:0:
256,192,3494,1,0,0:0:0:0:
256,192,3716,1,0,0:0:0:0:
256,192,3938,1,0,0:0:0:0:
256,192,4161,1,2,0:0:0:0:
256,192,4383,1,0,0:0:0:0:
256,192,4605,1,2,0:0:0:0:
256,192,4827,1,0,0:0:0:0:
256,192,5049,1,0,0:0:0:0:
256,192,5272,1,0,0:0:0:0:
256,192,5494,1,0,0:0:0:0:
256,192,5716,1,0,0:0:0:0:
256,192,5938,1,0,0:0:0:0:
256,192,6161,1,2,0:0:0:0:
256,192,6272,1,0,0:0:0:0:
256,192,6383,1,2,0:0:0:0:
256,192,6605,1,0,0:0:0:0:
256,192,6827,1,0,0:0:0:0:
256,192,7049,1,0,0:0:0:0:
256,192,7272,1,0,0:0:0:0:
256,192,7383,1,0,0:0:0:0:
256,192,7494,1,0,0:0:0:0:
256,192,7605,1,0,0:0:0:0:
256,192,7716,1,2,0:0:0:0:
256,192,7827,1,2,0:0:0:0:
256,192,7938,1,2,0:0:0:0:
256,192,8049,1,2,0:0:0:0:
256,192,8161,1,2,0:0:0:0:
256,192,8383,1,0,0:0:0:0:
256,192,8605,1,0,0:0:0:0:
256,192,8827,1,0,0:0:0:0:
256,192,9049,1,0,0:0:0:0:
256,192,9272,1,0,0:0:0:0:
256,192,9494,1,2,0:0:0:0:
256,192,9716,1,0,0:0:0:0:
256,192,9938,1,2,0:0:0:0:
256,192,10161,1,0,0:0:0:0:
256,192,10383,1,0,0:0:0:0:
256,192,10605,1,0,0:0:0:0:
256,192,10827,1,0,0:0:0:0:
256,192,11049,1,0,0:0:0:0:
256,192,11272,1,2,0:0:0:0:
256,192,11494,1,0,0:0:0:0:
256,192,11716,1,2,0:0:0:0:
256,192,12605,1,2,0:0:0:0:
256,192,13494,1,0,0:0:0:0:
256,192,14383,1,0,0:0:0:0:
256,192,14605,1,0,0:0:0:0:
256,192,14827,1,0,0:0:0:0:
256,192,15049,1,0,0:0:0:0:
256,192,15272,1,2,0:0:0:0:
256,192,16161,1,2,0:0:0:0:
256,192,17049,1,0,0:0:0:0:
256,192,17494,1,0,0:0:0:0:
256,192,17605,1,0,0:0:0:0:
256,192,17716,1,8,0:0:0:0:
256,192,17938,1,8,0:0:0:0:
256,192,18049,1,8,0:0:0:0:
256,192,18161,1,0,0:0:0:0:
256,192,18383,1,8,0:0:0:0:
256,192,18827,1,2,0:0:0:0:
256,192,19272,1,2,0:0:0:0:
256,192,19605,1,0,0:0:0:0:
256,192,19716,1,2,0:0:0:0:
256,192,19938,1,0,0:0:0:0:
256,192,20161,1,2,0:0:0:0:
256,192,20494,1,0,0:0:0:0:
256,192,20605,1,2,0:0:0:0:
256,192,20827,1,0,0:0:0:0:
256,192,20938,1,0,0:0:0:0:
256,192,21049,1,2,0:0:0:0:
256,192,21383,1,0,0:0:0:0:
256,192,21494,1,2,0:0:0:0:
256,192,21716,1,2,0:0:0:0:
256,192,21938,1,0,0:0:0:0:
256,192,22161,1,2,0:0:0:0:
256,192,22383,1,2,0:0:0:0:
256,192,22605,1,0,0:0:0:0:
256,192,22716,1,0,0:0:0:0:
256,192,22827,1,2,0:0:0:0:
256,192,23161,1,0,0:0:0:0:
256,192,23272,1,2,0:0:0:0:
256,192,23494,1,0,0:0:0:0:
256,192,23716,1,2,0:0:0:0:
256,192,23938,1,8,0:0:0:0:
256,192,24049,1,0,0:0:0:0:
256,192,24161,1,2,0:0:0:0:
256,192,24383,1,2,0:0:0:0:
256,192,24605,1,0,0:0:0:0:
256,192,24827,1,2,0:0:0:0:
256,192,25049,1,2,0:0:0:0:
256,192,25161,1,0,0:0:0:0:
256,192,25272,1,0,0:0:0:0:
256,192,25494,1,2,0:0:0:0:
256,192,25605,1,0,0:0:0:0:
256,192,25716,1,0,0:0:0:0:
256,192,25938,1,2,0:0:0:0:
256,192,26161,1,0,0:0:0:0:
256,192,26383,1,8,0:0:0:0:
256,192,26605,1,8,0:0:0:0:
256,192,26716,1,0,0:0:0:0:
256,192,26827,1,8,0:0:0:0:
256,192,27049,1,0,0:0:0:0:
256,192,27272,1,10,0:0:0:0:
256,192,27494,1,8,0:0:0:0:
256,192,27605,1,0,0:0:0:0:
256,192,27716,1,10,0:0:0:0:
256,192,27938,1,0,0:0:0:0:
256,192,28049,1,0,0:0:0:0:
256,192,28161,1,8,0:0:0:0:
256,192,28383,1,2,0:0:0:0:
256,192,28605,1,0,0:0:0:0:
256,192,28827,1,0,0:0:0:0:
256,192,28938,1,0,0:0:0:0:
256,192,29049,1,8,0:0:0:0:
256,192,29272,1,0,0:0:0:0:
256,192,29494,1,6,0:0:0:0:
256,192,29938,1,6,0:0:0:0:
256,192,30161,1,0,0:0:0:0:
256,192,30272,1,0,0:0:0:0:
256,192,30383,1,2,0:0:0:0:
256,192,30605,1,8,0:0:0:0:
256,192,30827,1,2,0:0:0:0:
256,192,31049,1,0,0:0:0:0:
256,192,31272,1,0,0:0:0:0:
256,192,31383,1,8,0:0:0:0:
256,192,31494,1,8,0:0:0:0:
256,192,31605,1,0,0:0:0:0:
256,192,31716,1,8,0:0:0:0:
256,192,31827,1,8,0:0:0:0:
256,192,31938,1,0,0:0:0:0:
256,192,32050,1,8,0:0:0:0:
256,192,32161,1,0,0:0:0:0:
256,192,32272,1,0,0:0:0:0:
256,192,32383,1,0,0:0:0:0:
256,192,32494,1,8,0:0:0:0:
256,192,32605,1,0,0:0:0:0:
256,192,32716,1,8,0:0:0:0:
256,192,32827,1,8,0:0:0:0:
256,192,32938,1,0,0:0:0:0:
256,192,33049,1,0,0:0:0:0:
256,192,33493,1,8,0:0:0:0:
256,192,34382,1,8,0:0:0:0:
256,192,34604,1,2,0:0:0:0:
256,192,34826,1,0,0:0:0:0:
256,192,35271,1,8,0:0:0:0:
256,192,36160,1,8,0:0:0:0:
256,192,36382,1,0,0:0:0:0:
256,192,36604,1,2,0:0:0:0:
256,192,37048,1,8,0:0:0:0:
256,192,37937,1,8,0:0:0:0:
256,192,38160,1,0,0:0:0:0:
256,192,38382,1,6,0:0:0:0:
256,192,39271,1,6,0:0:0:0:
256,192,39938,1,2,0:0:0:0:
256,192,40161,1,6,0:0:0:0:
256,192,41715,1,2,0:0:0:0:
256,192,41937,1,0,0:0:0:0:
256,192,43048,1,2,0:0:0:0:
256,192,43271,1,2,0:0:0:0:
256,192,43493,1,0,0:0:0:0:
256,192,43715,1,2,0:0:0:0:
256,192,43937,1,0,0:0:0:0:
256,192,44160,1,8,0:0:0:0:
256,192,44382,1,0,0:0:0:0:
256,192,44604,1,0,0:0:0:0:
256,192,44826,1,0,0:0:0:0:
256,192,45048,1,8,0:0:0:0:
256,192,45271,1,0,0:0:0:0:
256,192,45493,1,2,0:0:0:0:
256,192,45715,1,0,0:0:0:0:
256,192,45937,1,8,0:0:0:0:
256,192,46160,1,0,0:0:0:0:
256,192,46382,1,2,0:0:0:0:
256,192,46493,1,0,0:0:0:0:
256,192,46604,1,0,0:0:0:0:
256,192,46826,1,8,0:0:0:0:
256,192,47049,1,0,0:0:0:0:
256,192,47271,1,0,0:0:0:0:
256,192,47493,1,2,0:0:0:0:
256,192,47715,1,2,0:0:0:0:
256,192,47937,1,2,0:0:0:0:
256,192,48160,1,2,0:0:0:0:
256,192,48382,1,2,0:0:0:0:
256,192,48604,1,2,0:0:0:0:
256,192,48826,1,2,0:0:0:0:
256,192,49048,1,0,0:0:0:0:
256,192,49271,1,2,0:0:0:0:
256,192,49493,1,2,0:0:0:0:
256,192,49715,1,2,0:0:0:0:
256,192,49937,1,2,0:0:0:0:
256,192,50160,1,2,0:0:0:0:
256,192,50382,1,2,0:0:0:0:
256,192,50604,1,2,0:0:0:0:
256,192,50716,1,2,0:0:0:0:
256,192,50826,1,0,0:0:0:0:
256,192,51048,1,2,0:0:0:0:
256,192,51271,1,2,0:0:0:0:
256,192,51493,1,2,0:0:0:0:
256,192,51715,1,2,0:0:0:0:
256,192,51937,1,2,0:0:0:0:
256,192,52160,1,2,0:0:0:0:
256,192,52382,1,2,0:0:0:0:
256,192,52604,1,0,0:0:0:0:
256,192,52826,1,2,0:0:0:0:
256,192,53049,1,0,0:0:0:0:
256,192,53160,1,2,0:0:0:0:
256,192,53271,1,0,0:0:0:0:
256,192,53493,1,0,0:0:0:0:
256,192,53604,1,0,0:0:0:0:
256,192,53715,1,0,0:0:0:0:
256,192,53937,1,2,0:0:0:0:
256,192,54049,1,0,0:0:0:0:
256,192,54160,1,2,0:0:0:0:
256,192,54382,1,0,0:0:0:0:
256,192,54604,1,8,0:0:0:0:
256,192,54715,1,0,0:0:0:0:
256,192,54826,1,0,0:0:0:0:
256,192,55048,1,8,0:0:0:0:
256,192,55160,1,8,0:0:0:0:
256,192,55271,1,0,0:0:0:0:
256,192,55493,1,8,0:0:0:0:
256,192,55604,1,8,0:0:0:0:
256,192,55715,1,0,0:0:0:0:
256,192,55826,1,0,0:0:0:0:
256,192,55937,1,8,0:0:0:0:
256,192,56048,1,8,0:0:0:0:
256,192,56160,1,0,0:0:0:0:
256,192,56382,1,8,0:0:0:0:
256,192,56493,1,8,0:0:0:0:
256,192,56604,1,0,0:0:0:0:
256,192,56826,1,8,0:0:0:0:
256,192,56937,1,8,0:0:0:0:
256,192,57049,1,0,0:0:0:0:
256,192,57271,1,8,0:0:0:0:
256,192,57382,1,8,0:0:0:0:
256,192,57493,1,0,0:0:0:0:
256,192,57604,1,0,0:0:0:0:
256,192,57715,1,8,0:0:0:0:
256,192,57937,1,0,0:0:0:0:
256,192,58160,1,8,0:0:0:0:
256,192,58271,1,0,0:0:0:0:
256,192,58382,1,0,0:0:0:0:
256,192,58604,1,8,0:0:0:0:
256,192,58715,1,0,0:0:0:0:
256,192,58826,1,0,0:0:0:0:
256,192,59048,1,8,0:0:0:0:
256,192,59160,1,8,0:0:0:0:
256,192,59271,1,0,0:0:0:0:
256,192,59493,1,8,0:0:0:0:
256,192,59604,1,0,0:0:0:0:
256,192,59715,1,0,0:0:0:0:
256,192,59937,1,8,0:0:0:0:
256,192,60048,1,8,0:0:0:0:
256,192,60160,1,0,0:0:0:0:
256,192,60382,1,8,0:0:0:0:
256,192,60493,1,8,0:0:0:0:
256,192,60604,1,0,0:0:0:0:
256,192,60826,1,8,0:0:0:0:
256,192,60937,1,8,0:0:0:0:
256,192,61048,1,0,0:0:0:0:
256,192,61160,1,8,0:0:0:0:
256,192,61271,1,0,0:0:0:0:
256,192,61382,1,8,0:0:0:0:
256,192,61494,1,0,0:0:0:0:
256,192,61826,1,2,0:0:0:0:
256,192,62604,1,2,0:0:0:0:
256,192,63048,1,2,0:0:0:0:
256,192,63271,1,0,0:0:0:0:
256,192,63604,1,2,0:0:0:0:
256,192,63937,1,2,0:0:0:0:
256,192,64048,1,2,0:0:0:0:
256,192,64160,1,0,0:0:0:0:
256,192,64271,1,2,0:0:0:0:
256,192,64382,1,0,0:0:0:0:
256,192,64604,1,2,0:0:0:0:
256,192,64826,1,0,0:0:0:0:
256,192,65048,1,2,0:0:0:0:
256,192,65382,1,2,0:0:0:0:
256,192,65493,1,0,0:0:0:0:
256,192,66048,1,0,0:0:0:0:
256,192,66160,1,2,0:0:0:0:
256,192,66382,1,0,0:0:0:0:
256,192,66604,1,2,0:0:0:0:
256,192,67048,1,2,0:0:0:0:
256,192,67160,1,0,0:0:0:0:
256,192,67493,1,2,0:0:0:0:
256,192,67604,1,0,0:0:0:0:
256,192,67715,1,2,0:0:0:0:
256,192,67937,1,0,0:0:0:0:
256,192,68160,1,2,0:0:0:0:
256,192,68382,1,0,0:0:0:0:
256,192,68826,1,2,0:0:0:0:
256,192,68937,1,0,0:0:0:0:
256,192,69271,1,2,0:0:0:0:
256,192,69382,1,2,0:0:0:0:
256,192,69604,1,2,0:0:0:0:
256,192,69715,1,0,0:0:0:0:
256,192,69826,1,2,0:0:0:0:
256,192,70160,1,0,0:0:0:0:
256,192,70382,1,2,0:0:0:0:
256,192,70604,1,2,0:0:0:0:
256,192,70715,1,2,0:0:0:0:
256,192,71048,1,2,0:0:0:0:
256,192,71160,1,2,0:0:0:0:
256,192,71271,1,0,0:0:0:0:
256,192,71382,1,2,0:0:0:0:
256,192,71715,1,0,0:0:0:0:
256,192,71826,1,2,0:0:0:0:
256,192,71937,1,0,0:0:0:0:
32,32,72160,2,0,B|480:32|480:32|480:96|480:96,1,490
256,192,73937,1,8,0:0:0:0:
256,192,74048,1,0,0:0:0:0:
256,192,74160,1,8,0:0:0:0:
256,192,74271,1,8,0:0:0:0:
256,192,74382,1,0,0:0:0:0:
256,192,74493,1,8,0:0:0:0:
256,192,74604,1,8,0:0:0:0:
256,192,74715,1,0,0:0:0:0:
256,192,74826,1,0,0:0:0:0:
256,192,74901,1,0,0:0:0:0:
256,192,74975,1,0,0:0:0:0:
256,192,75048,1,8,0:0:0:0:
256,192,75124,1,8,0:0:0:0:
256,192,75198,1,8,0:0:0:0:
256,192,75271,1,8,0:0:0:0:
256,192,75715,1,2,0:0:0:0:
256,192,75937,1,0,0:0:0:0:
256,192,76048,1,0,0:0:0:0:
256,192,76160,1,10,0:0:0:0:
256,192,76382,1,0,0:0:0:0:
256,192,76604,1,0,0:0:0:0:
256,192,76715,1,2,0:0:0:0:
256,192,76826,1,0,0:2:0:0:
256,192,77048,1,0,0:2:0:0:
256,192,77160,1,2,0:2:0:0:
256,192,77271,1,0,0:2:0:0:
256,192,77493,1,2,0:2:0:0:
256,192,77604,1,2,0:2:0:0:
256,192,77715,1,0,0:2:0:0:
256,192,77937,1,2,0:2:0:0:
256,192,78160,1,2,0:0:0:0:
256,192,78271,1,0,0:0:0:0:
256,192,78382,1,2,0:0:0:0:
256,192,78493,1,2,0:0:0:0:
256,192,78604,1,0,0:0:0:0:
256,192,78826,1,0,0:0:0:0:
256,192,78937,1,2,0:0:0:0:
256,192,79048,1,0,0:0:0:0:
256,192,79271,1,2,0:0:0:0:
256,192,79382,1,2,0:0:0:0:
256,192,79493,1,0,0:0:0:0:
256,192,79715,1,2,0:0:0:0:
256,192,79938,1,2,0:0:0:0:
256,192,80049,1,0,0:0:0:0:
256,192,80161,1,2,0:0:0:0:
256,192,80271,1,2,0:0:0:0:
256,192,80382,1,0,0:0:0:0:
256,192,80604,1,2,0:0:0:0:
256,192,80715,1,2,0:0:0:0:
256,192,80826,1,0,0:0:0:0:
256,192,80937,1,2,0:0:0:0:
256,192,81048,1,2,0:0:0:0:
256,192,81161,1,2,0:0:0:0:
256,192,81271,1,0,0:0:0:0:
256,192,81493,1,0,0:0:0:0:
256,192,81715,1,2,0:0:0:0:
256,192,81937,1,0,0:2:0:0:
256,192,82048,1,2,0:2:0:0:
256,192,82161,1,0,0:2:0:0:
256,192,82271,1,2,0:2:0:0:
256,192,82382,1,2,0:2:0:0:
256,192,82493,1,2,0:2:0:0:
256,192,82604,1,0,0:2:0:0:
256,192,82715,1,2,0:2:0:0:
256,192,82827,1,0,0:2:0:0:
256,192,83048,1,2,0:0:0:0:
256,192,83161,1,0,0:0:0:0:
256,192,83271,1,2,0:0:0:0:
256,192,83493,1,2,0:0:0:0:
256,192,83604,1,8,0:0:0:0:
256,192,83715,1,0,0:0:0:0:
256,192,83826,1,2,0:0:0:0:
256,192,84048,1,0,0:0:0:0:
256,192,84161,1,2,0:0:0:0:
256,192,84271,1,2,0:0:0:0:
256,192,84382,1,0,0:0:0:0:
256,192,84604,1,2,0:0:0:0:
256,192,84715,1,2,0:0:0:0:
256,192,84826,1,0,0:0:0:0:
256,192,84937,1,0,0:0:0:0:
256,192,85048,1,2,0:0:0:0:
256,192,85271,1,0,0:0:0:0:
256,192,85382,1,2,0:0:0:0:
256,192,85493,1,2,0:0:0:0:
256,192,85604,1,2,0:0:0:0:
256,192,85715,1,0,0:0:0:0:
256,192,85937,1,2,0:0:0:0:
256,192,86048,1,2,0:0:0:0:
256,192,86161,1,0,0:0:0:0:
256,192,86271,1,0,0:0:0:0:
256,192,86382,1,2,0:0:0:0:
256,192,86493,1,2,0:0:0:0:
256,192,86604,1,0,0:0:0:0:
256,192,86826,1,2,0:0:0:0:
256,192,87048,1,0,0:0:0:0:
256,192,87271,1,2,0:0:0:0:
256,192,87382,1,2,0:0:0:0:
256,192,87493,1,0,0:0:0:0:
256,192,87604,1,0,0:0:0:0:
256,192,87715,1,2,0:0:0:0:
256,192,87826,1,0,0:0:0:0:
256,192,88048,1,0,0:0:0:0:
256,192,88161,1,2,0:0:0:0:
256,192,88382,1,0,0:0:0:0:
256,192,88493,1,2,0:0:0:0:
256,192,88604,1,2,0:0:0:0:
256,192,88826,1,0,0:0:0:0:
256,192,89048,1,2,0:0:0:0:
256,192,89161,1,2,0:0:0:0:
256,192,89272,1,2,0:0:0:0:
256,192,89382,1,0,0:0:0:0:
256,192,89493,1,2,0:0:0:0:
256,192,89715,1,0,0:0:0:0:
256,192,89937,1,0,0:2:0:0:
256,192,90826,1,2,0:2:0:0:
256,192,91715,1,0,0:2:0:0:
256,192,91826,1,8,0:2:0:0:
256,192,91937,1,0,0:2:0:0:
256,192,92048,1,0,0:2:0:0:
256,192,92161,1,8,0:2:0:0:
256,192,92271,1,0,0:2:0:0:
256,192,92382,1,0,0:2:0:0:
256,192,92457,1,0,0:2:0:0:
256,192,92531,1,8,0:2:0:0:
256,192,92604,1,0,0:2:0:0:
256,192,92715,1,8,0:2:0:0:
256,192,92826,1,0,0:2:0:0:
256,192,92937,1,0,0:2:0:0:
256,192,93048,1,8,0:2:0:0:
256,192,93161,1,8,0:2:0:0:
256,192,93272,1,0,0:2:0:0:
256,192,93383,1,8,0:2:0:0:
256,192,93494,1,8,0:2:0:0:
256,192,93642,1,8,0:2:0:0:
256,192,93790,1,8,0:2:0:0:
256,192,93938,1,8,0:2:0:0:
256,192,94087,1,8,0:2:0:0:
256,192,94235,1,0,0:2:0:0:
256,192,94383,1,8,0:2:0:0:
256,192,94494,1,8,0:0:0:0:
256,192,94605,1,0,0:0:0:0:
256,192,94679,1,0,0:0:0:0:
256,192,94753,1,0,0:0:0:0:
256,192,94827,1,8,0:0:0:0:
256,192,95271,1,0,0:0:0:0:
256,192,95493,1,8,0:0:0:0:
256,192,95604,1,0,0:0:0:0:
256,192,95715,1,0,0:0:0:0:
256,192,95937,1,8,0:0:0:0:
256,192,96161,1,0,0:0:0:0:
256,192,96271,1,0,0:0:0:0:
256,192,96382,1,8,0:0:0:0:
256,192,96493,1,8,0:0:0:0:
256,192,96604,1,0,0:0:0:0:
256,192,96826,1,8,0:0:0:0:
256,192,97048,1,0,0:0:0:0:
256,192,97271,1,8,0:0:0:0:
256,192,97493,1,0,0:0:0:0:
256,192,97715,1,8,0:0:0:0:
256,192,97937,1,0,0:0:0:0:
256,192,98161,1,8,0:0:0:0:
256,192,98382,1,0,0:0:0:0:
256,192,98604,1,8,0:0:0:0:
256,192,98826,1,0,0:0:0:0:
256,192,99048,1,8,0:0:0:0:
256,192,99161,1,8,0:0:0:0:
256,192,99271,1,0,0:0:0:0:
256,192,99493,1,8,0:0:0:0:
256,192,99715,1,0,0:0:0:0:
256,192,99937,1,8,0:0:0:0:
256,192,100161,1,0,0:0:0:0:
256,192,100382,1,8,0:0:0:0:
256,192,100604,1,0,0:0:0:0:
256,192,100826,1,8,0:0:0:0:
256,192,100937,1,8,0:0:0:0:
256,192,101048,1,0,0:0:0:0:
256,192,101161,1,0,0:0:0:0:
256,192,101271,1,8,0:0:0:0:
256,192,101493,1,0,0:0:0:0:
256,192,101604,1,8,0:0:0:0:
256,192,101715,1,8,0:0:0:0:
64,256,101937,2,0,L|185:257,1,106.666666666667
256,192,102383,1,4,0:0:0:0:
256,192,102604,1,8,0:0:0:0:
256,192,102715,1,8,0:0:0:0:
256,192,102826,1,8,0:0:0:0:
256,192,103048,1,8,0:0:0:0:
256,192,103271,1,8,0:0:0:0:
256,192,103382,1,0,0:0:0:0:
256,192,103493,1,8,0:0:0:0:
256,192,103715,1,2,0:0:0:0:
256,192,103937,1,8,0:0:0:0:
256,192,104161,1,0,0:0:0:0:
256,192,104382,1,8,0:0:0:0:
256,192,104604,1,0,0:0:0:0:
256,192,104715,1,8,0:0:0:0:
256,192,104827,1,8,0:0:0:0:
256,192,104937,1,8,0:0:0:0:
256,192,105048,1,0,0:0:0:0:
256,192,105271,1,8,0:0:0:0:
256,192,105493,1,0,0:0:0:0:
256,192,105715,1,8,0:0:0:0:
256,192,105937,1,0,0:0:0:0:
256,192,106048,1,0,0:0:0:0:
256,192,106161,1,0,0:0:0:0:
256,192,106271,1,8,0:0:0:0:
256,192,106382,1,0,0:0:0:0:
256,192,106604,1,8,0:0:0:0:
256,192,106826,1,0,0:0:0:0:
256,192,107048,1,8,0:0:0:0:
256,192,107271,1,0,0:0:0:0:
256,192,107493,1,8,0:0:0:0:
256,192,107715,1,0,0:0:0:0:
256,192,107826,1,0,0:0:0:0:
256,192,107937,1,8,0:0:0:0:
256,192,108048,1,8,0:0:0:0:
256,192,108161,1,0,0:0:0:0:
256,192,108272,1,0,0:0:0:0:
256,192,108382,1,8,0:0:0:0:
256,192,108493,1,8,0:0:0:0:
256,192,108604,1,0,0:0:0:0:
256,192,108715,1,0,0:0:0:0:
256,192,108826,1,8,0:0:0:0:
256,192,108937,1,8,0:0:0:0:
256,192,109048,1,8,0:0:0:0:
256,192,109161,1,0,0:0:0:0:
256,192,109272,1,8,0:0:0:0:
256,192,109493,1,0,0:0:0:0:
256,192,109826,1,2,0:0:0:0:
256,192,109937,1,0,0:0:0:0:
256,192,110161,1,2,0:0:0:0:
256,192,110272,1,0,0:0:0:0:
256,192,110382,1,2,0:0:0:0:
256,192,110493,1,0,0:0:0:0:
256,192,110604,1,10,0:0:0:0:
256,192,110826,1,0,0:0:0:0:
256,192,111048,1,2,0:0:0:0:
256,192,111271,1,2,0:0:0:0:
256,192,111493,1,0,0:0:0:0:
256,192,111604,1,2,0:0:0:0:
256,192,111715,1,0,0:0:0:0:
256,192,111937,1,2,0:0:0:0:
256,192,112048,1,2,0:0:0:0:
256,192,112161,1,2,0:0:0:0:
256,192,112272,1,0,0:0:0:0:
256,192,112382,1,0,0:0:0:0:
256,192,112604,1,2,0:0:0:0:
256,192,112827,1,2,0:0:0:0:
256,192,113049,1,6,0:0:0:0:
256,192,113271,1,2,0:0:0:0:
256,192,113346,1,0,0:0:0:0:
256,192,113420,1,2,0:0:0:0:
256,192,113493,1,2,0:0:0:0:
256,192,113715,1,8,0:0:0:0:
256,192,113826,1,8,0:0:0:0:
256,192,113937,1,2,0:0:0:0:
256,192,114049,1,0,0:0:0:0:
256,192,114161,1,2,0:0:0:0:
256,192,114382,1,0,0:0:0:0:
256,192,114604,1,2,0:0:0:0:
256,192,114826,1,2,0:0:0:0:
256,192,115048,1,0,0:0:0:0:
256,192,115161,1,2,0:0:0:0:
256,192,115271,1,0,0:0:0:0:
256,192,115493,1,8,0:0:0:0:
256,192,115604,1,8,0:0:0:0:
256,192,115715,1,2,0:0:0:0:
256,192,115826,1,0,0:0:0:0:
256,192,115937,1,2,0:0:0:0:
256,192,116161,1,2,0:0:0:0:
256,192,116383,1,8,0:0:0:0:
256,192,116457,1,8,0:0:0:0:
256,192,116531,1,8,0:0:0:0:
256,192,116605,1,0,0:0:0:0:
256,192,116715,1,8,0:0:0:0:
256,192,116826,1,0,0:0:0:0:
256,192,116937,1,0,0:0:0:0:
256,192,117048,1,8,0:0:0:0:
256,192,117271,1,2,0:0:0:0:
256,192,117382,1,2,0:0:0:0:
256,192,117493,1,0,0:0:0:0:
256,192,117604,1,2,0:0:0:0:
256,192,117715,1,2,0:0:0:0:
256,192,117826,1,0,0:0:0:0:
256,192,117937,1,0,0:0:0:0:
256,192,118048,1,8,0:0:0:0:
256,192,118161,1,8,0:0:0:0:
256,192,118235,1,8,0:0:0:0:
256,192,118309,1,8,0:0:0:0:
256,192,118382,1,8,0:0:0:0:
256,192,118604,1,2,0:0:0:0:
256,192,118715,1,2,0:0:0:0:
256,192,118826,1,0,0:0:0:0:
256,192,119048,1,2,0:0:0:0:
256,192,119161,1,2,0:0:0:0:
256,192,119271,1,0,0:0:0:0:
256,192,119382,1,2,0:0:0:0:
256,192,119493,1,10,0:0:0:0:
256,192,119568,1,8,0:0:0:0:
256,192,119642,1,8,0:0:0:0:
256,192,119715,1,8,0:0:0:0:
256,192,119937,1,2,0:0:0:0:
256,192,120049,1,0,0:0:0:0:
256,192,120161,1,2,0:0:0:0:
256,192,120382,1,0,0:0:0:0:
256,192,120493,1,2,0:0:0:0:
256,192,120604,1,0,0:0:0:0:
256,192,120826,1,2,0:0:0:0:
256,192,120938,1,0,0:0:0:0:
256,192,121048,1,2,0:0:0:0:
256,192,121161,1,0,0:0:0:0:
256,192,121271,1,2,0:0:0:0:
256,192,121383,1,0,0:0:0:0:
256,192,121493,1,2,0:0:0:0:
256,192,121605,1,0,0:0:0:0:
256,192,121715,1,8,0:0:0:0:
256,192,121826,1,0,0:0:0:0:
256,192,121937,1,8,0:0:0:0:
256,192,122048,1,0,0:0:0:0:
256,192,122161,1,8,0:0:0:0:
256,192,122272,1,8,0:0:0:0:
256,192,122383,1,0,0:0:0:0:
256,192,122494,1,8,0:0:0:0:
256,192,122605,1,8,0:0:0:0:
256,192,122715,1,0,0:0:0:0:
256,192,122826,1,8,0:0:0:0:
256,192,122901,1,8,0:0:0:0:
256,192,122975,1,8,0:0:0:0:
256,192,123048,1,8,0:0:0:0:
256,192,123124,1,8,0:0:0:0:
256,192,123198,1,8,0:0:0:0:
256,192,123272,1,8,0:0:0:0:
256,192,123494,1,12,0:0:0:0:
256,192,123715,1,0,0:0:0:0:
256,192,123826,1,0,0:0:0:0:
256,192,123937,1,8,0:0:0:0:
256,192,124048,1,8,0:0:0:0:
256,192,124161,1,8,0:0:0:0:
256,192,124272,1,8,0:0:0:0:
256,192,124383,1,8,0:0:0:0:
256,192,124494,1,8,0:0:0:0:
256,192,124605,1,8,0:0:0:0:
256,192,124679,1,8,0:0:0:0:
256,192,124753,1,8,0:0:0:0:
256,192,124826,1,8,0:0:0:0:
256,192,124901,1,8,0:0:0:0:
256,192,124975,1,8,0:0:0:0:
256,192,125048,1,8,0:0:0:0:
256,192,125272,1,14,0:0:0:0:
256,192,125494,1,2,0:0:0:0:
256,192,125716,1,2,0:0:0:0:
256,192,125827,1,0,0:0:0:0:
256,192,125938,1,8,0:0:0:0:
256,192,126161,1,2,0:0:0:0:
256,192,126383,1,0,0:0:0:0:
256,192,126494,1,2,0:0:0:0:
256,192,126605,1,0,0:2:0:0:
256,192,126827,1,2,0:2:0:0:
256,192,126938,1,2,0:2:0:0:
256,192,127049,1,0,0:2:0:0:
256,192,127272,1,2,0:2:0:0:
256,192,127383,1,2,0:2:0:0:
256,192,127494,1,0,0:2:0:0:
256,192,127716,1,2,0:2:0:0:
256,192,127938,1,2,0:0:0:0:
256,192,128049,1,0,0:0:0:0:
256,192,128161,1,2,0:0:0:0:
256,192,128272,1,2,0:0:0:0:
256,192,128383,1,0,0:0:0:0:
256,192,128605,1,2,0:0:0:0:
256,192,128716,1,2,0:0:0:0:
256,192,128827,1,0,0:0:0:0:
256,192,129049,1,2,0:0:0:0:
256,192,129161,1,2,0:0:0:0:
256,192,129272,1,0,0:0:0:0:
256,192,129494,1,2,0:0:0:0:
256,192,129605,1,0,0:0:0:0:
256,192,129716,1,2,0:0:0:0:
256,192,129827,1,0,0:0:0:0:
256,192,129938,1,2,0:0:0:0:
256,192,130049,1,2,0:0:0:0:
256,192,130161,1,0,0:0:0:0:
256,192,130383,1,2,0:0:0:0:
256,192,130494,1,2,0:0:0:0:
256,192,130605,1,0,0:0:0:0:
256,192,130716,1,2,0:0:0:0:
256,192,130827,1,2,0:0:0:0:
256,192,130938,1,2,0:0:0:0:
256,192,131049,1,0,0:0:0:0:
256,192,131272,1,8,0:0:0:0:
256,192,131494,1,2,0:0:0:0:
256,192,131716,1,0,0:2:0:0:
256,192,131827,1,2,0:2:0:0:
256,192,131938,1,0,0:2:0:0:
256,192,132049,1,2,0:2:0:0:
256,192,132161,1,2,0:2:0:0:
256,192,132272,1,2,0:2:0:0:
256,192,132383,1,0,0:2:0:0:
256,192,132494,1,2,0:2:0:0:
256,192,132605,1,2,0:2:0:0:
256,192,132827,1,2,0:0:0:0:
256,192,132938,1,0,0:0:0:0:
256,192,133049,1,2,0:0:0:0:
256,192,133272,1,2,0:0:0:0:
256,192,133383,1,8,0:0:0:0:
256,192,133494,1,0,0:0:0:0:
256,192,133605,1,2,0:0:0:0:
256,192,133827,1,0,0:0:0:0:
256,192,133938,1,2,0:0:0:0:
256,192,134050,1,2,0:0:0:0:
256,192,134161,1,0,0:0:0:0:
256,192,134383,1,2,0:0:0:0:
256,192,134494,1,2,0:0:0:0:
256,192,134605,1,0,0:0:0:0:
256,192,134716,1,0,0:0:0:0:
256,192,134827,1,2,0:0:0:0:
256,192,135050,1,0,0:0:0:0:
256,192,135161,1,2,0:0:0:0:
256,192,135272,1,2,0:0:0:0:
256,192,135383,1,2,0:0:0:0:
256,192,135494,1,0,0:0:0:0:
256,192,135716,1,2,0:0:0:0:
256,192,135827,1,2,0:0:0:0:
256,192,135938,1,0,0:0:0:0:
256,192,136050,1,0,0:0:0:0:
256,192,136161,1,2,0:0:0:0:
256,192,136272,1,2,0:0:0:0:
256,192,136383,1,0,0:0:0:0:
256,192,136605,1,2,0:0:0:0:
256,192,136827,1,0,0:0:0:0:
256,192,137050,1,2,0:0:0:0:
256,192,137161,1,2,0:0:0:0:
256,192,137272,1,0,0:0:0:0:
256,192,137383,1,0,0:0:0:0:
256,192,137494,1,2,0:0:0:0:
256,192,137605,1,2,0:0:0:0:
256,192,137716,1,0,0:0:0:0:
256,192,137938,1,0,0:0:0:0:
256,192,138049,1,0,0:0:0:0:
256,192,138160,1,8,0:0:0:0:
256,192,138271,1,0,0:0:0:0:
256,192,138382,1,8,0:0:0:0:
256,192,138494,1,0,0:0:0:0:
256,192,138605,1,8,0:0:0:0:
256,192,138716,1,0,0:0:0:0:
256,192,138827,1,0,0:0:0:0:
256,192,138938,1,8,0:0:0:0:
256,192,139049,1,8,0:0:0:0:
256,192,139160,1,0,0:0:0:0:
256,192,139271,1,2,0:0:0:0:
256,192,139382,1,2,0:0:0:0:
256,192,139494,1,0,0:0:0:0:
256,192,139605,1,2,0:0:0:0:
256,192,139716,1,2,0:0:0:0:
256,192,139938,1,0,0:0:0:0:
256,192,140049,1,0,0:0:0:0:
256,192,140161,1,10,0:0:0:0:
256,192,140383,1,0,0:0:0:0:
256,192,140605,1,2,0:0:0:0:
256,192,140716,1,2,0:0:0:0:
256,192,140827,1,0,0:2:0:0:
256,192,141049,1,2,0:2:0:0:
256,192,141161,1,2,0:2:0:0:
256,192,141272,1,0,0:2:0:0:
256,192,141494,1,2,0:2:0:0:
256,192,141605,1,2,0:2:0:0:
256,192,141716,1,0,0:2:0:0:
256,192,141938,1,2,0:2:0:0:
256,192,142161,1,2,0:0:0:0:
256,192,142272,1,0,0:0:0:0:
256,192,142383,1,2,0:0:0:0:
256,192,142494,1,2,0:0:0:0:
256,192,142605,1,0,0:0:0:0:
256,192,142827,1,2,0:0:0:0:
256,192,142938,1,2,0:0:0:0:
256,192,143049,1,0,0:0:0:0:
256,192,143272,1,2,0:0:0:0:
256,192,143383,1,2,0:0:0:0:
256,192,143494,1,0,0:0:0:0:
256,192,143716,1,2,0:0:0:0:
256,192,143827,1,0,0:0:0:0:
256,192,143938,1,2,0:0:0:0:
256,192,144049,1,0,0:0:0:0:
256,192,144160,1,2,0:0:0:0:
256,192,144272,1,2,0:0:0:0:
256,192,144383,1,0,0:0:0:0:
256,192,144605,1,2,0:0:0:0:
256,192,144717,1,2,0:0:0:0:
256,192,144828,1,0,0:0:0:0:
256,192,144939,1,2,0:0:0:0:
256,192,145050,1,2,0:0:0:0:
256,192,145161,1,2,0:0:0:0:
256,192,145273,1,0,0:0:0:0:
256,192,145495,1,0,0:0:0:0:
256,192,145717,1,2,0:0:0:0:
256,192,145939,1,0,0:2:0:0:
256,192,146050,1,2,0:2:0:0:
256,192,146161,1,0,0:2:0:0:
256,192,146273,1,2,0:2:0:0:
256,192,146384,1,2,0:2:0:0:
256,192,146495,1,2,0:2:0:0:
256,192,146606,1,0,0:2:0:0:
256,192,146717,1,2,0:2:0:0:
256,192,146828,1,2,0:2:0:0:
256,192,147050,1,2,0:0:0:0:
256,192,147161,1,0,0:0:0:0:
256,192,147273,1,2,0:0:0:0:
256,192,147495,1,2,0:0:0:0:
256,192,147606,1,8,0:0:0:0:
256,192,147717,1,2,0:0:0:0:
256,192,147828,1,2,0:0:0:0:
256,192,147939,1,0,0:0:0:0:
256,192,148161,1,2,0:0:0:0:
256,192,148273,1,2,0:0:0:0:
256,192,148384,1,0,0:0:0:0:
256,192,148494,1,0,0:0:0:0:
256,192,148606,1,2,0:0:0:0:
256,192,148717,1,2,0:0:0:0:
256,192,148828,1,0,0:0:0:0:
256,192,148939,1,0,0:0:0:0:
256,192,149050,1,2,0:0:0:0:
256,192,149273,1,0,0:0:0:0:
256,192,149384,1,2,0:0:0:0:
256,192,149495,1,2,0:0:0:0:
256,192,149606,1,2,0:0:0:0:
256,192,149717,1,0,0:0:0:0:
256,192,149939,1,2,0:0:0:0:
256,192,150050,1,2,0:0:0:0:
256,192,150161,1,0,0:0:0:0:
256,192,150273,1,0,0:0:0:0:
256,192,150384,1,2,0:0:0:0:
256,192,150495,1,2,0:0:0:0:
256,192,150606,1,0,0:0:0:0:
256,192,150828,1,2,0:0:0:0:
256,192,151050,1,0,0:0:0:0:
256,192,151161,1,8,0:0:0:0:
256,192,151273,1,2,0:0:0:0:
256,192,151384,1,2,0:0:0:0:
256,192,151495,1,0,0:0:0:0:
256,192,151606,1,0,0:0:0:0:
256,192,151717,1,2,0:0:0:0:
256,192,151828,1,2,0:0:0:0:
256,192,151939,1,0,0:0:0:0:
256,192,152161,1,0,0:0:0:0:
256,192,152272,1,2,0:0:0:0:
256,192,152383,1,0,0:0:0:0:
256,192,152606,1,0,0:0:0:0:
256,192,152717,1,2,0:0:0:0:
256,192,152828,1,8,0:0:0:0:
256,192,153050,1,0,0:0:0:0:
256,192,153161,1,0,0:0:0:0:
256,192,153272,1,8,0:0:0:0:
256,192,153494,1,8,0:0:0:0:
256,192,153717,1,2,0:0:0:0:
256,192,153828,1,0,0:0:0:0:
256,192,153939,1,8,0:0:0:0:
256,192,154828,1,0,0:0:0:0:
256,192,155717,1,6,0:0:0:0:
256,192,156161,1,4,0:0:0:0:
256,192,156606,1,8,0:0:0:0:
256,192,156717,1,8,0:0:0:0:
256,192,156828,1,0,0:0:0:0:
256,192,157050,1,8,0:0:0:0:
256,192,157272,1,8,0:0:0:0:
256,192,157346,1,8,0:0:0:0:
256,192,157420,1,8,0:0:0:0:
256,192,157494,1,2,0:0:0:0:
256,192,157939,1,2,0:0:0:0:
256,192,158161,1,0,0:0:0:0:
256,192,158383,1,2,0:0:0:0:
256,192,158828,1,2,0:0:0:0:
256,192,159050,1,0,0:0:0:0:
256,192,159272,1,2,0:0:0:0:
256,192,159716,1,2,0:0:0:0:
256,192,159939,1,0,0:0:0:0:
256,192,160050,1,0,0:0:0:0:
256,192,160161,1,2,0:0:0:0:
256,192,160383,1,2,0:0:0:0:
256,192,160605,1,0,0:0:0:0:
256,192,160828,1,2,0:0:0:0:
256,192,161050,1,2,0:0:0:0:
256,192,161272,1,0,0:0:0:0:
256,192,161383,1,0,0:0:0:0:
256,192,161494,1,2,0:0:0:0:
256,192,161717,1,0,0:0:0:0:
256,192,161939,1,2,0:0:0:0:
256,192,162383,1,0,0:0:0:0:
256,192,162605,1,8,0:0:0:0:
256,192,163050,1,2,0:0:0:0:
256,192,163272,1,0,0:0:0:0:
256,192,163494,1,2,0:0:0:0:
256,192,163716,1,2,0:0:0:0:
256,192,163828,1,0,0:0:0:0:
256,192,163939,1,0,0:0:0:0:
256,192,164161,1,2,0:0:0:0:
256,192,164272,1,0,0:0:0:0:
256,192,164383,1,0,0:0:0:0:
256,192,164605,1,2,0:0:0:0:
256,192,164828,1,0,0:0:0:0:
256,192,165050,1,8,0:0:0:0:
256,192,165272,1,0,0:0:0:0:
256,192,165494,1,8,0:0:0:0:
256,192,165716,1,0,0:0:0:0:
256,192,165939,1,10,0:0:0:0:
256,192,166161,1,0,0:0:0:0:
256,192,166383,1,10,0:0:0:0:
256,192,166605,1,0,0:0:0:0:
256,192,166716,1,0,0:0:0:0:
256,192,166828,1,8,0:0:0:0:
256,192,167050,1,0,0:0:0:0:
256,192,167272,1,2,0:0:0:0:
256,192,167494,1,2,0:0:0:0:
256,192,167716,1,0,0:0:0:0:
256,192,167939,1,2,0:0:0:0:
256,192,168161,1,6,0:0:0:0:
256,192,168605,1,6,0:0:0:0:
256,192,168828,1,0,0:0:0:0:
256,192,169049,1,6,0:0:0:0:
256,192,169272,1,8,0:0:0:0:
256,192,169494,1,2,0:0:0:0:
256,192,169716,1,2,0:0:0:0:
256,192,169938,1,0,0:0:0:0:
256,192,170049,1,8,0:0:0:0:
256,192,170160,1,8,0:0:0:0:
256,192,170271,1,0,0:0:0:0:
256,192,170382,1,8,0:0:0:0:
256,192,170493,1,8,0:0:0:0:
256,192,170604,1,0,0:0:0:0:
256,192,170716,1,8,0:0:0:0:
256,192,170827,1,0,0:0:0:0:
256,192,170901,1,0,0:0:0:0:
256,192,170975,1,0,0:0:0:0:
256,192,171049,1,0,0:0:0:0:
256,192,171161,1,8,0:0:0:0:
256,192,171272,1,0,0:0:0:0:
256,192,171346,1,8,0:0:0:0:
256,192,171420,1,8,0:0:0:0:
256,192,171494,1,8,0:0:0:0:
256,192,171568,1,8,0:0:0:0:
256,192,171642,1,8,0:0:0:0:
256,192,171716,1,0,0:0:0:0:
