osu file format v12

[General]
AudioFilename: VOICE.mp3
AudioLeadIn: 1000
PreviewTime: 75716
Countdown: 0
SampleSet: Soft
StackLeniency: 0.7
Mode: 1
LetterboxInBreaks: 0
WidescreenStoryboard: 1

[Editor]
Bookmarks: 1028,18805,33027,61472,75694,89938,109472,125472,157472
DistanceSpacing: 1.3
BeatDivisor: 4
GridSize: 32
TimelineZoom: 1.8

[Metadata]
Title:VOiCE
TitleUnicode:VOiCE
Artist:Romaji
ArtistUnicode:Romaji
Creator:Jinyan
Version:Muzukashii
Source:
Tags:hatsune miku vocaloid Kin Jinyan
BeatmapID:383740
BeatmapSetID:144095

[Difficulty]
HPDrainRate:5
CircleSize:4
OverallDifficulty:5
ApproachRate:5
SliderMultiplier:1.4
SliderTickRate:2

[Events]
//Background and Video events
0,0,"Voice Jin.jpg",0,120
//Break Periods
//Storyboard Layer 0 (Background)
//Storyboard Layer 1 (Fail)
//Storyboard Layer 2 (Pass)
//Storyboard Layer 3 (Foreground)
//Storyboard Sound Samples
//Background Colour Transformations
3,100,163,162,255

[TimingPoints]
1050,444.444444444444,4,2,0,90,1,0
1050,-100,4,2,0,90,0,0
75716,-100,4,1,0,80,0,1
89938,-100,4,1,0,80,0,0
100827,-100,4,1,0,60,0,0
102383,-100,4,1,0,80,0,0
112383,-100,4,1,0,60,0,0
113049,-100,4,1,0,80,0,0
115716,-100,4,1,0,100,0,0
116383,-100,4,1,0,80,0,0
118047,-100,4,1,0,60,0,0
118380,-100,4,1,0,80,0,0
119492,-100,4,1,0,60,0,0
119714,-100,4,1,0,80,0,0
120494,-100,4,1,0,50,0,0
121716,-100,4,1,0,80,0,0
124938,-100,4,1,0,5,0,0
125161,-100,4,1,0,80,0,0
125494,-100,4,1,0,80,0,1
139272,-100,4,2,0,70,0,0
139716,-100,4,1,0,80,0,1
152161,-100,4,2,0,60,0,0
157268,-100,4,2,0,50,0,0
157490,-100,4,2,0,80,0,0

[Colours]
Combo1 : 255,157,255
Combo2 : 81,255,255

[HitObjects]
256,192,1050,5,2,0:0:0:0:
256,192,2383,1,2,0:0:0:0:
256,192,2827,1,2,0:0:0:0:
256,192,4161,1,2,0:0:0:0:
256,192,4605,1,2,0:0:0:0:
256,192,6161,1,2,0:0:0:0:
256,192,6272,1,0,0:0:0:0:
256,192,6383,1,2,0:0:0:0:
256,192,7272,1,0,0:0:0:0:
256,192,7383,1,0,0:0:0:0:
256,192,7494,1,0,0:0:0:0:
256,192,7716,1,2,0:0:0:0:
256,192,7827,1,2,0:0:0:0:
256,192,7938,1,2,0:0:0:0:
256,192,8161,1,2,0:0:0:0:
256,192,8827,1,0,0:0:0:0:
256,192,9494,1,2,0:0:0:0:
256,192,9938,1,2,0:0:0:0:
256,192,10605,1,0,0:0:0:0:
256,192,11272,1,2,0:0:0:0:
256,192,11716,1,2,0:0:0:0:
256,192,12383,1,0,0:0:0:0:
256,192,12605,1,2,0:0:0:0:
256,192,13494,1,2,0:0:0:0:
256,192,14383,1,0,0:0:0:0:
256,192,14605,1,0,0:0:0:0:
256,192,14827,1,0,0:0:0:0:
256,192,15049,1,0,0:0:0:0:
256,192,15272,1,2,0:0:0:0:
256,192,16161,1,2,0:0:0:0:
256,192,17049,1,2,0:0:0:0:
256,192,17494,1,0,0:0:0:0:
256,192,17716,1,8,0:0:0:0:
256,192,17938,1,8,0:0:0:0:
256,192,18161,1,0,0:0:0:0:
256,192,18383,1,8,0:0:0:0:
256,192,18827,1,2,0:0:0:0:
256,192,19272,1,2,0:0:0:0:
256,192,19605,1,0,0:0:0:0:
256,192,19716,1,2,0:0:0:0:
256,192,20161,1,2,0:0:0:0:
256,192,20494,1,0,0:0:0:0:
256,192,20605,1,2,0:0:0:0:
256,192,21049,1,2,0:0:0:0:
256,192,21383,1,0,0:0:0:0:
256,192,21494,1,2,0:0:0:0:
256,192,21938,1,2,0:0:0:0:
256,192,22161,1,0,0:0:0:0:
256,192,22383,1,2,0:0:0:0:
256,192,22827,1,2,0:0:0:0:
256,192,23161,1,0,0:0:0:0:
256,192,23272,1,2,0:0:0:0:
256,192,23716,1,2,0:0:0:0:
256,192,23938,1,0,0:0:0:0:
256,192,24383,1,2,0:0:0:0:
256,192,24605,1,0,0:0:0:0:
256,192,24827,1,2,0:0:0:0:
256,192,25049,1,6,0:0:0:0:
256,192,25494,1,6,0:0:0:0:
256,192,25938,1,2,0:0:0:0:
256,192,26161,1,0,0:0:0:0:
256,192,26383,1,8,0:0:0:0:
256,192,26716,1,0,0:0:0:0:
256,192,26827,1,8,0:0:0:0:
256,192,27049,1,0,0:0:0:0:
256,192,27272,1,10,0:0:0:0:
256,192,27605,1,0,0:0:0:0:
256,192,27716,1,10,0:0:0:0:
256,192,27938,1,0,0:0:0:0:
256,192,28161,1,8,0:0:0:0:
256,192,28605,1,0,0:0:0:0:
256,192,28827,1,2,0:0:0:0:
256,192,29049,1,0,0:0:0:0:
256,192,29272,1,2,0:0:0:0:
256,192,29494,1,6,0:0:0:0:
256,192,29938,1,6,0:0:0:0:
256,192,30161,1,0,0:0:0:0:
256,192,30383,1,6,0:0:0:0:
256,192,30827,1,2,0:0:0:0:
256,192,31049,1,0,0:0:0:0:
256,192,31494,1,8,0:0:0:0:
256,192,31716,1,0,0:0:0:0:
256,192,31938,1,2,0:0:0:0:
256,192,32161,1,2,0:0:0:0:
256,192,32605,1,2,0:0:0:0:
256,192,32716,1,2,0:0:0:0:
256,192,32827,1,2,0:0:0:0:
256,192,33049,1,4,0:0:0:0:
256,192,33493,1,8,0:0:0:0:
256,192,34382,1,8,0:0:0:0:
256,192,34604,1,6,0:0:0:0:
256,192,34826,1,4,0:0:0:0:
256,192,35271,1,8,0:0:0:0:
256,192,36160,1,8,0:0:0:0:
256,192,36382,1,4,0:0:0:0:
256,192,36604,1,6,0:0:0:0:
256,192,37048,1,8,0:0:0:0:
256,192,37937,1,8,0:0:0:0:
256,192,38160,1,4,0:0:0:0:
256,192,38382,1,6,0:0:0:0:
256,192,39271,1,6,0:0:0:0:
256,192,40160,1,4,0:0:0:0:
256,192,41715,1,6,0:0:0:0:
256,192,41937,1,4,0:0:0:0:
256,192,43493,1,4,0:0:0:0:
256,192,43715,1,6,0:0:0:0:
256,192,44160,1,8,0:0:0:0:
256,192,44382,1,0,0:0:0:0:
256,192,44604,1,0,0:0:0:0:
256,192,45048,1,8,0:0:0:0:
256,192,45272,1,0,0:0:0:0:
256,192,45493,1,2,0:0:0:0:
256,192,45716,1,0,0:0:0:0:
256,192,45938,1,8,0:0:0:0:
256,192,46382,1,2,0:0:0:0:
256,192,46494,1,2,0:0:0:0:
256,192,46605,1,2,0:0:0:0:
256,192,46827,1,8,0:0:0:0:
256,192,47271,1,4,0:0:0:0:
256,192,47715,1,2,0:0:0:0:
256,192,48160,1,2,0:0:0:0:
256,192,48604,1,2,0:0:0:0:
256,192,49048,1,0,0:0:0:0:
256,192,49271,1,2,0:0:0:0:
256,192,49493,1,2,0:0:0:0:
256,192,49937,1,2,0:0:0:0:
256,192,50382,1,2,0:0:0:0:
256,192,50826,1,0,0:0:0:0:
256,192,51048,1,2,0:0:0:0:
256,192,51271,1,2,0:0:0:0:
256,192,51715,1,2,0:0:0:0:
256,192,52160,1,2,0:0:0:0:
256,192,52382,1,2,0:0:0:0:
256,192,52604,1,0,0:0:0:0:
256,192,52826,1,2,0:0:0:0:
256,192,53049,1,0,0:0:0:0:
256,192,53271,1,0,0:0:0:0:
256,192,53493,1,0,0:0:0:0:
256,192,53604,1,0,0:0:0:0:
256,192,53715,1,0,0:0:0:0:
256,192,53937,1,2,0:0:0:0:
256,192,54160,1,2,0:0:0:0:
256,192,54382,1,4,0:0:0:0:
256,192,54826,1,0,0:0:0:0:
256,192,55048,1,8,0:0:0:0:
256,192,55271,1,0,0:0:0:0:
256,192,55493,1,8,0:0:0:0:
256,192,55716,1,0,0:0:0:0:
256,192,56161,1,0,0:0:0:0:
256,192,56382,1,8,0:0:0:0:
256,192,56604,1,0,0:0:0:0:
256,192,56827,1,8,0:0:0:0:
256,192,57049,1,0,0:0:0:0:
256,192,57493,1,0,0:0:0:0:
256,192,57715,1,8,0:0:0:0:
256,192,57938,1,0,0:0:0:0:
256,192,58160,1,8,0:0:0:0:
256,192,58383,1,0,0:0:0:0:
256,192,58827,1,0,0:0:0:0:
256,192,59048,1,8,0:0:0:0:
256,192,59272,1,0,0:0:0:0:
256,192,59493,1,8,0:0:0:0:
256,192,59715,1,0,0:0:0:0:
256,192,60160,1,0,0:0:0:0:
256,192,60382,1,8,0:0:0:0:
256,192,60604,1,0,0:0:0:0:
256,192,60826,1,8,0:0:0:0:
256,192,61048,1,0,0:0:0:0:
256,192,61271,1,0,0:0:0:0:
256,192,61493,1,6,0:0:0:0:
256,192,61826,1,2,0:0:0:0:
256,192,62604,1,2,0:0:0:0:
256,192,63048,1,2,0:0:0:0:
256,192,63271,1,0,0:0:0:0:
256,192,63604,1,2,0:0:0:0:
256,192,63937,1,2,0:0:0:0:
256,192,64049,1,2,0:0:0:0:
256,192,64160,1,2,0:0:0:0:
256,192,64382,1,0,0:0:0:0:
256,192,64604,1,2,0:0:0:0:
256,192,64826,1,0,0:0:0:0:
256,192,65048,1,0,0:0:0:0:
256,192,65383,1,2,0:0:0:0:
256,192,66160,1,2,0:0:0:0:
256,192,66382,1,0,0:0:0:0:
256,192,66604,1,2,0:0:0:0:
256,192,67048,1,2,0:0:0:0:
256,192,67493,1,2,0:0:0:0:
256,192,67715,1,2,0:0:0:0:
256,192,67937,1,0,0:0:0:0:
256,192,68160,1,2,0:0:0:0:
256,192,68382,1,0,0:0:0:0:
256,192,68826,1,2,0:0:0:0:
256,192,69271,1,2,0:0:0:0:
256,192,69715,1,0,0:0:0:0:
256,192,70160,1,0,0:0:0:0:
256,192,70382,1,2,0:0:0:0:
256,192,70604,1,2,0:0:0:0:
256,192,71049,1,2,0:0:0:0:
256,192,71272,1,2,0:0:0:0:
256,192,71383,1,2,0:0:0:0:
256,192,71494,1,2,0:0:0:0:
256,192,71715,1,0,0:0:0:0:
256,192,71937,1,0,0:0:0:0:
32,32,72160,2,0,B|480:32|480:32|480:96|480:96,2,490
256,192,75715,1,2,0:0:0:0:
256,192,76160,1,2,0:0:0:0:
256,192,76604,1,0,0:0:0:0:
256,192,76826,1,2,0:2:0:0:
256,192,77271,1,0,0:2:0:0:
256,192,77493,1,2,0:2:0:0:
256,192,77604,1,2,0:2:0:0:
256,192,77715,1,2,0:2:0:0:
256,192,77937,1,2,0:2:0:0:
256,192,78160,1,0,0:0:0:0:
256,192,78382,1,2,0:0:0:0:
256,192,78826,1,2,0:0:0:0:
256,192,79048,1,0,0:0:0:0:
256,192,79271,1,2,0:0:0:0:
256,192,79382,1,2,0:0:0:0:
256,192,79493,1,2,0:0:0:0:
256,192,79938,1,2,0:0:0:0:
256,192,80382,1,0,0:0:0:0:
256,192,80604,1,2,0:0:0:0:
256,192,80826,1,2,0:0:0:0:
256,192,81048,1,0,0:0:0:0:
256,192,81271,1,2,0:0:0:0:
256,192,81493,1,2,0:0:0:0:
256,192,81715,1,0,0:0:0:0:
256,192,81937,1,2,0:2:0:0:
256,192,82049,1,2,0:2:0:0:
256,192,82159,1,2,0:2:0:0:
256,192,82382,1,2,0:2:0:0:
256,192,82604,1,2,0:2:0:0:
256,192,82826,1,0,0:2:0:0:
256,192,83271,1,2,0:0:0:0:
256,192,83715,1,2,0:0:0:0:
256,192,83938,1,0,0:0:0:0:
256,192,84159,1,2,0:0:0:0:
256,192,84382,1,0,0:0:0:0:
256,192,84826,1,2,0:0:0:0:
256,192,85048,1,2,0:0:0:0:
256,192,85271,1,0,0:0:0:0:
256,192,85493,1,2,0:0:0:0:
256,192,85937,1,2,0:0:0:0:
256,192,86159,1,0,0:0:0:0:
256,192,86382,1,2,0:0:0:0:
256,192,86827,1,8,0:0:0:0:
256,192,87271,1,2,0:0:0:0:
256,192,87383,1,2,0:0:0:0:
256,192,87494,1,0,0:0:0:0:
256,192,87716,1,8,0:0:0:0:
256,192,88159,1,2,0:0:0:0:
256,192,88382,1,0,0:0:0:0:
256,192,88604,1,2,0:0:0:0:
256,192,88826,1,0,0:0:0:0:
256,192,89048,1,2,0:0:0:0:
256,192,89270,1,2,0:0:0:0:
256,192,89493,1,2,0:0:0:0:
256,192,89715,1,0,0:0:0:0:
256,192,89937,1,0,0:2:0:0:
256,192,90826,1,2,0:2:0:0:
0,192,91716,2,0,L|512:192,1,490
256,192,93493,1,8,0:2:0:0:
256,192,93641,1,8,0:2:0:0:
256,192,93789,1,8,0:2:0:0:
256,192,93937,1,8,0:2:0:0:
256,192,94161,1,8,0:2:0:0:
256,192,94382,1,8,0:2:0:0:
256,192,94605,1,0,0:0:0:0:
256,192,94826,1,8,0:0:0:0:
256,192,95271,1,4,0:0:0:0:
256,192,95493,1,8,0:0:0:0:
256,192,95604,1,0,0:0:0:0:
256,192,95715,1,0,0:0:0:0:
256,192,95937,1,8,0:0:0:0:
256,192,96382,1,8,0:0:0:0:
256,192,96604,1,0,0:0:0:0:
256,192,96826,1,8,0:0:0:0:
256,192,97048,1,0,0:0:0:0:
256,192,97493,1,0,0:0:0:0:
256,192,97937,1,0,0:0:0:0:
256,192,98382,1,0,0:0:0:0:
256,192,98604,1,0,0:0:0:0:
256,192,98827,1,2,0:0:0:0:
256,192,99048,1,8,0:0:0:0:
256,192,99159,1,8,0:0:0:0:
256,192,99271,1,0,0:0:0:0:
256,192,99494,1,2,0:0:0:0:
256,192,99938,1,0,0:0:0:0:
256,192,100383,1,2,0:0:0:0:
256,192,100605,1,2,0:0:0:0:
128,192,100827,2,0,L|416:192,1,280
256,192,101938,1,0,0:0:0:0:
256,192,102382,1,4,0:0:0:0:
256,192,102715,1,8,0:0:0:0:
256,192,102826,1,0,0:0:0:0:
256,192,103048,1,8,0:0:0:0:
256,192,103493,1,0,0:0:0:0:
256,192,103715,1,2,0:0:0:0:
256,192,103937,1,2,0:0:0:0:
256,192,104159,1,0,0:0:0:0:
256,192,104604,1,0,0:0:0:0:
256,192,105048,1,0,0:0:0:0:
256,192,105493,1,0,0:0:0:0:
256,192,105715,1,8,0:0:0:0:
256,192,105937,1,0,0:0:0:0:
256,192,106271,1,8,0:0:0:0:
256,192,106382,1,0,0:0:0:0:
256,192,106604,1,8,0:0:0:0:
256,192,107271,1,0,0:0:0:0:
256,192,107493,1,8,0:0:0:0:
256,192,107715,1,0,0:0:0:0:
256,192,108159,1,8,0:0:0:0:
256,192,108604,1,2,0:0:0:0:
256,192,108826,1,8,0:0:0:0:
256,192,108937,1,8,0:0:0:0:
256,192,109048,1,8,0:0:0:0:
256,192,109271,1,0,0:0:0:0:
256,192,109494,1,6,0:0:0:0:
256,192,109827,1,2,0:0:0:0:
256,192,110605,1,2,0:0:0:0:
256,192,111049,1,2,0:0:0:0:
256,192,111272,1,0,0:0:0:0:
256,192,111605,1,2,0:0:0:0:
256,192,111938,1,2,0:0:0:0:
256,192,112050,1,2,0:0:0:0:
256,192,112161,1,2,0:0:0:0:
256,192,112383,1,0,0:0:0:0:
256,192,112605,1,2,0:0:0:0:
256,192,112827,1,0,0:0:0:0:
256,192,113049,1,2,0:0:0:0:
256,192,113494,1,0,0:0:0:0:
256,192,114161,1,2,0:0:0:0:
256,192,114383,1,0,0:0:0:0:
256,192,114605,1,2,0:0:0:0:
256,192,115049,1,2,0:0:0:0:
256,192,115494,1,2,0:0:0:0:
256,192,115716,1,2,0:0:0:0:
256,192,115938,1,0,0:0:0:0:
256,192,116161,1,2,0:0:0:0:
256,192,116383,1,0,0:0:0:0:
256,192,116827,1,2,0:0:0:0:
256,192,117272,1,2,0:0:0:0:
256,192,117716,1,0,0:0:0:0:
256,192,118161,1,0,0:0:0:0:
256,192,118383,1,2,0:0:0:0:
256,192,118605,1,2,0:0:0:0:
256,192,119050,1,2,0:0:0:0:
256,192,119273,1,2,0:0:0:0:
256,192,119384,1,2,0:0:0:0:
256,192,119495,1,2,0:0:0:0:
256,192,119716,1,0,0:0:0:0:
256,192,119938,1,2,0:0:0:0:
256,192,120161,1,0,0:0:0:0:
256,192,120605,1,2,0:0:0:0:
256,192,120827,1,2,0:0:0:0:
256,192,121049,1,2,0:0:0:0:
256,192,121272,1,2,0:0:0:0:
256,192,121383,1,2,0:0:0:0:
256,192,121494,1,2,0:0:0:0:
64,192,121938,2,0,L|512:192,1,420
256,192,123492,1,12,0:0:0:0:
256,192,123716,8,0,125049,0:0:0:0:
256,192,125494,5,2,0:0:0:0:
256,192,125939,1,2,0:0:0:0:
256,192,126383,1,0,0:0:0:0:
256,192,126605,1,2,0:2:0:0:
256,192,127050,1,0,0:2:0:0:
256,192,127272,1,2,0:2:0:0:
256,192,127383,1,2,0:2:0:0:
256,192,127494,1,2,0:2:0:0:
256,192,127716,1,2,0:2:0:0:
256,192,127939,1,0,0:0:0:0:
256,192,128161,1,2,0:0:0:0:
256,192,128605,1,2,0:0:0:0:
256,192,128827,1,0,0:0:0:0:
256,192,129050,1,2,0:0:0:0:
256,192,129161,1,2,0:0:0:0:
256,192,129272,1,2,0:0:0:0:
256,192,129717,1,2,0:0:0:0:
256,192,130161,1,0,0:0:0:0:
256,192,130383,1,2,0:0:0:0:
256,192,130605,1,2,0:0:0:0:
256,192,130827,1,0,0:0:0:0:
256,192,131050,1,2,0:0:0:0:
256,192,131272,1,2,0:0:0:0:
256,192,131494,1,0,0:0:0:0:
256,192,131716,1,2,0:2:0:0:
256,192,131828,1,2,0:2:0:0:
256,192,131938,1,2,0:2:0:0:
256,192,132161,1,2,0:2:0:0:
256,192,132383,1,2,0:2:0:0:
256,192,132605,1,0,0:2:0:0:
256,192,133050,1,2,0:0:0:0:
256,192,133494,1,2,0:0:0:0:
256,192,133717,1,0,0:0:0:0:
256,192,133938,1,2,0:0:0:0:
256,192,134161,1,0,0:0:0:0:
256,192,134605,1,2,0:0:0:0:
256,192,134827,1,2,0:0:0:0:
256,192,135050,1,0,0:0:0:0:
256,192,135272,1,2,0:0:0:0:
256,192,135716,1,2,0:0:0:0:
256,192,135938,1,0,0:0:0:0:
256,192,136161,1,2,0:0:0:0:
256,192,136606,1,8,0:0:0:0:
256,192,137050,1,2,0:0:0:0:
256,192,137162,1,2,0:0:0:0:
256,192,137273,1,0,0:0:0:0:
256,192,137495,1,8,0:0:0:0:
64,192,137938,2,0,L|416:192,1,350
256,192,139268,1,2,0:0:0:0:
256,192,139379,1,2,0:0:0:0:
256,192,139491,1,0,0:0:0:0:
256,192,139713,1,2,0:0:0:0:
256,192,139935,1,0,0:0:0:0:
256,192,140158,1,10,0:0:0:0:
256,192,140380,1,0,0:0:0:0:
256,192,140602,1,2,0:0:0:0:
256,192,140824,1,0,0:2:0:0:
256,192,141046,1,2,0:2:0:0:
256,192,141269,1,0,0:2:0:0:
256,192,141491,1,2,0:2:0:0:
256,192,141713,1,0,0:2:0:0:
256,192,141935,1,2,0:2:0:0:
256,192,142158,1,2,0:0:0:0:
256,192,142380,1,2,0:0:0:0:
256,192,142494,1,2,0:0:0:0:
256,192,142602,1,0,0:0:0:0:
256,192,143046,1,0,0:0:0:0:
256,192,143269,1,2,0:0:0:0:
256,192,143383,1,2,0:0:0:0:
256,192,143491,1,0,0:0:0:0:
256,192,143935,1,2,0:0:0:0:
256,192,144157,1,2,0:0:0:0:
256,192,144269,1,2,0:0:0:0:
256,192,144380,1,0,0:0:0:0:
256,192,144602,1,2,0:0:0:0:
256,192,144824,1,0,0:0:0:0:
256,192,145046,1,2,0:0:0:0:
256,192,145269,1,2,0:0:0:0:
256,192,145491,1,2,0:0:0:0:
256,192,145713,1,0,0:0:0:0:
256,192,145935,1,0,0:2:0:0:
256,192,146157,1,2,0:2:0:0:
256,192,146380,1,2,0:2:0:0:
256,192,146494,1,2,0:0:0:0:
256,192,146602,1,2,0:2:0:0:
256,192,146824,1,2,0:2:0:0:
256,192,147269,1,2,0:0:0:0:
256,192,147491,1,2,0:0:0:0:
256,192,147713,1,2,0:0:0:0:
256,192,147827,1,2,0:0:0:0:
256,192,147935,1,0,0:0:0:0:
256,192,148380,1,0,0:0:0:0:
256,192,148602,1,2,0:0:0:0:
256,192,148824,1,0,0:0:0:0:
256,192,149046,1,2,0:0:0:0:
256,192,149269,1,0,0:0:0:0:
256,192,149491,1,2,0:0:0:0:
256,192,149602,1,2,0:0:0:0:
256,192,149713,1,0,0:0:0:0:
256,192,150157,1,0,0:0:0:0:
256,192,150380,1,2,0:0:0:0:
256,192,150602,1,0,0:0:0:0:
256,192,150824,1,2,0:0:0:0:
256,192,151046,1,0,0:0:0:0:
256,192,151269,1,2,0:0:0:0:
256,192,151380,1,2,0:0:0:0:
256,192,151491,1,0,0:0:0:0:
256,192,151935,1,0,0:0:0:0:
256,192,152157,1,0,0:0:0:0:
256,192,152268,1,2,0:0:0:0:
256,192,152379,1,0,0:0:0:0:
256,192,152602,1,0,0:0:0:0:
256,192,152824,1,8,0:0:0:0:
256,192,153046,1,0,0:0:0:0:
256,192,153268,1,8,0:0:0:0:
256,192,153490,1,8,0:0:0:0:
256,192,153713,1,2,0:0:0:0:
256,192,153824,1,0,0:0:0:0:
256,192,153935,1,8,0:0:0:0:
256,192,154824,1,2,0:0:0:0:
256,192,155713,1,6,0:0:0:0:
256,192,156157,1,4,0:0:0:0:
256,192,156602,1,8,0:0:0:0:
256,192,156713,1,8,0:0:0:0:
256,192,156824,1,0,0:0:0:0:
256,192,157046,1,8,0:0:0:0:
256,192,157268,1,8,0:0:0:0:
256,192,157490,1,2,0:0:0:0:
256,192,157935,1,2,0:0:0:0:
256,192,158157,1,0,0:0:0:0:
256,192,158379,1,2,0:0:0:0:
256,192,158824,1,2,0:0:0:0:
256,192,159046,1,0,0:0:0:0:
256,192,159268,1,2,0:0:0:0:
256,192,159712,1,2,0:0:0:0:
256,192,159935,1,0,0:0:0:0:
256,192,160046,1,0,0:0:0:0:
256,192,160157,1,2,0:0:0:0:
256,192,160379,1,2,0:0:0:0:
256,192,160601,1,0,0:0:0:0:
256,192,160824,1,2,0:0:0:0:
256,192,161046,1,2,0:0:0:0:
256,192,161490,1,2,0:0:0:0:
256,192,161713,1,0,0:0:0:0:
256,192,161935,1,2,0:0:0:0:
256,192,162379,1,0,0:0:0:0:
256,192,162601,1,8,0:0:0:0:
256,192,163046,1,2,0:0:0:0:
256,192,163268,1,0,0:0:0:0:
256,192,163490,1,2,0:0:0:0:
256,192,163712,1,6,0:0:0:0:
256,192,164157,1,6,0:0:0:0:
256,192,164601,1,4,0:0:0:0:
256,192,165046,1,8,0:0:0:0:
256,192,165268,1,0,0:0:0:0:
256,192,165490,1,8,0:0:0:0:
256,192,165935,1,10,0:0:0:0:
256,192,166157,1,0,0:0:0:0:
256,192,166379,1,10,0:0:0:0:
256,192,166824,1,8,0:0:0:0:
256,192,167046,1,0,0:0:0:0:
256,192,167268,1,2,0:0:0:0:
256,192,167490,1,2,0:0:0:0:
256,192,167712,1,0,0:0:0:0:
256,192,167935,1,2,0:0:0:0:
256,192,168157,1,6,0:0:0:0:
256,192,168601,1,6,0:0:0:0:
256,192,168824,1,0,0:0:0:0:
256,192,169046,1,6,0:0:0:0:
256,192,169490,1,2,0:0:0:0:
256,192,169712,1,0,0:0:0:0:
256,192,170157,1,8,0:0:0:0:
256,192,170379,1,0,0:0:0:0:
256,192,170601,1,2,0:0:0:0:
256,192,170824,1,0,0:0:0:0:
256,192,171268,1,2,0:0:0:0:
256,192,171713,1,4,0:0:0:0:
