osu file format v6

[General]
AudioFilename: dexter-dexter.mp3
AudioLeadIn: 0
PreviewTime: -1
Countdown: 1
SampleSet: Soft
StackLeniency: 0.7
Mode: 0
LetterboxInBreaks: 1

[Editor]
DistanceSpacing: 0.800000011920929
BeatDivisor: 4
GridSize: 32

[Metadata]
Title:Dexter Theme
Artist:Rolfe Kent
Creator:wolfie_wolf
Version:Normal
Source:
Tags:Dexter, Main Theme, Dexter Morgan, TV

[Difficulty]
HPDrainRate:5
CircleSize:5
OverallDifficulty:5
SliderMultiplier:1.4
SliderTickRate:1

[Events]
//Background and Video events
0,0,"Dexter.jpg"
//Break Periods
2,85376,93793
//Storyboard Layer 0 (Background)
//Storyboard Layer 1 (Fail)
//Storyboard Layer 2 (Pass)
//Storyboard Layer 3 (Foreground)
//Storyboard Sound Samples
//Background Colour Transformations
3,100,163,162,255

[TimingPoints]
10,500,4,2,0,25,1,0

[Colours]
Combo1 : 170,0,0
Combo2 : 128,128,128
Combo3 : 213,0,0
Combo4 : 60,60,60

[HitObjects]
256,192,9176,1,0
256,192,9676,1,0
256,192,10010,1,0
448,192,10676,1,0
384,192,11010,1,0
288,160,12843,5,0
352,160,13176,1,0
448,224,13676,2,0,B|96:224,1,326.666666666667
96,128,16676,6,0,B|416:128,1,280
384,224,18176,1,0
320,288,18510,1,0
224,288,19343,5,0
160,288,19676,1,0
256,192,21510,5,0
320,128,22010,1,0
256,96,22510,1,0
192,96,22843,1,0
128,128,23510,1,0
128,224,23843,2,0,B|448:224|384:224,1,233.333333333333
384,160,25176,1,0
384,96,26343,6,0,B|64:96|96:320,1,420
256,352,28343,6,0,B|512:224|416:64,1,373.333333333333
320,64,30676,5,0
224,96,31176,1,0
288,160,31510,1,0
256,192,32343,12,0,33676
256,192,34843,5,0
256,192,35343,1,0
256,192,35676,1,0
256,192,37010,1,0
256,192,37510,1,0
256,192,37843,1,0
352,192,38343,5,0
352,192,39176,5,0
352,288,40176,5,0
224,288,41176,1,0
256,192,42343,1,0
256,192,43010,12,0,51176
256,192,52010,5,0
256,192,52510,1,0
256,192,52843,1,0
384,192,53510,5,0
384,256,53843,1,0
288,256,55676,6,0,B|32:256,1,233.333333333333
256,192,60510,1,0
192,128,61176,2,0,B|480:128,2,280
160,256,64343,5,0
160,192,64843,1,0
96,96,65343,2,0,B|480:96,2,373.333333333333
256,192,69176,5,0
384,96,71343,1,0
384,224,73343,1,0
256,288,75343,2,0,B|64:288|96:32,1,326.666666666667
256,64,77676,1,0
416,64,79843,1,0
416,160,80343,1,0
416,160,80676,1,0
416,256,81176,1,0
288,256,81885,1,0
160,256,83010,1,0
160,128,84176,1,0
256,192,85176,1,0
256,192,94843,5,0
320,192,96010,1,0
384,192,97010,1,0
384,192,98635,1,4
