osu file format v9

[General]
AudioFilename: touhou sky arena.mp3
AudioLeadIn: 0
PreviewTime: 68100
Countdown: 0
SampleSet: Soft
StackLeniency: 0.7
Mode: 0
LetterboxInBreaks: 1

[Editor]
DistanceSpacing: 0.9
BeatDivisor: 4
GridSize: 8

[Metadata]
Title:SKY HIGH
Artist:Rokugen Alice
Creator:suntimunin
Version:Lunatic
Source:Touhou Sky Arena
Tags:maiden capricco dream battle regenz illuminist l3lueskyiiz

[Difficulty]
HPDrainRate:8
CircleSize:4
OverallDifficulty:8
ApproachRate:9
SliderMultiplier:1.5
SliderTickRate:1

[Events]
//Background and Video events
Video,0,"OP.flv"
0,0,"BG.jpg"
//Break Periods
//Storyboard Layer 0 (Background)
//Storyboard Layer 1 (Fail)
//Storyboard Layer 2 (Pass)
//Storyboard Layer 3 (Foreground)
//Storyboard Sound Samples
//Background Colour Transformations
3,100,163,162,255

[TimingPoints]
11708,352.941176470588,4,2,1,80,1,0
22913,-100,4,2,1,40,0,0
33855,-100,4,2,1,70,0,0
34296,-100,4,2,1,100,0,0
39855,-100,4,2,1,100,0,0
45678,-100,4,1,0,20,0,0
56531,-100,4,2,1,70,0,0
65707,-100,4,1,1,70,0,0
67825,-66.6666666666667,4,1,0,100,0,1
76649,-66.6666666666667,4,2,1,100,0,1
89707,-100,4,1,0,75,0,0
93502,-100,4,2,0,100,0,0

[Colours]
Combo1 : 255,255,0
Combo2 : 0,128,255
Combo3 : 255,0,0
Combo4 : 0,255,64

[HitObjects]
48,160,11708,1,2
136,88,11884,1,2
224,160,12060,1,2
216,272,12237,2,2,B|136:320|72:264,1,150,2|0
144,176,12766,1,2
352,88,13119,1,2
456,288,13472,1,2
312,336,13825,2,0,B|224:344,2,75
160,320,14531,1,2
160,320,14884,1,2
64,200,15237,1,2
96,96,15413,1,2
200,48,15590,1,2
424,56,15943,1,2
376,280,16296,1,2
152,280,16649,2,0,B|56:280,2,75
80,64,17355,1,2
304,64,17708,1,2
464,128,18060,2,0,B|392:208,1,75,2|0
312,224,18413,1,2
96,168,18766,1,2
280,32,19119,1,2
408,216,19472,1,2
376,320,19649,1,2
264,328,19825,1,2
296,216,20002,2,0,B|200:216,2,75
224,136,20531,1,2
336,136,20707,2,0,B|440:136,2,75
272,40,21237,1,2
160,40,21413,2,0,B|80:40,2,75
104,136,21943,1,2
88,168,22031,1,2
80,200,22119,1,2
96,304,22296,1,2
112,336,22384,1,2
144,344,22472,1,2
216,272,22649,1,2
224,240,22737,1,2
232,208,22825,1,2
320,264,23002,1,0
456,88,23355,1,0
232,72,23707,1,0
64,224,24060,1,0
248,352,24413,1,0
112,176,24766,2,0,B|256:72,1,150
344,120,25296,1,0
264,192,25472,2,0,B|192:248,2,75
344,120,26002,1,0
448,168,26178,2,0,B|312:264,1,150
216,256,26884,2,0,B|88:160,1,150
304,80,27590,1,0
496,192,27943,1,0
272,208,28296,1,0
440,64,28649,1,0
400,288,29002,1,0
184,336,29355,2,0,B|96:184,1,150
256,32,30060,2,0,B|368:160,1,150
136,88,30766,2,0,B|48:208,1,150
64,320,31296,1,0
176,320,31472,2,0,B|256:320,2,75
64,320,32002,1,0
120,224,32178,2,0,B|176:144,2,75
232,248,32707,1,0
320,320,32884,1,0
432,304,33060,2,0,B|480:224,2,75
360,216,33589,1,2
392,200,33678,1,2
424,184,33766,1,2
496,64,33942,1,2
464,72,34031,1,2
432,88,34119,1,2
400,96,34207,1,2
368,112,34295,1,0
224,320,34472,1,0
264,216,34648,1,0
192,128,34825,1,0
88,168,35002,2,0,B|144:240|72:304,1,150,2|0
136,80,35707,1,0
296,240,36060,1,0
416,48,36413,1,0
456,152,36590,1,0
448,264,36766,1,0
344,224,36943,2,0,B|248:104,1,150,0|0
136,96,37472,2,0,B|104:56|48:96,2,75,0|0|0
208,184,38002,1,0
280,272,38178,1,0
184,328,38355,1,0
72,336,38531,2,0,B|8:280|16:200,2,150,2|0|2
296,320,39590,1,0
360,224,39766,1,0
416,128,39943,1,0
320,64,40119,2,0,B|224:48|184:120,2,150,0|2|0
344,288,41178,1,0
240,320,41355,1,0
144,264,41531,1,0
184,160,41707,2,0,B|320:104|336:208|224:184|312:40,1,225,2|0
384,136,42413,1,0
424,240,42590,1,0
344,320,42766,1,0
288,224,42943,2,2,B|128:224,2,150,2|0|2
216,136,43825,1,0
328,144,44002,1,0
408,224,44178,1,0
336,312,44355,2,0,B|264:352|176:312,2,150,2|0|2
240,256,45237,1,2
216,240,45325,1,2
192,224,45413,1,2
168,208,45502,1,0
144,192,45590,1,0
152,80,45943,1,0
360,160,46296,1,0
176,296,46649,1,0
264,88,47002,2,0,B|416:88,2,150
264,312,48061,2,0,B|112:312,2,150
256,88,49119,1,0
176,168,49296,1,0
264,240,49472,1,0
352,168,49649,2,0,B|424:224|392:304,2,150
240,168,50531,2,0,B|160:168,2,75
392,336,51237,1,0
416,112,51590,1,0
208,24,51943,1,0
8,128,52296,2,0,B|48:272,1,150
272,320,53002,2,0,B|216:176,1,150
440,128,53707,1,0
464,240,53884,1,0
400,328,54060,1,0
208,208,54413,2,0,B|56:208,2,150
432,208,55472,1,0
320,208,55649,1,0
208,200,55825,1,0
72,24,56178,1,0
72,248,56531,1,2
96,264,56619,1,2
120,280,56707,1,2
144,296,56796,1,2
168,312,56884,1,2
384,264,57237,1,0
264,80,57590,1,0
48,152,57943,1,0
96,264,58119,1,0
200,296,58296,1,0
296,240,58472,2,0,B|384:192|352:104,2,150
184,264,59355,2,0,B|96:304|88:400,2,150
136,160,60237,1,2
160,136,60325,1,2
184,112,60413,1,2
264,152,60590,1,2
248,176,60678,1,2
232,200,60766,1,2
312,280,60943,1,0
408,224,61119,1,0
368,120,61296,1,0
272,176,61472,1,0
248,160,61560,1,0
224,144,61649,1,0
312,56,62002,1,0
160,224,62355,1,0
376,176,62707,1,0
360,288,62884,1,0
248,312,63060,1,0
248,88,63413,1,0
120,272,63766,1,0
320,168,63943,1,0
208,168,64119,1,0
264,272,64296,1,0
472,192,64649,1,0
320,32,65002,1,0
368,136,65178,1,0
312,232,65355,1,0
104,144,65707,1,0
48,240,65884,1,0
136,312,66060,1,0
248,320,66237,1,0
280,320,66325,1,0
312,320,66413,1,0
368,224,66590,1,0
336,224,66678,1,0
304,224,66766,1,0
224,144,66943,1,2
336,136,67119,1,2
280,40,67296,1,2
168,56,67472,1,2
144,168,68178,1,0
224,208,68355,1,0
200,296,68531,1,0
120,256,68707,2,0,B|48:152,2,112.499996647239
200,160,69237,1,0
280,72,69413,1,0
144,168,69590,1,0
288,224,69766,1,0
152,304,69943,1,0
304,352,70119,2,0,B|432:320|432:168,1,224.999993294478
424,152,70560,1,0
408,120,70649,1,0
168,64,71002,1,0
112,176,71178,1,0
208,248,71355,1,0
272,144,71531,2,0,B|400:120,2,112.499996647239
352,240,72060,1,0
272,336,72237,1,0
160,288,72413,1,0
232,184,72590,2,0,B|192:80,2,112.499996647239
248,216,73031,1,0
264,248,73119,1,0
280,280,73207,1,0
296,312,73296,1,0
400,360,73472,2,0,B|472:360|512:312,2,112.499996647239
464,200,74002,2,0,B|440:144|376:128,1,112.499996647239
248,56,74355,1,0
184,208,74531,1,0
40,120,74707,1,0
40,152,74796,1,0
40,184,74884,1,0
272,328,75237,1,0
352,224,75413,1,0
272,112,75590,1,0
192,224,75766,2,0,B|80:184|88:24,1,224.999993294478
224,48,76296,1,0
256,48,76384,1,0
288,48,76472,1,0
360,136,76649,2,4,B|400:240,1,112.499996647239
288,272,77002,2,4,B|256:160,1,112.499996647239
144,184,77355,2,4,B|176:296,1,112.499996647239
256,216,77707,2,4,B|184:176|168:256,1,112.499996647239
256,320,78060,1,4
368,288,78237,1,4
384,176,78413,1,4
288,120,78590,1,2
256,120,78678,1,2
224,120,78766,1,2
200,320,79296,1,0
112,248,79472,1,2
72,144,79649,2,2,B|192:144,2,112.499996647239,2|0|2
160,72,80178,1,0
272,64,80355,1,0
384,72,80531,1,0
416,176,80707,2,0,B|352:272|208:264,1,224.999993294478,2|0
184,256,81149,1,0
152,240,81237,1,0
192,80,81413,1,0
96,64,81590,1,0
432,112,81943,1,0
456,240,82119,1,0
336,296,82296,1,0
280,176,82472,2,0,B|176:128,2,112.499996647239,0|2|0
344,208,83002,1,0
376,224,83090,1,0
408,240,83178,1,0
376,336,83355,1,0
272,336,83531,1,0
176,296,83707,1,0
120,216,83884,2,0,B|64:112,2,112.499996647239
