osu file format v12

[General]
AudioFilename: SKY HIGH.mp3
AudioLeadIn: 2000
PreviewTime: 11689
Countdown: 0
SampleSet: Normal
StackLeniency: 0.5
Mode: 0
LetterboxInBreaks: 0
WidescreenStoryboard: 0

[Editor]
DistanceSpacing: 1
BeatDivisor: 4
GridSize: 4

[Metadata]
Title:SKY HIGH
TitleUnicode:SKY HIGH
Artist:Rokugen Alice
ArtistUnicode:Rokugen Alice
Creator:Tsukuyomi
Version:Normal
Source:Touhou
Tags:xChippy yanlu baldrace area-zero ZUN Sky Arena Reimu Hakurei Maiden's Capriccio Dream Battle opening
BeatmapID:292953
BeatmapSetID:112417

[Difficulty]
HPDrainRate:2
CircleSize:3
OverallDifficulty:3
ApproachRate:5
SliderMultiplier:0.999999999999999
SliderTickRate:1

[Events]
//Background and Video events
0,0,"BG.jpg",0,0
Video,0,"OP.flv"
//Break Periods
//Storyboard Layer 0 (Background)
//Storyboard Layer 1 (Fail)
//Storyboard Layer 2 (Pass)
//Storyboard Layer 3 (Foreground)
//Storyboard Sound Samples
//Background Colour Transformations
3,100,163,162,255

[TimingPoints]
395,352.941176470588,4,2,2,50,1,0
8865,-100,4,2,2,5,0,0
10983,-100,4,2,2,5,0,0
11689,-100,4,1,1,60,0,1
22983,-100,4,1,1,50,0,0
24394,-100,4,2,1,50,0,0
34542,-100,4,2,3,50,0,0
34718,-100,4,2,1,50,0,0
37365,-100,4,2,3,50,0,0
37542,-100,4,2,1,50,0,0
57130,-100,4,2,3,50,0,0
57306,-100,4,2,1,50,0,0
58542,-100,4,2,3,50,0,0
58718,-100,4,2,1,50,0,0
59953,-100,4,2,3,50,0,0
60130,-100,4,2,1,50,0,0
61365,-100,4,2,3,50,0,0
61894,-100,4,2,1,50,0,0
62512,-100,4,2,1,62,0,0
68159,-100,4,1,1,60,0,1
71953,-100,4,1,2,60,0,1
72130,-100,4,1,1,60,0,1
74071,-100,4,1,2,60,0,1
74247,-100,4,1,1,60,0,1
79718,-100,4,1,2,60,0,1
79894,-100,4,1,1,60,0,1
81130,-100,4,1,2,60,0,1
81306,-100,4,1,1,60,0,1
82542,-100,4,1,2,60,0,1
82718,-100,4,1,1,60,0,1
85365,-100,4,1,2,60,0,1
85542,-100,4,1,1,60,0,1
86071,-100,4,1,2,60,0,1
86247,-100,4,1,1,60,0,1
93571,-100,4,1,1,30,0,0
94983,-100,4,2,1,5,0,0

[Colours]
Combo1 : 226,199,156
Combo2 : 0,255,255
Combo3 : 170,170,255

[HitObjects]
160,264,395,2,0,P|254:291|349:265,1,200,0|8,0:0|0:0,0:0:0:0:
256,88,1806,1,0,0:0:0:0:
455,96,2512,1,0,0:0:0:0:
349,265,3218,6,0,P|254:291|160:264,1,200,0|8,0:0|0:0,0:0:0:0:
326,152,4630,2,0,P|406:158|454:222,2,150
296,56,6042,6,0,P|232:120|253:220,1,200,0|8,0:0|0:0,0:0:0:0:
70,302,7453,2,0,P|43:238|40:147,2,150
256,192,8865,12,0,10983,0:0:0:0:
388,74,11689,6,0,L|296:112,1,99.9999999999999,6|8,0:0|0:0,0:0:0:0:
353,193,12394,2,0,L|261:231,1,99.9999999999999,2|8,0:0|0:0,0:0:0:0:
213,317,13100,1,0,0:0:0:0:
138,251,13453,2,0,P|103:205|91:162,2,99.9999999999999,8|2|10,0:0|0:0|0:0,0:0:0:0:
213,317,14512,6,0,L|330:280,1,99.9999999999999,2|8,0:0|0:0,0:0:0:0:
244,209,15218,2,0,L|361:172,1,99.9999999999999,2|8,0:0|0:0,0:0:0:0:
366,82,15924,1,0,0:0:0:0:
429,159,16277,2,0,P|458:200|472:253,2,99.9999999999999,8|2|10,0:0|0:0|0:0,0:0:0:0:
366,82,17336,6,0,L|263:51,1,99.9999999999999,6|8,0:0|0:0,0:0:0:0:
267,153,18042,2,0,L|164:122,1,99.9999999999999,2|8,0:0|0:0,0:0:0:0:
85,175,18747,1,0,0:0:0:0:
87,274,19100,2,0,P|97:326|134:362,2,99.9999999999999,8|2|10,0:0|0:0|0:0,0:0:0:0:
85,175,20159,6,0,L|186:127,1,99.9999999999999,2|8,0:0|0:0,0:0:0:0:
196,230,20865,2,0,L|297:182,1,99.9999999999999,2|8,0:0|0:0,0:0:0:0:
377,228,21571,2,0,L|439:197,2,50
379,278,22100,1,0,0:0:0:0:
373,328,22277,2,0,L|440:343,2,50
288,274,22983,5,4,0:0:0:0:
93,245,24394,6,0,P|62:156|48:140,2,99.9999999999999,2|0|2,0:0|0:0|0:0,0:0:0:0:
113,343,25453,1,0,0:0:0:0:
212,329,25806,2,0,P|313:302|377:231,1,200,2|0,0:0|0:0,0:0:0:0:
460,180,26865,2,0,P|417:138|373:137,1,99.9999999999999
279,139,27571,6,0,P|270:96|290:33,2,99.9999999999999,2|0|0,0:0|0:0|0:0,0:0:0:0:
308,234,28630,2,0,P|310:286|288:333,2,99.9999999999999,2|0|0,0:0|0:0|0:0,0:0:0:0:
213,266,29689,1,0,0:0:0:0:
135,328,30042,2,0,P|88:242|98:130,1,200,2|0,0:0|0:0,0:0:0:0:
28,66,31100,1,2,0:0:0:0:
126,49,31453,5,2,0:0:0:0:
255,202,32159,1,2,0:0:0:0:
384,49,32865,2,0,P|442:91|456:176,2,150,6|2|6,0:0|0:0|0:0,0:0:0:0:
357,144,34277,6,0,L|181:242,1,200,2|0,0:0|0:0,0:0:0:0:
95,290,35336,1,8,0:0:0:0:
34,209,35689,2,0,P|50:142|89:111,1,99.9999999999999,2|8,0:0|0:0,0:0:0:0:
134,201,36394,2,0,L|219:268,1,99.9999999999999,2|8,0:0|0:0,0:0:0:0:
258,352,37100,6,0,P|365:319|418:229,1,200,2|0,0:0|0:0,0:0:0:0:
448,155,38159,2,0,P|461:101|450:52,2,99.9999999999999,8|2|8,0:0|0:0|0:0,0:0:0:0:
348,170,39218,1,0,0:0:0:0:
285,248,39571,1,8,0:0:0:0:
192,286,39924,6,0,P|143:284|93:244,2,99.9999999999999,4|8|0,0:0|0:0|0:0,0:0:0:0:
180,186,40983,1,8,0:0:0:0:
251,115,41336,2,0,P|297:84|349:84,1,99.9999999999999,2|8,0:0|0:0,0:0:0:0:
438,102,42042,2,0,L|411:208,1,99.9999999999999,2|8,0:0|0:0,0:0:0:0:
256,192,42747,12,0,44865,0:0:0:0:
198,310,45571,6,0,P|99:270|86:172,1,200,4|0,0:0|0:0,0:0:0:0:
179,212,46630,1,0,0:0:0:0:
241,133,46983,2,0,P|301:79|378:63,2,150,2|0|0,0:0|0:0|0:0,0:0:0:0:
180,212,48394,6,0,P|99:178|65:66,2,200,2|0|2,0:0|0:0|0:0,0:0:0:0:
275,242,50159,2,0,B|330:251|364:284|364:284|463:244,1,200,2|2,0:0|0:0,0:0:0:0:
456,148,51218,1,4,0:0:0:0:
371,96,51571,2,0,P|278:64|174:89,1,200,2|0,0:0|0:0,0:0:0:0:
87,48,52630,6,0,P|87:153|176:191,1,200,2|0,0:0|0:0,0:0:0:0:
262,200,53689,2,0,B|302:225|325:184|379:210,1,99.9999999999999,2|0,0:0|0:0,0:0:0:0:
446,256,54394,1,2,0:0:0:0:
364,314,54747,1,0,0:0:0:0:
269,347,55100,1,2,0:0:0:0:
170,327,55453,6,0,P|116:305|95:257,1,99.9999999999999,0|2,0:0|0:0,0:0:0:0:
188,234,56159,2,0,L|268:160,1,99.9999999999999,0|10,0:0|0:0,0:0:0:0:
337,100,56865,2,0,P|381:66|472:68,2,150,6|0|8,0:0|0:0|0:0,0:0:0:0:
259,164,58277,6,0,P|199:81|102:83,1,200,2|0,0:0|0:0,0:0:0:0:
157,167,59336,1,8,0:0:0:0:
68,213,59689,2,0,B|110:284|188:266|188:266|246:298,1,200,2|8,0:0|0:0,0:0:0:0:
331,331,60747,1,10,0:0:0:0:
401,259,61100,6,0,B|447:215|446:110|446:110|348:131|301:80,1,300,6|8,0:0|0:0,0:0:0:0:
211,94,62512,2,0,L|125:146,1,99.9999999999999,2|8,0:0|0:0,0:0:0:0:
202,210,63218,2,0,L|116:262,1,99.9999999999999,2|8,0:0|0:0,0:0:0:0:
191,328,63924,6,0,L|277:276,1,99.9999999999999,2|8,0:0|0:0,0:0:0:0:
310,370,64630,2,0,L|396:318,1,99.9999999999999,2|8,0:0|0:0,0:0:0:0:
431,224,65336,1,2,0:0:0:0:
387,133,65689,2,0,L|337:31,2,99.9999999999999,8|0|8,0:0|0:0|0:0,0:0:0:0:
431,224,66747,5,4,0:0:0:0:
331,228,67100,2,0,L|276:231,1,50,8|0,0:0|0:0,0:0:0:0:
82,78,68159,6,0,L|190:78,1,99.9999999999999,6|8,0:0|0:0,0:0:0:0:
274,38,68865,2,0,P|280:96|258:139,1,99.9999999999999,2|8,0:0|0:0,0:0:0:0:
204,214,69571,2,2,L|285:299,1,99.9999999999999,0|8,0:0|0:0,0:0:0:0:
362,331,70277,2,0,P|418:297|439:248,1,99.9999999999999,0|8,0:0|0:0,0:0:0:0:
471,174,70983,5,2,0:0:0:0:
415,90,71336,1,8,0:0:0:0:
336,152,71689,2,0,P|278:145|207:80,1,150,2|0,0:0|0:0,0:0:0:0:
113,64,72571,2,0,P|75:121|84:216,1,150,2|0,0:0|0:0,0:0:0:0:
120,290,73453,1,8,0:0:0:0:
181,211,73806,6,0,P|247:133|359:107,1,200,6|0,0:0|0:0,0:0:0:0:
417,44,74865,2,0,P|437:85|426:151,1,99.9999999999999,8|2,0:0|0:0,0:0:0:0:
386,227,75571,2,0,P|330:249|300:290,1,99.9999999999999,8|0,0:0|0:0,0:0:0:0:
231,347,76277,1,8,0:0:0:0:
256,192,76630,12,0,78747,0:0:0:0:
100,102,79453,6,0,P|197:77|288:131,1,200,6|0,0:0|0:0,0:0:0:0:
359,183,80512,1,8,0:0:0:0:
383,279,80865,2,2,P|285:309|190:263,1,200
126,202,81924,1,8,0:0:0:0:
57,128,82277,6,0,B|138:86|194:135|194:135|264:116,1,200,2|0,0:0|0:0,0:0:0:0:
337,81,83336,2,0,P|400:119|416:151,1,99.9999999999999,8|0,0:0|0:0,0:0:0:0:
413,240,84042,2,0,L|336:308,1,99.9999999999999,10|0,0:0|0:0,0:0:0:0:
239,322,84747,1,8,0:0:0:0:
264,225,85100,6,0,B|176:231|176:231|156:304|90:304,2,200,6|0|0,0:0|0:0|0:0,0:0:0:0:
351,176,86865,2,0,L|427:101,1,99.9999999999999,8|0,0:0|0:0,0:0:0:0:
340,47,87571,1,8,0:0:0:0:
257,103,87924,6,0,P|154:129|48:91,2,200,2|0|0,0:0|0:0|0:0,0:0:0:0:
376,263,90042,2,0,L|425:314,2,50,0|0|8,0:0|0:0|0:0,0:0:0:0:
411,167,90747,5,6,0:0:0:0:
324,116,91100,1,10,0:0:0:0:
241,172,91453,1,2,0:0:0:0:
277,265,91806,1,10,0:0:0:0:
376,263,92159,5,6,0:0:0:0:
411,65,92865,2,0,L|317:123,1,99.9999999999999,8|0,0:0|0:0,0:0:0:0:
241,172,93571,5,4,0:0:0:0:
256,192,93659,12,0,94983,0:0:0:0:
