osu file format v12

[General]
AudioFilename: SKY HIGH.mp3
AudioLeadIn: 2000
PreviewTime: 11689
Countdown: 0
SampleSet: Soft
StackLeniency: 0.3
Mode: 0
LetterboxInBreaks: 0
WidescreenStoryboard: 0

[Editor]
DistanceSpacing: 1
BeatDivisor: 4
GridSize: 4

[Metadata]
Title:SKY HIGH
TitleUnicode:SKY HIGH
Artist:Rokugen Alice
ArtistUnicode:Rokugen Alice
Creator:Tsukuyomi
Version:Lunatic
Source:Touhou
Tags:xChippy yanlu baldrace area-zero ZUN Sky Arena Reimu Hakurei Maiden's Capriccio Dream Battle opening
BeatmapID:292021
BeatmapSetID:112417

[Difficulty]
HPDrainRate:7
CircleSize:4
OverallDifficulty:8
ApproachRate:9
SliderMultiplier:1.8
SliderTickRate:1

[Events]
//Background and Video events
0,0,"BG.jpg",0,0
Video,0,"OP.flv"
//Break Periods
//Storyboard Layer 0 (Background)
//Storyboard Layer 1 (Fail)
//Storyboard Layer 2 (Pass)
//Storyboard Layer 3 (Foreground)
//Storyboard Sound Samples
//Background Colour Transformations
3,100,163,162,255

[TimingPoints]
395,352.941176470588,4,2,2,50,1,0
2336,-133.333333333333,4,2,2,50,0,0
2865,-100,4,2,2,50,0,0
7983,-133.333333333333,4,2,1,50,0,0
8336,-100,4,2,1,50,0,0
9218,-133.333333333333,4,2,2,50,0,0
9571,-100,4,2,1,50,0,0
9747,-133.333333333333,4,2,1,50,0,0
10100,-100,4,2,1,50,0,0
10277,-100,4,2,1,20,0,0
11689,-100,4,1,1,60,0,1
22983,-100,4,2,1,50,0,0
24659,-100,4,2,1,20,0,0
24747,-100,4,2,1,50,0,0
25012,-100,4,2,1,20,0,0
25100,-100,4,2,1,50,0,0
25365,-100,4,2,1,20,0,0
25453,-100,4,2,1,50,0,0
25718,-100,4,2,1,20,0,0
25806,-100,4,2,1,50,0,0
30306,-100,4,2,1,20,0,0
30394,-100,4,2,1,50,0,0
30659,-100,4,2,1,20,0,0
30747,-100,4,2,1,50,0,0
31012,-100,4,2,1,20,0,0
31100,-100,4,2,1,50,0,0
31365,-100,4,2,1,20,0,0
31453,-100,4,2,1,50,0,0
31806,-133.333333333333,4,2,1,50,0,0
32071,-100,4,2,1,50,0,0
32512,-133.333333333333,4,2,1,50,0,0
32777,-100,4,2,1,50,0,0
35689,-133.333333333333,4,2,1,50,0,0
35953,-100,4,2,1,50,0,0
36394,-80,4,2,1,50,0,0
36659,-100,4,2,1,50,0,0
41336,-133.333333333333,4,2,1,50,0,0
41600,-100,4,2,1,50,0,0
42042,-80,4,2,1,50,0,0
42306,-100,4,2,1,50,0,0
62512,-100,4,2,1,62,0,0
68159,-100,4,1,1,60,0,1
93571,-100,4,1,1,30,0,0
94983,-100,4,2,1,5,0,0

[Colours]
Combo1 : 226,199,156
Combo2 : 0,255,255
Combo3 : 170,170,255

[HitObjects]
168,232,395,1,0,0:0:0:0:
100,292,571,1,0,0:0:0:0:
236,172,747,2,0,L|302:111,1,90,8|0,0:0|0:0,0:0:0:0:
392,96,1100,1,0,0:0:0:0:
302,111,1277,2,0,L|196:128,1,90
412,292,1630,1,0,0:0:0:0:
336,244,1806,6,0,P|252:212|160:236,1,180
336,244,2336,2,0,P|304:160|332:48,1,202.500007724762
100,92,3042,2,0,L|144:132,1,45,0|0,0:0|0:0,0:0:0:0:
232,216,3218,5,0,0:0:0:0:
168,152,3394,1,0,0:0:0:0:
304,272,3571,2,0,L|368:336,1,90,8|0,0:0|0:0,0:0:0:0:
144,240,3924,1,0,0:0:0:0:
232,216,4100,2,0,P|280:192|328:136,1,90
361,100,4453,1,0,0:0:0:0:
400,184,4630,5,0,0:0:0:0:
232,216,4806,1,0,0:0:0:0:
361,100,4983,1,0,0:0:0:0:
144,240,5159,2,0,P|148:182|200:136,1,90
244,115,5512,1,0,0:0:0:0:
68,72,5689,1,0,0:0:0:0:
68,72,5865,5,0,0:0:0:0:
100,103,5953,1,0,0:0:0:0:
130,136,6042,1,0,0:0:0:0:
361,100,6218,1,0,0:0:0:0:
232,216,6394,2,0,L|153:279,1,90,8|0,0:0|0:0,0:0:0:0:
386,204,6747,1,0,0:0:0:0:
232,216,6924,2,0,L|132:223,1,90
363,304,7277,1,0,0:0:0:0:
232,215,7453,6,0,P|245:117|258:99,1,90
361,100,7806,1,0,0:0:0:0:
239,127,7983,2,0,P|152:168|120:228,1,135.000005149842
92,280,8512,1,0,0:0:0:0:
261,337,8689,1,0,0:0:0:0:
379,203,8865,5,0,0:0:0:0:
346,343,9042,1,0,0:0:0:0:
307,165,9218,2,0,P|347:128|433:142,1,135,8|0,0:0|0:0,0:0:0:0:
205,165,9747,2,0,P|165:128|79:142,1,135
256,192,10277,12,0,11512,0:0:0:0:
86,210,11689,5,6,0:0:0:0:
192,306,11866,1,0,0:0:0:0:
312,228,12042,2,2,L|367:180,1,45,8|0,0:0|0:0,0:0:0:0:
305,220,12218,6,2,L|392:146,1,90
155,242,12571,1,0,0:0:0:0:
276,164,12747,2,2,L|320:124,1,45,8|0,0:0|0:0,0:0:0:0:
268,156,12923,6,2,L|355:82,1,90
155,242,13277,5,0,0:0:0:0:
11,126,13453,1,8,0:0:0:0:
193,133,13630,1,0,0:0:0:0:
193,133,13718,1,0,0:0:0:0:
193,133,13806,1,2,0:0:0:0:
42,234,13983,1,0,0:0:0:0:
105,64,14159,1,10,0:0:0:0:
155,242,14336,1,0,0:0:0:0:
272,324,14512,5,2,0:0:0:0:
396,252,14689,1,0,0:0:0:0:
356,116,14865,2,2,L|335:62,1,45,8|0,0:0|0:0,0:0:0:0:
349,118,15041,6,2,L|305:12,1,90
323,268,15394,1,0,0:0:0:0:
284,132,15570,2,2,L|260:74,1,45,8|0,0:0|0:0,0:0:0:0:
276,134,15747,6,2,L|232:28,1,90
323,268,16100,5,0,0:0:0:0:
168,369,16276,1,8,0:0:0:0:
231,198,16453,1,0,0:0:0:0:
231,198,16541,1,0,0:0:0:0:
231,198,16629,1,2,0:0:0:0:
281,373,16806,1,0,0:0:0:0:
139,260,16982,1,10,0:0:0:0:
323,268,17159,1,0,0:0:0:0:
428,168,17336,5,6,0:0:0:0:
347,47,17513,1,0,0:0:0:0:
212,96,17689,2,2,L|159:120,1,45,8|0,0:0|0:0,0:0:0:0:
217,104,17865,6,2,L|114:154,1,90
368,120,18218,1,0,0:0:0:0:
232,168,18394,2,2,L|180:192,1,45,8|0,0:0|0:0,0:0:0:0:
237,174,18570,6,2,L|134:224,1,90
368,120,18924,5,0,0:0:0:0:
481,267,19100,1,8,0:0:0:0:
305,216,19277,1,0,0:0:0:0:
305,216,19365,1,0,0:0:0:0:
305,216,19453,1,2,0:0:0:0:
475,155,19630,1,0,0:0:0:0:
372,303,19806,1,10,0:0:0:0:
368,120,19983,1,0,0:0:0:0:
256,32,20159,5,2,0:0:0:0:
127,99,20336,1,0,0:0:0:0:
164,240,20512,2,2,L|182:293,1,45,8|0,0:0|0:0,0:0:0:0:
170,235,20688,6,2,L|208:342,1,90
201,86,21041,1,0,0:0:0:0:
242,222,21217,6,0,L|260:276,1,45,8|0,0:0|0:0,0:0:0:0:
340,376,21394,2,0,L|320:313,1,45
336,193,21571,2,0,L|348:252,1,45,4|0,0:0|0:0,0:0:0:0:
432,345,21747,2,0,L|412:281,1,45,0|0,0:0|0:0,0:0:0:0:
428,161,21924,2,0,L|440:224,1,45,8|0,0:0|0:0,0:0:0:0:
336,193,22100,6,0,L|328:136,1,45,0|0,0:0|0:0,0:0:0:0:
234,177,22277,2,0,L|242:222,1,45,0|0,0:0|0:0,0:0:0:0:
148,252,22453,2,0,L|136:196,1,45,0|0,0:0|0:0,0:0:0:0:
132,163,22630,5,8,0:0:0:0:
147,120,22718,1,0,0:0:0:0:
173,83,22806,1,0,0:0:0:0:
209,56,22894,1,0,0:0:0:0:
252,42,22983,6,0,P|310:48|365:82,1,90,6|0,0:0|0:0,0:0:0:0:
473,107,23336,1,0,0:0:0:0:
386,262,23512,2,0,P|316:315|205:302,1,180
184,297,23953,1,0,0:0:0:0:
184,297,24042,1,0,0:0:0:0:
61,222,24218,1,0,0:0:0:0:
173,83,24394,6,0,P|245:96|296:139,1,135,2|0,0:0|0:0,0:0:0:0:
172,84,24747,2,0,P|184:156|161:218,1,135,0|0,0:0|0:0,0:0:0:0:
172,84,25100,2,0,P|108:120|41:120,1,135,2|0,0:0|0:0,0:0:0:0:
172,84,25453,2,0,P|235:47|302:47,1,135,2|0,0:0|0:0,0:0:0:0:
339,57,25806,5,2,0:0:0:0:
447,156,25983,1,0,0:0:0:0:
303,156,26159,1,0,0:0:0:0:
446,188,26336,1,0,0:0:0:0:
325,266,26512,1,0,0:0:0:0:
465,223,26689,1,0,0:0:0:0:
401,351,26865,5,0,0:0:0:0:
214,226,27042,2,0,P|173:199|103:197,1,90,0|2,0:0|0:0,0:0:0:0:
43,196,27394,1,0,0:0:0:0:
149,97,27571,1,0,0:0:0:0:
214,225,27747,2,0,P|246:144|325:96,1,180,2|0,0:0|0:0,0:0:0:0:
398,188,28277,1,2,0:0:0:0:
310,301,28453,2,0,L|268:320,1,45
310,301,28630,6,0,P|231:327|170:320,1,135,2|0,0:0|0:0,0:0:0:0:
134,318,28983,1,0,0:0:0:0:
36,214,29159,2,0,P|111:177|213:199,1,180
288,217,29689,1,0,0:0:0:0:
379,106,29865,2,0,L|310:113,1,45
379,106,30042,6,0,P|302:123|254:156,1,135,2|0,0:0|0:0,0:0:0:0:
133,106,30394,2,0,P|210:123|258:156,1,135,0|0,0:0|0:0,0:0:0:0:
133,202,30747,2,0,P|210:185|258:152,1,135,2|0,0:0|0:0,0:0:0:0:
379,202,31100,2,0,P|302:185|254:152,1,135,2|0,0:0|0:0,0:0:0:0:
254,272,31453,5,2,0:0:0:0:
126,337,31630,1,0,0:0:0:0:
254,272,31806,2,0,L|346:222,1,101.250003862381
379,202,32159,5,2,0:0:0:0:
504,277,32336,1,0,0:0:0:0:
379,202,32512,2,0,L|275:135,1,101.250003862381
256,128,32865,1,6,0:0:0:0:
256,128,33042,5,0,0:0:0:0:
132,56,33218,1,10,0:0:0:0:
132,56,33307,1,0,0:0:0:0:
132,56,33395,2,0,L|176:16,1,45
48,92,33571,2,0,L|-8:92,1,45,10|0,0:0|0:0,0:0:0:0:
124,144,33747,2,0,L|152:208,1,45
208,304,33924,1,14,0:0:0:0:
402,274,34100,1,0,0:0:0:0:
400,88,34277,6,0,P|372:144|316:200,1,135,2|0,0:0|0:0,0:0:0:0:
291,228,34630,1,8,0:0:0:0:
400,88,34806,2,0,P|359:100|286:100,1,90,0|0,0:0|0:0,0:0:0:0:
178,54,35159,1,0,0:0:0:0:
178,54,35247,1,0,0:0:0:0:
178,54,35336,1,8,0:0:0:0:
99,173,35512,1,0,0:0:0:0:
185,289,35689,6,0,P|246:306|296:296,1,101.250003862381,2|0,0:0|0:0,0:0:0:0:
185,289,36042,6,0,P|257:226|278:170,1,135,8|0,0:0|0:0,0:0:0:0:
185,289,36394,6,0,P|210:233|159:142,1,168.75,2|0,0:0|0:0,0:0:0:0:
86,95,36747,5,10,0:0:0:0:
312,93,36924,1,0,0:0:0:0:
401,276,37100,5,2,0:0:0:0:
401,276,37189,1,0,0:0:0:0:
401,276,37277,1,0,0:0:0:0:
448,140,37453,1,8,0:0:0:0:
264,229,37630,1,2,0:0:0:0:
264,229,37718,1,0,0:0:0:0:
264,229,37806,1,0,0:0:0:0:
448,142,37983,1,0,0:0:0:0:
401,276,38159,1,8,0:0:0:0:
312,93,38336,1,0,0:0:0:0:
450,289,38512,5,2,0:0:0:0:
228,312,38689,1,0,0:0:0:0:
334,185,38865,2,0,L|339:255,1,45,10|0,0:0|0:0,0:0:0:0:
347,373,39042,1,0,0:0:0:0:
149,118,39394,5,0,0:0:0:0:
220,284,39571,1,8,0:0:0:0:
37,254,39747,1,0,0:0:0:0:
216,260,39924,6,0,P|232:204|312:144,1,135,6|0,0:0|0:0,0:0:0:0:
328,132,40277,1,8,0:0:0:0:
452,60,40453,2,0,P|408:35|340:35,1,90,0|0,0:0|0:0,0:0:0:0:
227,36,40806,1,0,0:0:0:0:
227,36,40894,1,0,0:0:0:0:
227,36,40983,1,8,0:0:0:0:
89,77,41159,1,0,0:0:0:0:
149,234,41336,6,0,L|59:186,1,101.250003862381,2|0,0:0|0:0,0:0:0:0:
59,186,41689,6,0,P|118:154|210:161,1,135,8|0,0:0|0:0,0:0:0:0:
60,187,42042,6,0,P|61:264|145:335,1,168.75,2|0,0:0|0:0,0:0:0:0:
207,355,42394,5,10,0:0:0:0:
306,151,42571,1,0,0:0:0:0:
306,264,42747,1,2,0:0:0:0:
413,299,42924,1,0,0:0:0:0:
480,208,43100,1,8,0:0:0:0:
413,116,43277,1,0,0:0:0:0:
413,299,43453,5,2,0:0:0:0:
306,151,43630,1,0,0:0:0:0:
480,208,43806,1,8,0:0:0:0:
306,264,43983,1,0,0:0:0:0:
413,116,44159,5,2,0:0:0:0:
413,299,44336,1,0,0:0:0:0:
306,151,44512,1,8,0:0:0:0:
480,208,44689,1,0,0:0:0:0:
172,192,44865,5,8,0:0:0:0:
172,192,44953,1,0,0:0:0:0:
172,192,45042,2,0,L|224:152,1,45
256,43,45218,2,0,L|256:88,1,45,8|0,0:0|0:0,0:0:0:0:
340,192,45394,2,0,L|288:152,1,45
168,92,45571,5,6,0:0:0:0:
92,140,45747,1,0,0:0:0:0:
52,220,45924,1,0,0:0:0:0:
84,304,46100,1,0,0:0:0:0:
156,360,46277,2,0,P|196:316|296:328,1,135,0|0,0:0|0:0,0:0:0:0:
311,324,46630,2,0,L|350:206,1,90
438,141,46983,6,0,P|376:106|279:117,1,135,2|0,0:0|0:0,0:0:0:0:
270,117,47336,1,0,0:0:0:0:
39,162,47512,2,0,P|82:187|154:187,1,90,0|0,0:0|0:0,0:0:0:0:
212,199,47865,1,0,0:0:0:0:
212,199,47953,1,0,0:0:0:0:
212,199,48042,1,2,0:0:0:0:
302,196,48218,1,0,0:0:0:0:
421,297,48394,5,2,0:0:0:0:
334,323,48571,1,0,0:0:0:0:
244,324,48747,1,0,0:0:0:0:
160,288,48924,1,0,0:0:0:0:
97,223,49100,2,0,P|83:157|132:92,1,135,0|0,0:0|0:0,0:0:0:0:
154,76,49453,2,0,L|241:126,1,90
356,50,49806,5,2,0:0:0:0:
420,198,49983,1,0,0:0:0:0:
307,105,50159,1,2,0:0:0:0:
460,137,50336,5,0,0:0:0:0:
260,162,50512,1,2,0:0:0:0:
395,311,50689,1,0,0:0:0:0:
252,294,50865,5,2,0:0:0:0:
113,329,51042,1,0,0:0:0:0:
252,294,51218,2,0,P|209:221|138:188,1,135,6|0,0:0|0:0,0:0:0:0:
124,181,51571,1,0,0:0:0:0:
109,40,51747,2,0,P|174:99|274:104,1,180,0|0,0:0|0:0,0:0:0:0:
350,86,52277,1,2,0:0:0:0:
458,182,52453,6,0,P|393:241|293:246,1,180,0|0,0:0|0:0,0:0:0:0:
216,229,52983,1,0,0:0:0:0:
94,303,53159,2,0,P|159:362|259:367,1,180,0|0,0:0|0:0,0:0:0:0:
336,350,53689,1,2,0:0:0:0:
418,314,53865,5,0,0:0:0:0:
418,314,53953,1,0,0:0:0:0:
418,314,54042,1,2,0:0:0:0:
395,173,54218,1,0,0:0:0:0:
260,54,54394,1,0,0:0:0:0:
336,102,54571,5,0,0:0:0:0:
336,102,54659,1,0,0:0:0:0:
336,102,54748,1,2,0:0:0:0:
192,103,54924,1,0,0:0:0:0:
56,221,55100,1,0,0:0:0:0:
82,133,55277,5,0,0:0:0:0:
82,133,55365,1,0,0:0:0:0:
82,133,55454,1,2,0:0:0:0:
139,263,55630,1,0,0:0:0:0:
300,342,55806,1,0,0:0:0:0:
212,360,55983,5,0,0:0:0:0:
212,360,56071,1,0,0:0:0:0:
212,360,56160,1,2,0:0:0:0:
391,371,56336,1,2,0:0:0:0:
308,256,56512,1,10,0:0:0:0:
308,256,56600,1,0,0:0:0:0:
308,256,56689,2,0,L|347:215,1,45
424,68,56865,5,6,0:0:0:0:
384,208,57042,1,0,0:0:0:0:
349,71,57218,1,8,0:0:0:0:
452,176,57395,1,0,0:0:0:0:
272,164,57571,2,0,P|228:200|216:280,1,135,0|0,0:0|0:0,0:0:0:0:
200,317,57924,2,0,L|93:273,1,90,8|0,0:0|0:0,0:0:0:0:
82,143,58277,6,0,P|122:105|201:80,1,135,2|0,0:0|0:0,0:0:0:0:
241,75,58630,1,8,0:0:0:0:
432,96,58806,2,0,P|392:134|334:151,1,90,0|0,0:0|0:0,0:0:0:0:
273,164,59159,1,0,0:0:0:0:
273,164,59247,1,0,0:0:0:0:
273,164,59336,1,8,0:0:0:0:
133,132,59512,1,0,0:0:0:0:
105,275,59689,5,2,0:0:0:0:
217,262,59865,1,0,0:0:0:0:
207,291,59953,1,0,0:0:0:0:
197,321,60041,1,8,0:0:0:0:
337,244,60218,1,0,0:0:0:0:
323,282,60306,1,0,0:0:0:0:
310,320,60394,1,10,0:0:0:0:
451,220,60571,1,0,0:0:0:0:
436,267,60659,1,0,0:0:0:0:
420,314,60747,1,8,0:0:0:0:
407,109,60924,1,0,0:0:0:0:
407,109,61100,5,6,0:0:0:0:
295,122,61276,1,0,0:0:0:0:
304,92,61364,1,0,0:0:0:0:
314,62,61452,1,8,0:0:0:0:
175,140,61629,1,0,0:0:0:0:
188,101,61717,1,0,0:0:0:0:
201,63,61805,1,10,0:0:0:0:
61,164,61982,1,0,0:0:0:0:
77,117,62070,1,0,0:0:0:0:
92,70,62158,1,12,0:0:0:0:
36,244,62336,1,0,0:0:0:0:
208,296,62512,6,0,P|244:260|344:240,1,135,2|0,0:0|0:0,0:0:0:0:
372,236,62865,1,8,0:0:0:0:
448,172,63042,2,0,P|472:116|480:60,2,90,0|0|0,0:0|0:0|0:0,0:0:0:0:
288,88,63571,1,8,0:0:0:0:
288,88,63924,6,0,P|252:124|152:144,1,135,2|0,0:0|0:0,0:0:0:0:
124,148,64277,1,8,0:0:0:0:
48,212,64454,2,0,P|24:268|16:324,2,90
208,296,64983,1,10,0:0:0:0:
208,296,65336,5,2,0:0:0:0:
240,212,65512,1,0,0:0:0:0:
360,248,65689,1,8,0:0:0:0:
272,124,65865,1,0,0:0:0:0:
424,192,66042,6,0,L|484:180,1,45,10|0,0:0|0:0,0:0:0:0:
240,212,66218,2,0,L|176:224,1,45
360,136,66394,2,0,L|380:76,1,45,8|0,0:0|0:0,0:0:0:0:
208,296,66571,2,0,L|188:348,1,45
272,124,66747,5,6,0:0:0:0:
424,192,66924,1,0,0:0:0:0:
240,212,67100,1,2,0:0:0:0:
104,92,67277,1,0,0:0:0:0:
168,192,68159,5,6,0:0:0:0:
44,120,68336,1,0,0:0:0:0:
44,264,68512,1,8,0:0:0:0:
168,192,68689,1,0,0:0:0:0:
212,192,68777,1,0,0:0:0:0:
256,192,68865,1,2,0:0:0:0:
300,192,68953,1,0,0:0:0:0:
344,192,69042,2,0,L|440:192,1,90,0|8,0:0|0:0,0:0:0:0:
488,264,69394,1,0,0:0:0:0:
384,64,69571,6,2,P|296:44|196:72,1,180,0|8,0:0|0:0,0:0:0:0:
344,192,70100,2,0,L|380:240,1,45
168,192,70277,2,0,L|132:240,1,45,2|0,0:0|0:0,0:0:0:0:
256,296,70453,2,0,L|256:392,1,90,0|8,0:0|0:0,0:0:0:0:
96,304,70806,1,0,0:0:0:0:
67,269,70894,1,0,0:0:0:0:
45,229,70983,6,0,P|34:169|53:121,1,90,2|0,0:0|0:0,0:0:0:0:
163,66,71336,1,8,0:0:0:0:
343,64,71512,2,0,L|308:110,1,45
343,64,71689,6,2,P|286:126|230:160,1,135
205,177,72042,1,8,0:0:0:0:
383,209,72218,2,0,P|428:248|436:292,1,90,0|0,0:0|0:0,0:0:0:0:
246,326,72571,5,2,0:0:0:0:
364,204,72747,1,8,0:0:0:0:
228,320,72924,1,0,0:0:0:0:
185,304,73012,1,0,0:0:0:0:
144,285,73100,2,2,B|104:268|104:268|112:220|60:190,1,135
25,168,73453,1,8,0:0:0:0:
197,113,73630,1,0,0:0:0:0:
361,37,73806,5,6,0:0:0:0:
355,219,73983,1,0,0:0:0:0:
197,113,74159,1,8,0:0:0:0:
296,145,74336,1,0,0:0:0:0:
296,113,74424,1,0,0:0:0:0:
323,130,74512,2,2,B|399:124|430:173|430:173|458:169,1,135
488,170,74865,1,8,0:0:0:0:
386,322,75042,2,0,P|339:323|281:308,1,90
475,315,75394,5,2,0:0:0:0:
355,219,75571,1,8,0:0:0:0:
226,300,75747,2,0,L|179:260,1,45
226,300,75924,6,2,P|175:239|169:167,1,135
164,140,76277,1,8,0:0:0:0:
41,215,76453,1,0,0:0:0:0:
164,140,76630,2,2,P|225:104|297:97,1,135
333,96,76983,1,8,0:0:0:0:
256,192,77159,12,0,78394,0:0:0:0:
312,196,78571,5,0,0:0:0:0:
312,196,78659,1,0,0:0:0:0:
312,196,78747,2,0,L|364:228,1,45,8|0,0:0|0:0,0:0:0:0:
200,188,78924,2,0,L|148:156,1,45
260,136,79100,2,0,L|292:84,1,45,8|0,0:0|0:0,0:0:0:0:
252,248,79277,2,0,L|220:300,1,45
176,360,79453,5,6,0:0:0:0:
404,313,79630,2,0,P|362:330|320:344,1,90,0|8,0:0|0:0,0:0:0:0:
72,260,79983,2,0,L|56:216,1,45
72,260,80159,6,2,P|52:184|56:120,1,135
63,83,80512,1,8,0:0:0:0:
242,109,80689,1,0,0:0:0:0:
501,63,80865,6,2,P|411:56|324:75,1,180,2|10,0:0|0:0,0:0:0:0:
399,199,81394,1,0,0:0:0:0:
421,238,81483,1,0,0:0:0:0:
439,279,81571,2,0,P|463:334|466:365,2,90,2|0|8,0:0|0:0|0:0,0:0:0:0:
295,296,82100,1,0,0:0:0:0:
184,261,82277,5,2,0:0:0:0:
276,189,82453,1,0,0:0:0:0:
82,226,82630,2,8,L|30:198,1,45,8|0,0:0|0:0,0:0:0:0:
253,93,82806,2,0,L|235:39,1,45
141,126,82983,2,2,L|63:37,1,90
197,180,83336,1,8,0:0:0:0:
331,126,83512,2,0,P|381:109|425:102,1,90
365,29,83865,5,2,0:0:0:0:
466,181,84042,1,8,0:0:0:0:
376,337,84218,2,0,L|326:324,1,45
376,337,84394,6,2,P|290:314|230:307,1,135
199,304,84747,2,0,P|168:267|157:223,1,90,8|0,0:0|0:0,0:0:0:0:
79,273,85100,5,6,0:0:0:0:
235,179,85277,1,0,0:0:0:0:
76,95,85453,1,8,0:0:0:0:
141,195,85630,1,0,0:0:0:0:
111,183,85718,1,0,0:0:0:0:
138,165,85806,2,2,B|160:92|217:81|217:81|224:54,1,135
259,44,86159,1,8,0:0:0:0:
342,162,86336,2,0,P|390:139|437:130,1,90
450,217,86689,5,2,0:0:0:0:
413,40,86865,1,8,0:0:0:0:
258,133,87042,2,0,L|210:164,1,45
258,133,87218,6,2,P|199:182|165:258,1,135
153,274,87571,1,8,0:0:0:0:
332,273,87747,1,0,0:0:0:0:
256,192,87924,12,0,89865,0:0:0:0:
256,244,90042,5,8,0:0:0:0:
256,244,90130,1,0,0:0:0:0:
256,244,90218,2,0,L|256:308,1,45
210,166,90395,2,0,L|155:134,1,45,8|0,0:0|0:0,0:0:0:0:
301,166,90571,2,0,L|356:134,1,45
404,104,90747,5,6,0:0:0:0:
256,360,91100,1,2,0:0:0:0:
110,108,91453,1,2,0:0:0:0:
256,100,91806,1,2,0:0:0:0:
256,100,92159,1,6,0:0:0:0:
256,284,92336,5,0,0:0:0:0:
256,284,92424,1,0,0:0:0:0:
256,284,92512,2,0,L|256:239,1,45,0|0,0:0|0:0,0:0:0:0:
177,145,92689,2,0,L|215:168,1,45
336,146,92865,2,0,L|297:168,1,45,8|0,0:0|0:0,0:0:0:0:
176,240,93042,6,0,L|139:265,1,45
336,240,93218,2,0,L|372:265,1,45,8|0,0:0|0:0,0:0:0:0:
256,100,93394,2,0,L|256:55,1,45
256,192,93571,5,4,0:0:0:0:
256,192,93659,12,0,94983,0:0:0:0:
