osu file format v9

[General]
AudioFilename: SKY HIGH.mp3
AudioLeadIn: 1000
PreviewTime: 67806
Countdown: 0
SampleSet: Soft
StackLeniency: 0.7
Mode: 0
LetterboxInBreaks: 1

[Editor]
DistanceSpacing: 0.8
BeatDivisor: 4
GridSize: 4

[Metadata]
Title:SKY HIGH
Artist:Rokugen Alice
Creator:RinNa
Version:Hard
Source:Touhou Sky Arena
Tags:RinNa

[Difficulty]
HPDrainRate:7
CircleSize:5
OverallDifficulty:8
ApproachRate:8
SliderMultiplier:1.6
SliderTickRate:1

[Events]
//Background and Video events
0,0,"BG-.jpg"
Video,0,"OP.avi"
//Break Periods
//Storyboard Layer 0 (Background)
//Storyboard Layer 1 (Fail)
//Storyboard Layer 2 (Pass)
//Storyboard Layer 3 (Foreground)
//Storyboard Sound Samples
//Background Colour Transformations
3,100,163,162,255

[TimingPoints]
395,352.941176470588,4,2,0,100,1,0
11512,-100,4,1,0,100,0,0
22894,-133.333333333333,4,2,0,100,0,0
34100,-100,4,1,0,100,0,0
36924,-133.333333333333,4,1,0,100,0,0
39218,-100,4,1,0,100,0,0
67189,-200,4,1,0,100,0,0
68159,-80,4,1,0,100,0,1
93571,-100,4,1,0,100,0,0

[HitObjects]
372,64,11689,2,2,B|440:144|352:228,1,160
264,280,12394,1,0
136,292,12747,1,0
60,192,13100,6,2,B|28:96|104:36,1,160
156,36,13630,1,0
204,80,13806,1,0
264,60,13983,1,0
308,108,14159,1,0
372,100,14336,1,0
416,148,14512,6,2,B|480:232|428:304,1,160
332,376,15218,2,2,B|268:292|320:220,1,160
232,132,15924,5,0
168,136,16100,1,0
120,180,16277,2,2,B|52:248|120:332,1,160
172,348,16806,1,0
224,312,16983,1,0
284,336,17159,1,0
316,280,17336,1,0
380,168,17689,6,2,B|408:68|336:16,2,160
276,96,18747,2,2,B|248:196|320:248,2,160
236,44,19630,1,0
184,84,19806,1,0
128,52,19983,1,0
100,108,20159,1,0
80,236,20512,6,2,B|136:324|228:304,1,160
276,288,21042,1,0
332,260,21218,1,0
408,156,21571,2,2,B|400:56|280:44,1,160
180,52,22277,2,0,B|120:52,6,40
180,52,22983,6,8,B|256:52|268:140,1,119.999996423721
176,160,23689,2,0,B|196:236|280:236,1,119.999996423721
308,152,24394,6,8,B|332:92|420:96,1,119.999996423721
488,144,25100,2,0,B|464:204|376:200,1,119.999996423721
312,256,25806,2,8,B|272:328|216:264,1,119.999996423721
152,196,26512,6,0,B|116:120|184:64,2,119.999996423721
240,140,27571,2,8,B|276:64|208:8,2,119.999996423721
336,152,28630,5,0
384,164,28806,1,0
416,200,28983,2,8,B|464:264|396:308,1,119.999996423721
356,320,29512,1,0
308,332,29689,2,0,B|232:356|176:312,2,119.999996423721
252,248,30747,6,8,B|328:272|384:228,2,119.999996423721
300,164,31806,6,0,B|224:188|168:144,2,119.999996423721
344,144,32689,2,4,B|408:104|480:148,3,119.999996423721
332,284,34277,6,0,B|228:332|160:256,1,160
100,176,34983,1,0
168,68,35336,1,0
232,56,35512,1,0
296,52,35689,2,2,B|388:60|416:156,1,160
284,164,36394,2,2,B|192:172|164:268,1,160
220,340,37100,6,2,B|300:368|360:320,1,119.999996423721
420,288,37806,1,0
452,252,37983,1,0
472,208,38159,2,2,B|492:132|464:84,2,119.999996423721
352,164,39218,5,0
304,116,39394,1,0
240,100,39571,1,0
180,116,39747,1,0
132,160,39924,2,2,B|64:232|144:320,1,160
216,208,40630,2,2,B|284:136|204:48,1,160
344,48,41336,5,0
400,164,41689,1,0
372,288,42042,1,0
252,328,42394,1,0
128,296,42747,2,2,B|48:232|56:140,1,160
116,48,43453,2,2,B|196:112|188:204,1,160
188,184,44159,1,4
256,192,44512,12,0,45571
192,68,45924,5,0
108,164,46277,1,0
180,272,46630,1,0
300,320,46983,2,0,B|404:336|444:272,2,160
300,320,47865,1,8
340,132,48394,5,8
292,92,48571,1,8
228,84,48747,2,8,B|120:88|112:196,1,160
188,280,49453,1,8
248,304,49630,1,8
312,300,49806,2,8,B|420:296|428:188,2,160
316,172,50865,6,0,B|284:84|184:72,1,160
72,80,51571,1,8
44,136,51747,1,8
48,200,51924,2,8,B|80:288|180:300,1,160
292,296,52630,6,2,B|388:288|420:208,2,160
316,168,53689,2,2,B|220:160|188:80,2,160
380,176,54571,1,8
444,172,54747,1,8
256,192,55100,12,0,56512
124,60,56865,5,0
92,116,57042,1,0
76,176,57218,2,0,B|60:260|128:320,1,160
188,208,57924,1,8
272,112,58277,5,8
400,124,58630,2,0,B|488:180|448:272,1,160
340,196,59336,2,2,B|252:140|292:48,1,160
228,40,59865,1,0
196,96,60042,1,0
132,88,60218,1,0
112,148,60394,1,0
48,136,60571,1,0
28,196,60747,6,2,B|16:284|136:324,2,160
156,192,61806,2,2,B|168:104|48:64,2,160
184,252,62689,1,0
244,228,62865,1,0
296,268,63042,1,0
348,232,63218,1,0
428,132,63571,5,8
324,60,63924,5,0
264,40,64100,1,0
228,96,64277,1,0
164,84,64453,1,0
144,144,64630,1,0
136,272,64983,5,8
136,272,65336,2,8,B|192:340|312:296,1,160
372,212,66042,1,8
372,212,66394,2,8,B|316:144|196:188,1,160
112,244,67100,5,4
112,244,67277,2,0,B|80:236|68:264|88:280|112:284|132:276|136:260|136:240|112:248,1,120
208,120,68159,5,0
240,96,68247,1,0
276,84,68336,2,2,B|372:44|488:92,1,199.999997019768
471,85,68865,1,0
460,164,69042,1,0
460,164,69218,1,0
428,236,69394,1,0
428,236,69571,2,2,B|344:328|236:300,2,199.999997019768
148,84,70983,5,0
80,128,71159,1,0
52,204,71336,2,2,B|24:316|148:364,2,199.999997019768
128,224,72218,2,4,B|188:272,4,49.999999254942
172,156,72747,2,2,B|248:56|392:116,2,199.999997019768
288,268,73806,6,2,B|416:300|472:196,1,199.999997019768
463,209,74336,1,0
388,184,74512,2,2,B|260:152|204:256,1,199.999997019768
212,242,75042,1,0
148,288,75218,1,0
108,292,75306,1,0
76,272,75394,1,0
64,232,75483,1,0
68,192,75571,1,0
104,120,75747,5,2
168,72,75924,5,0
204,60,76012,1,0
244,60,76100,1,0
280,76,76189,1,0
312,100,76277,1,0
364,160,76453,5,0
364,160,76630,2,2,B|440:224|408:352,2,199.999997019768
312,224,77512,1,0
312,224,77689,2,2,B|236:160|268:32,2,199.999997019768
260,284,78571,1,0
260,284,78747,2,0,B|188:320,4,49.999999254942
144,172,79453,5,0
188,104,79630,1,0
240,164,79806,1,0
280,96,79983,1,0
336,152,80159,1,0
368,176,80247,1,0
380,212,80336,1,0
376,252,80424,1,0
356,288,80512,2,2,B|272:388|156:296,2,199.999997019768,0|0|0
288,244,81394,2,0,B|208:224,4,49.999999254942
132,60,82277,5,0
108,92,82365,1,0
104,132,82453,1,0
120,168,82542,1,0
148,196,82630,1,0
220,164,82806,5,2
296,140,82983,5,0
332,156,83071,1,0
356,188,83159,1,0
368,224,83247,1,0
364,264,83336,1,0
308,320,83512,1,0
228,336,83689,6,2,B|96:360|16:272,1,199.999997019768
39,294,84218,1,0
60,216,84394,2,2,B|192:192|272:280,1,199.999997019768
248,257,84924,1,0
328,260,85100,1,0
396,220,85277,1,0
432,148,85453,1,0
380,84,85630,6,8,B|340:56,1,49.999999254942
304,72,85806,2,8,B|240:88,1,49.999999254942
220,64,85983,2,8,B|164:28,1,49.999999254942
144,60,86159,2,8,B|64:96,1,49.999999254942
68,56,86336,2,8,B|20:32,2,49.999999254942
68,136,86689,5,0
68,136,86865,1,0
108,204,87042,1,0
108,204,87218,1,0
172,256,87394,1,0
172,256,87571,2,2,B|280:308|376:256,1,199.999997019768
364,261,88100,2,2,B|464:192|456:64,2,199.999997019768
292,228,88983,5,0
260,204,89071,1,0
240,168,89159,1,0
232,128,89247,1,0
236,88,89336,1,0
312,116,89512,5,2
388,136,89689,5,0
412,168,89777,1,0
424,204,89865,1,0
424,244,89953,1,0
412,284,90042,1,0
256,312,90394,5,0
180,284,90571,1,0
128,224,90747,1,0
116,64,91100,5,0
196,68,91277,1,0
256,120,91453,1,0
396,200,91806,6,2,B|432:252|384:320,1,99.9999985098839
328,256,92159,2,2,B|292:204|340:136,1,99.9999985098839
248,144,92512,6,2,B|284:92|236:24,1,99.9999985098839
180,84,92865,2,2,B|144:136|192:204,1,99.9999985098839
220,244,93218,1,4
276,300,93394,1,4
