osu file format v9

[General]
AudioFilename: 101.mp3
AudioLeadIn: 0
PreviewTime: 41650
Countdown: 0
SampleSet: Soft
StackLeniency: 0.7
Mode: 0
LetterboxInBreaks: 0
EpilepsyWarning: 1

[Editor]
Bookmarks: 75364,83475
DistanceSpacing: 1
BeatDivisor: 4
GridSize: 4

[Metadata]
Title:Kinema Lolita
Artist:Rokugen Alice
Creator:Kite
Version:Normal
Source:
Tags:Harajuku Roriwitakinema comiket 79 c79 original Kurai wmfchris

[Difficulty]
HPDrainRate:3
CircleSize:3
OverallDifficulty:3
ApproachRate:4
SliderMultiplier:1
SliderTickRate:2

[Events]
//Background and Video events
0,0,"moon1.jpg"
//Break Periods
2,18138,22200
2,34882,37549
2,74649,81153
//Storyboard Layer 0 (Background)
//Storyboard Layer 1 (Fail)
//Storyboard Layer 2 (Pass)
//Storyboard Layer 3 (Foreground)
//Storyboard Sound Samples
//Background Colour Transformations
3,100,163,162,255

[TimingPoints]
5372,348.837209302326,4,1,1,100,1,0
6776,348.837209302326,4,1,1,100,1,0
7124,-100,4,1,2,86,0,0
7212,-100,4,1,1,100,0,0
9915,-100,4,1,2,86,0,0
10002,-100,4,1,1,100,0,0
10613,-100,4,1,2,86,0,0
10700,-100,4,1,1,100,0,0
12706,-100,4,1,2,86,0,0
12793,-100,4,1,1,100,0,0
15496,-100,4,1,2,86,0,0
15584,-100,4,1,1,100,0,0
16194,-100,4,1,2,86,0,0
16281,-100,4,1,1,100,0,0
17938,-133.333333333333,4,2,1,100,0,0
22996,-100,4,2,1,100,0,0
30496,-100,4,1,1,100,0,0
32415,-100,4,2,1,100,0,0
33287,-100,4,1,1,100,0,0
33985,-100,4,2,1,100,0,0
34682,-133.333333333333,4,2,1,100,0,0
40962,-80,4,2,1,100,0,0
42008,348.837209302326,4,1,1,100,1,1
45147,-100,4,1,2,86,0,1
45234,-100,4,1,1,100,0,1
49333,-100,4,1,2,86,0,1
49420,-100,4,1,1,100,0,1
52473,-100,4,2,1,100,0,1
53170,-100,4,1,1,100,0,1
56310,-100,4,1,2,86,0,1
56397,-100,4,1,1,100,0,1
60496,-100,4,1,2,86,0,1
60583,-100,4,1,1,100,0,1
61891,-100,4,1,2,86,0,1
61978,-100,4,1,1,100,0,1
64333,-100,4,1,1,100,0,1
67473,-100,4,1,2,86,0,1
67560,-100,4,1,1,100,0,1
68170,-100,4,1,2,86,0,1
68258,-100,4,1,1,100,0,1
69914,-133.333333333333,4,1,1,40,0,1
72705,-133.333333333333,4,1,1,40,0,0
74449,-100,4,2,1,5,0,0
82473,-100,4,2,1,100,0,0
83868,-100,4,2,1,100,0,0
88403,-100,4,2,2,86,0,0
88490,-100,4,2,1,100,0,0
89798,-100,4,2,2,86,0,0
89885,-100,4,2,1,100,0,0
95031,-100,4,2,1,100,0,1
100961,-100,4,2,2,86,0,1
101048,-100,4,2,1,100,0,1
103403,-100,4,2,1,70,0,1
106194,-100,4,2,1,100,0,1
107589,-100,4,1,1,100,0,0
108635,-100,4,1,2,86,0,0
108723,-100,4,1,1,100,0,0
109682,-100,4,2,1,100,0,0
110380,-100,4,1,1,100,0,0
110728,-100,4,1,2,86,0,0
110816,-100,4,1,1,100,0,0
111077,-100,4,2,1,100,0,0
111775,-133.333333333333,4,2,1,100,0,0
115787,-100,4,1,1,80,0,0
118054,-100,4,2,2,40,0,0
118752,-100,4,1,1,100,0,1
120496,-100,4,1,2,86,0,1
120583,-100,4,1,1,100,0,1
129217,-100,4,2,1,100,0,1
129914,-100,4,1,1,100,0,1
131659,-100,4,1,2,86,0,1
131746,-100,4,1,1,100,0,1
133752,-100,4,1,2,86,0,1
133839,-100,4,1,1,100,0,1
137240,-100,4,1,2,86,0,1
137327,-100,4,1,1,100,0,1
140554,-100,4,2,1,100,0,1
140990,-100,4,1,1,100,0,0
141077,-80,4,1,1,100,0,1
142821,-80,4,1,2,86,0,1
142909,-80,4,1,1,100,0,1
148403,-80,4,1,2,86,0,1
148490,-80,4,1,1,100,0,1
151542,-80,4,2,1,100,0,1
152240,-80,4,1,1,100,0,1
154682,-80,4,1,2,86,0,1
154769,-80,4,1,1,100,0,1
162356,-80,4,1,2,86,0,1
162444,-80,4,1,1,100,0,1
163403,-100,4,1,1,100,0,0

[Colours]
Combo1 : 136,0,0
Combo2 : 171,30,225
Combo3 : 196,0,5
Combo4 : 114,20,150

[HitObjects]
360,128,5372,6,0,B|384:96|384:96|416:88|444:104,1,100,0|8
476,196,6069,2,0,B|452:228|452:228|420:236|392:220,1,100,0|8
292,216,6776,6,0,B|220:192|152:252|164:328,1,200,4|0
264,312,7822,1,8
364,332,8171,2,0,B|452:288,1,100,0|8
468,188,8869,2,0,B|380:232,1,100,0|8
280,232,9566,6,0,B|204:236|156:172|176:96,2,200,4|0|0
272,132,11310,1,8
340,60,11659,2,0,B|392:40|432:76,1,100,0|8
456,176,12357,6,0,B|480:252|480:252|432:304|368:276,1,200,4|0
300,208,13403,1,8
224,272,13752,2,0,B|136:320,1,100,0|8
48,268,14450,2,0,B|136:220,1,100,0|8
196,140,15148,6,0,B|216:72|296:44|368:92,2,200,4|0|0
292,164,16892,1,8
388,188,17241,2,0,B|418:224|432:276,1,100,0|8
400,365,17938,1,4
252,344,23520,6,0,B|308:348|336:296,1,100,4|8
248,248,24217,2,0,B|218:200|250:153,1,100,0|8
336,208,24915,2,0,B|391:206|416:256,2,100,0|8|0
336,108,25962,1,8
244,68,26310,6,0,B|148:40,2,100,0|8|0
172,140,27357,2,0,B|120:164|104:220|124:272,2,150,8|8|8
216,228,28752,1,8
268,144,29101,6,0,B|308:100|372:88|428:128|444:172,1,200,4|8
348,204,30148,1,8
344,304,30496,6,0,B|320:336|320:336|288:344|260:328,1,100,4|8
180,272,31194,2,0,B|204:240|204:240|236:232|264:248,2,100,0|8|4
96,328,32241,2,0,B|48:291|66:243|88:192|48:140,1,200,0|8
100,56,33287,6,0,B|172:132,1,100,4|8
249,69,33985,2,8,B|340:108,1,100,8|8
432,137,34682,1,4
256,192,38869,12,4,40962
332,332,42008,6,0,B|384:324|404:268,1,100,6|8
476,200,42706,2,0,B|443:158|384:169,1,100,0|8
292,140,43403,2,0,B|272:189|311:234,2,100,0|8|0
352,60,44450,1,8
252,48,44799,6,0,B|180:24|112:60|108:140,1,200,2|0
208,140,45845,2,0,B|252:184|216:236|216:236|304:272,1,200,8|8
236,348,46892,2,0,B|144:308,1,100,2|8
72,240,47589,5,6
92,140,47938,1,8
176,84,48287,2,0,B|220:72|220:72|240:76|240:76|272:68,1,100,0|8
368,40,48985,2,0,B|428:36|460:76|448:136,2,150,2|2|8
256,192,50380,12,4,52473
328,300,53171,6,0,B|284:336|232:308,1,100,6|8
136,312,53869,2,0,B|126:255|177:224,1,100,0|8
216,136,54566,2,0,B|269:156|270:215,2,100,0|8|0
116,148,55613,1,8
152,56,55962,6,0,B|208:28|208:28|288:24|328:80,1,200
388,160,57008,2,0,B|448:240,2,100,8|0|8
360,256,58055,2,0,B|328:216,2,50,0|0|8
292,332,58752,6,0,B|240:356|192:320,2,100,6|8|0
252,240,59799,1,8
156,208,60148,2,0,B|119:165|119:165|119:114|175:97,2,150,0|0|8
252,240,61543,6,0,B|288:282|288:282|288:333|232:350,1,150,2|0
136,328,62415,2,0,B|80:320|56:264,2,100,2|2|2
152,228,63462,1,2
200,140,63810,2,0,B|224:84|276:72|328:104,1,150,2|4
380,184,64682,5,8
452,112,65031,2,0,B|484:72,2,50,0|0|8
380,184,65729,2,0,B|312:256,1,100,0|8
216,220,66426,2,0,B|232:170,2,50,0|0|8
172,308,67124,6,0,B|100:336|32:284|48:204,2,200,2|2|2
260,264,68869,2,0,B|304:232|356:256,2,100,8|2|8
256,192,69915,12,0,74449
432,344,82473,6,0,B|476:324,2,50,4|0|8
352,284,83170,2,0,B|300:264,2,50,0|0|8
376,188,83869,6,0,B|388:152|388:152|408:140|408:140|420:104,2,100,4|8|2
328,200,84741,2,0,B|284:236|228:232|188:196,1,150,8|2
156,160,85438,1,2
88,84,85787,2,0,B|132:48|188:52|228:88,1,150,2|8
312,136,86659,5,4
412,144,87008,2,0,B|432:200|432:200|424:232|424:232|444:288,1,150,8|2
412,324,87706,1,8
340,252,88055,2,0,B|286:277|286:277|269:305|269:305|215:331,2,150,0|2|8
336,152,89450,6,0,B|348:100|312:68|312:68|252:88,2,150,4|2|8
240,180,90845,2,0,B|148:224,1,100,2|8
100,232,91368,2,0,B|61:187|66:137|109:96,1,150,2|8
256,192,92241,12,4,94334
127,335,95031,6,0,B|80:314|46:264,2,100,2|8|2
227,342,96077,1,8
207,244,96426,2,0,B|193:190|230:130,2,100,2|8|2
227,342,97473,1,8
325,329,97821,6,0,B|378:319|411:270,1,100,2|8
438,180,98519,1,2
422,81,98868,1,8
343,143,99217,2,0,B|322:192|264:198,1,100,2|8
181,144,99914,1,2
112,216,100263,1,8
112,216,100613,6,0,B|40:216|-4:132|48:68,1,200,2|2
144,100,101659,1,8
228,48,102008,2,0,B|276:28,2,50,2|0|8
296,124,102706,2,0,B|344:136,2,50,2|0|8
256,192,103403,12,4,106194
256,328,106892,6,0,B|350:298,2,100,8|8|4
156,324,107938,1,8
88,252,108287,2,0,B|68:196|68:196|112:116,2,150,0|4|8
184,220,109682,6,0,B|228:200,3,50,8|0|8|0
256,156,110380,2,0,B|288:128|388:108|440:196,1,200,4|10
444,284,111427,1,8
364,344,111776,6,0,B|304:300,2,74.9999977648259,4|0|8
256,157,113171,2,0,B|256:232,2,74.9999977648259,2|0|8
148,344,114566,2,0,B|208:300,2,74.9999977648259,2|0|8
256,192,115787,12,8,118055
276,320,118752,5,4
360,264,119101,1,8
460,272,119450,2,0,B|496:180,1,100,0|8
472,80,120148,2,0,B|440:36|368:40|332:80,2,150,0|0|8
404,152,121543,6,0,B|376:168|376:168|364:196|324:208,1,100,2|8
264,128,122241,2,0,B|223:140|211:167|211:167|183:184,1,100,0|8
136,200,122764,2,0,B|84:224|84:224|68:272|120:300,1,150,0|8
216,268,123636,1,2
304,320,123985,6,0,B|352:340|396:300,2,100,8|4|8
332,224,125031,2,0,B|325:172|268:154,1,100,0|8
236,248,125729,2,0,B|190:286|143:264,1,100,0|8
96,248,126252,2,0,B|40:216|44:160|44:160|76:132,1,150,2|8
256,192,127124,12,4,129217
224,304,129915,5,4
268,216,130264,1,8
244,120,130613,1,0
156,72,130962,1,8
56,72,131310,2,0,B|28:120|48:164|48:164|100:184,1,150
196,208,132182,2,0,B|292:232,1,100,2|0
340,244,132706,5,2
412,176,133055,1,8
436,80,133403,2,0,B|408:32|344:24|296:48,2,150,0|0|8
352,136,134799,1,2
332,236,135148,6,0,B|292:276|232:256,1,100,8|4
140,276,135845,2,0,B|125:221|172:179,1,100,8|0
264,160,136543,1,8
224,68,136892,2,0,B|180:28|124:44|124:44|108:88,2,150,2|0|8
256,192,138287,12,4,140555
168,296,141078,6,0,B|204:232|160:180,2,124.999998137355,4|8|0
52,248,142124,1,8
40,124,142473,2,0,B|52:56|120:24|184:56,2,187.499997206032,0|0|8
156,172,143869,6,0,B|191:204|191:204|228:212|228:212|256:240,1,124.999998137355,2|8
380,220,144566,2,0,B|344:187|344:187|308:180|308:180|280:152,1,124.999998137355,0|8
248,112,145089,2,0,B|208:68|208:68|244:24|304:20|336:36,1,187.499997206032,2|8
440,80,145962,1,2
452,204,146310,6,0,B|484:272|432:316,2,124.999998137355,8|4|8
332,244,147357,2,0,B|257:237|245:170,1,124.999998137355,0|8
316,64,148055,2,0,B|272:16|192:16|148:68,2,187.499997206032,0|0|8
256,192,149450,12,4,151543
308,344,152241,5,4
416,280,152589,2,0,B|424:240|424:240|448:216|448:216|460:168,1,124.999998137355,8|0
412,52,153287,2,0,B|404:92|404:92|380:116|380:116|368:164,1,124.999998137355,8|0
272,248,153985,2,0,B|216:272|216:272|148:260|128:188,2,187.499997206032,8|0|4
236,128,155380,5,8
128,64,155729,2,0,B|72:84|72:84|44:144,1,124.999998137355,0|8
32,192,156252,2,0,B|12:252|12:252|44:308|116:308,1,187.499997206032,2|8
192,208,157124,1,2
300,272,157473,6,0,B|344:320|416:296,1,124.999998137355,8|4
372,180,158171,2,0,B|391:117|334:67,2,124.999998137355,8|0|8
248,164,159217,2,0,B|189:135|131:185,1,124.999998137355,0|8
104,220,159741,2,0,B|65:267|65:267|99:333|168:328,1,187.499997206032,2|8
272,264,160613,6,0,B|316:316|384:296,1,124.999998137355,2|8
392,256,161136,2,0,B|352:196|392:140,1,124.999998137355,0|2
420,104,161659,2,0,B|404:44|404:44|336:20|288:72,2,187.499997206032,8|0|2
316,172,163055,2,0,B|272:180|272:180|240:164|240:164|196:172,1,124.999998137355,8|4
