osu file format v9

[General]
AudioFilename: 101.mp3
AudioLeadIn: 0
PreviewTime: 41650
Countdown: 0
SampleSet: Normal
StackLeniency: 0.7
Mode: 0
LetterboxInBreaks: 0
EpilepsyWarning: 1

[Editor]
Bookmarks: 75364,83475
DistanceSpacing: 0.6
BeatDivisor: 4
GridSize: 4

[Metadata]
Title:Kinema Lolita
Artist:Rokugen Alice
Creator:Kite
Version:Insane
Source:
Tags:Harajuku Roriwitakinema comiket 79 c79 original Kurai wmfchris

[Difficulty]
HPDrainRate:7
CircleSize:4
OverallDifficulty:8
ApproachRate:9
SliderMultiplier:1.6
SliderTickRate:2

[Events]
//Background and Video events
0,0,"moon1.jpg"
//Break Periods
2,74650,81873
//Storyboard Layer 0 (Background)
//Storyboard Layer 1 (Fail)
//Storyboard Layer 2 (Pass)
//Storyboard Layer 3 (Foreground)
//Storyboard Sound Samples
//Background Colour Transformations
3,100,163,162,255

[TimingPoints]
5372,348.837209302326,4,1,1,100,1,0
6776,348.837209302326,4,1,1,100,1,0
17938,-133.333333333333,4,2,1,100,0,0
22996,-100,4,2,1,100,0,0
23529,-100,4,2,0,100,0,0
23616,-100,4,2,1,100,0,0
24566,-100,4,2,2,86,0,0
24653,-100,4,2,1,100,0,0
25264,-100,4,2,2,86,0,0
25351,-100,4,2,1,100,0,0
30496,-100,4,1,1,100,0,0
31020,-100,4,2,1,100,0,0
31194,-100,4,1,1,100,0,0
31369,-100,4,2,1,100,0,0
31543,-100,4,1,1,100,0,0
32066,-100,4,2,1,100,0,0
32241,-100,4,1,1,100,0,0
32415,-100,4,2,1,100,0,0
33287,-100,4,1,1,100,0,0
33985,-100,4,2,1,100,0,0
34682,-133.333333333333,4,2,1,100,0,0
35380,-133.333333333333,4,2,2,86,0,0
35467,-133.333333333333,4,2,1,100,0,0
37482,-133.333333333333,4,2,0,100,0,0
37569,-133.333333333333,4,2,1,100,0,0
38171,-133.333333333333,4,2,2,86,0,0
38258,-133.333333333333,4,2,1,100,0,0
38869,-100,4,1,1,100,0,0
40264,-100,4,2,1,100,0,0
40962,-80,4,1,0,100,0,0
41659,-80,4,2,1,50,0,0
42008,348.837209302326,4,1,1,100,1,1
52473,-100,4,2,1,100,0,1
53170,-100,4,1,1,100,0,1
55612,-100,4,1,2,86,0,1
55699,-100,4,1,1,100,0,1
62938,-100,4,2,1,100,0,1
64333,-133.333333333333,4,1,1,100,0,1
71310,-133.333333333333,4,1,1,90,0,1
72705,-133.333333333333,4,1,1,5,0,0
74449,-100,4,2,1,5,0,0
82473,-100,4,2,1,100,0,0
83868,-100,4,2,0,100,0,0
83955,-100,4,2,1,100,0,0
84914,-100,4,2,2,86,0,0
85002,-100,4,2,1,100,0,0
86659,-100,4,2,0,100,0,0
86746,-100,4,2,1,100,0,0
88403,-100,4,2,2,86,0,0
88490,-100,4,2,1,100,0,0
89449,-100,4,2,0,100,0,0
89537,-100,4,2,1,100,0,0
92240,-100,4,2,0,100,0,0
92327,-100,4,2,1,100,0,0
95031,-100,4,2,0,100,0,1
95119,-100,4,2,1,100,0,1
104798,-100,4,2,1,80,0,1
105147,-100,4,2,1,85,0,1
105496,-100,4,2,1,90,0,1
105845,-100,4,2,1,95,0,1
106194,-100,4,2,1,100,0,1
107589,-100,4,1,1,100,0,0
107938,-100,4,1,2,86,0,0
108025,-100,4,1,1,100,0,0
109682,-100,4,2,1,100,0,0
110380,-100,4,1,1,100,0,0
111077,-100,4,2,1,100,0,0
111775,-133.333333333333,4,2,1,100,0,0
115263,-133.333333333333,4,2,2,86,0,0
115351,-133.333333333333,4,2,1,100,0,0
115961,-100,4,1,1,100,0,0
117356,-100,4,2,1,100,0,0
118054,-100,4,2,2,60,0,0
118752,-100,4,1,1,100,0,1
128868,-100,4,1,2,86,0,1
128955,-100,4,1,1,100,0,1
129217,-100,4,2,1,100,0,1
129914,-100,4,1,1,100,0,1
140380,-100,4,2,1,100,0,1
140990,-100,4,2,1,100,0,0
141077,-80,4,1,1,100,0,1
151542,-80,4,2,1,100,0,1
152240,-80,4,1,1,100,0,1
162008,-80,4,2,1,100,0,1
163403,-100,4,1,1,100,0,0

[Colours]
Combo1 : 136,0,0
Combo2 : 171,30,225
Combo3 : 196,0,5
Combo4 : 114,20,150

[HitObjects]
88,248,5371,1,8
152,300,5546,2,0,B|144:340,2,40,0|0|8
180,216,5895,2,0,B|208:188|228:152,1,80,0|8
196,56,6244,1,0
172,60,6331,1,0
152,64,6418,2,0,B|124:76|124:76|100:64|100:64|72:72,1,80,8|0
25,247,6776,6,0,B|28:204|55:173,1,80,4|0
108,236,7124,2,0,B|140:206|181:204,1,80,8|0
176,284,7473,2,0,B|219:286|250:313,2,80,0|0|8
76,336,7996,5,0
76,336,8084,1,0
76,336,8171,1,0
52,224,8345,1,0
52,224,8432,1,0
52,224,8520,1,8
152,176,8694,2,0,B|184:148|172:100,2,80,0|0|0
92,120,9217,6,0,B|80:80|100:24|156:16|192:28,1,160,8|0
184,25,9741,1,0
264,96,9915,1,8
264,96,10089,1,0
380,48,10264,1,0
380,48,10438,1,0
452,148,10613,1,8
452,148,10787,6,0,B|412:216,1,80
316,232,11136,2,0,B|344:188,2,40,0|0|8
240,184,11485,1,0
192,280,11659,1,0
116,168,11834,1,0
44,256,12008,6,0,B|28:308|52:364|120:368,1,160,8|4
120,288,12531,2,0,B|144:252|188:256,1,80,0|8
328,268,12880,2,0,B|304:304|260:300,2,80
268,216,13403,1,8
308,148,13578,5,0
320,128,13665,1,0
332,108,13752,1,0
240,104,13927,1,0
244,80,14014,1,0
248,56,14101,1,8
156,124,14276,2,0,B|136:88|144:44,2,80
196,208,14799,6,0,B|210:268|163:315|104:308,1,160,8|0
120,228,15322,2,0,B|76:216|64:172,2,80,0|8|0
140,152,15845,2,0,B|117:112|140:72,2,80,0|0|8
208,112,16369,5,0
208,112,16456,1,0
208,112,16543,1,0
304,52,16717,1,0
304,52,16805,1,0
304,52,16892,1,8
396,128,17066,2,0,B|396:176|352:192,2,80
408,48,17589,6,0,B|448:56|480:76|488:140|464:176,1,160,8|4
466,171,18113,1,0
392,208,18287,1,2
392,208,18462,2,0,B|348:200|312:224|304:268,2,119.999996423721,0|2|0
380,284,19334,1,0
380,284,19508,2,0,B|371:328|335:352|291:344,1,119.999996423721,0|2
232,280,20031,5,0
232,280,20206,1,2
164,352,20380,1,0
164,352,20555,1,0
92,280,20729,6,0,B|44:232,2,59.9999982118607,0|2|0
160,236,21252,2,0,B|188:204|184:156|152:128,2,119.999996423721,0|2|0
104,188,22124,1,0
104,188,22299,2,0,B|72:160|68:112|96:80,1,119.999996423721,2|0
176,36,22822,5,2
232,104,22996,1,8
248,120,23084,1,0
268,128,23171,1,8
292,128,23258,1,0
312,120,23345,1,8
328,104,23432,1,0
348,92,23520,6,0,B|383:65|424:85,1,80,4|0
390,158,23869,2,0,B|396:203|355:225,2,80,8|0|0
304,160,24392,2,0,B|260:116|188:140|176:196,1,160
252,216,24915,1,0
252,216,25089,2,0,B|212:60,1,160
212,61,25613,1,0
212,60,25787,1,0
148,112,25962,6,0,B|136:168|88:196|24:172,1,160,8|0
68,100,26485,2,0,B|32:80|32:28,2,80,0|8|0
120,36,27008,2,0,B|157:15|198:42,1,80
148,112,27357,2,0,B|148:153|103:179,1,80,8|0
32,224,27706,5,8
24,244,27793,1,0
20,268,27880,1,8
24,292,27967,1,0
36,312,28055,1,8
56,300,28142,1,0
80,292,28229,1,0
104,292,28316,1,0
128,296,28403,6,0,B|148:296|168:308,3,40,8|0|8|0
184,320,28752,2,0,B|202:330|222:330,3,40,8|0|8|0
244,324,29101,6,0,B|272:288|316:300,1,80,8|2
432,212,29450,2,0,B|404:248|360:236,1,80,0|2
376,160,29799,2,0,B|340:132|336:80|356:40|396:28,2,160,4|4|2
428,100,30671,5,0
376,160,30845,2,0,B|337:181|299:159,1,80,8|0
188,76,31194,1,0
216,152,31369,2,0,B|232:200|196:224,1,80,0|8
159,298,31717,6,0,B|136:296|92:256|104:192|140:168,1,160,4|0
159,298,32241,1,8
256,260,32415,1,0
304,348,32589,5,8
328,344,32677,1,0
348,332,32764,1,8
364,316,32851,1,0
376,296,32938,1,8
376,272,33025,1,0
384,248,33113,1,8
400,232,33200,1,0
420,224,33287,6,0,B|448:212|448:212|460:192|460:192|482:180,1,80,4|0
492,68,33636,2,0,B|469:81|469:81|469:96|457:101|457:101|429:113,1,80,8|0
344,104,33985,1,8
320,100,34072,1,0
296,100,34159,1,8
272,108,34246,1,0
252,120,34334,1,8
232,132,34421,1,0
208,136,34508,1,8
184,132,34595,1,0
164,124,34682,6,0,B|144:92|96:80|56:108,1,119.999996423721,8|0
104,168,35206,2,0,B|68:284,2,119.999996423721,2|0|0
104,168,36078,1,2
164,124,36252,2,0,B|188:84|232:80|268:104,1,119.999996423721,0|0
268,104,36775,1,8
432,120,37124,5,0
432,120,37299,1,2
432,120,37473,2,0,B|400:148|392:188|416:232,1,119.999996423721,4|2
452,296,37996,2,0,B|420:320|364:308|348:268,1,119.999996423721,0|2
349,270,38520,1,8
280,68,38869,5,4
248,140,39043,1,0
184,188,39217,1,8
108,208,39392,1,0
128,132,39566,5,0
184,188,39741,1,0
260,216,39915,1,8
340,212,40089,1,0
296,144,40264,5,8
276,152,40351,1,0
260,168,40438,1,8
256,192,40525,1,0
260,216,40613,1,8
272,236,40700,1,0
280,260,40787,1,8
276,284,40874,1,0
260,308,40962,2,2,B|250:316|250:316|245:305|245:305|243:319|243:319|238:308|238:308|235:322|235:322|229:307|229:307|229:329|229:329|220:307|220:307|221:328|221:328|214:314|214:314|216:339|216:339|205:313|205:313|206:335|206:335|200:320|200:320|198:338|198:338|192:323|192:323|184:352|184:352|172:332|172:332|156:356|120:352,1,399.999994039536,0|0
44,208,42008,5,6
100,140,42182,1,0
188,136,42357,1,8
272,164,42531,2,0,B|328:168|372:124|360:56,1,160
276,80,43055,6,0,B|256:44|208:40,1,80,8|0
200,120,43403,1,2
200,120,43578,2,0,B|175:153|192:198,1,80,0|8
240,272,43927,2,0,B|244:328|192:368|128:340,1,160,2|0
56,288,44450,1,8
132,244,44624,6,0,B|164:216|152:168,1,80,0|2
108,44,44973,2,0,B|76:72|88:120,2,80,0|8|0
172,104,45496,2,0,B|220:140|288:124|304:64,1,160,2|8
228,42,46020,2,0,B|268:198,1,160
208,264,46543,2,0,B|185:187,1,80,8|0
185,187,46892,1,2
456,48,47241,6,0,B|483:83|459:124,1,80,8|0
448,228,47589,2,0,B|403:234|379:192,1,80,4|0
296,128,47938,2,0,B|312:86|360:86,1,80,8|0
456,48,48287,2,0,B|504:84|500:152|444:180,1,160,2|8
444,179,48810,1,0
296,228,48985,6,0,B|270:282|305:340|368:344,1,160,2|8
368,264,49508,2,0,B|228:348,1,160,2|0
230,346,50031,1,8
184,272,50206,1,0
184,272,50380,2,0,B|160:216|88:208|48:256,1,160,0|8
112,304,50903,6,0,B|136:144,1,160,2|0
135,145,51339,1,0
135,145,51427,1,8
232,88,51601,1,0
232,88,51775,2,0,B|232:171,1,80,2|0
241,317,52124,2,0,B|307:274,1,80,8|2
332,184,52473,5,8
348,164,52560,1,0
368,152,52648,1,8
392,144,52735,1,0
416,144,52822,2,0,B|440:144|456:152,3,40,8|0|8|0
472,168,53171,6,0,B|492:208|464:244,1,80,6|0
372,336,53520,2,0,B|330:318|329:272,1,80,8|0
280,128,53869,2,0,B|328:128|348:164,1,80,2|0
200,160,54217,5,8
112,148,54392,1,0
168,80,54566,1,2
200,160,54741,1,0
204,248,54915,1,8
148,316,55089,2,0,B|92:344|32:308|28:248,2,160,2|0|0
116,236,55962,6,0,B|144:200|188:212,1,80,2|0
292,184,56310,2,0,B|309:226|276:258,1,80,8|0
244,352,56659,2,0,B|198:345|187:301,2,80,2|0|8
376,360,57182,2,0,B|426:336|444:279|397:226,1,160
276,242,57706,2,0,B|288:284|336:288,1,80,8|0
308,128,58055,1,2
308,128,58229,1,2
192,180,58403,6,0,B|156:208|116:184,1,80,8|0
28,176,58752,2,0,B|21:130|62:108,1,80,6|0
112,40,59101,2,0,B|154:57|153:103,1,80,8|0
272,260,59450,2,0,B|212:280|160:248|156:188,1,160,2|8
236,188,59973,5,0
236,188,60148,2,0,B|280:168|312:196,1,80
360,268,60496,1,8
444,296,60671,2,0,B|496:272|512:212|468:160,1,160,2|0
469,162,61194,5,8
384,176,61369,1,0
384,176,61543,2,0,B|328:208|272:180|264:120,1,160,2|8
340,112,62066,2,0,B|276:260,1,160,2|0
176,292,62589,2,0,B|208:220,1,80,8|0
241,128,62938,5,8
224,108,63025,1,0
204,99,63113,1,8
182,98,63200,1,0
160,107,63287,1,8
145,125,63374,1,0
126,141,63462,1,8
102,146,63549,1,0
81,137,63636,2,0,B|49:110,3,40,8|0|8|0
64,92,63985,2,0,B|41:57,3,40,8|0|8|0
64,44,64334,6,0,B|92:4|144:8|176:40,2,119.999996423721,6|8|0
120,88,65206,2,0,B|148:116|192:104,1,59.9999982118607,0|8
236,68,65555,1,0
236,68,65729,2,0,B|256:96|256:148|208:172,1,119.999996423721,2|8
136,192,66252,1,0
72,236,66427,2,0,B|56:268|72:296,2,59.9999982118607,2|0|8
140,264,66950,1,0
140,264,67124,6,0,B|184:280|224:256|232:212,1,119.999996423721,2|8
231,213,67648,1,0
251,144,67822,2,0,B|208:128|167:152|160:196,1,119.999996423721,2|8
160,194,68345,1,0
304,196,68520,2,0,B|368:180,1,59.9999982118607,2|0
460,232,68869,2,0,B|396:248,2,59.9999982118607,8|0|2
436,160,69392,5,0
436,160,69479,1,0
436,160,69566,2,0,B|444:108|416:80|368:76,1,119.999996423721,8|4
304,120,70089,1,0
224,128,70264,1,8
148,104,70438,1,0
208,52,70613,5,0
224,128,70787,1,0
208,204,70962,1,8
160,264,71136,1,0
88,292,71310,6,0,B|56:264,7,29.9999991059304,0|0|0|0|8|0|0|0
76,256,72008,2,0,B|60:228,7,29.9999991059304,0|0|0|0|8|0|0|0
256,192,72706,12,0,74450
340,340,82473,5,8
356,324,82560,1,0
364,304,82648,1,8
364,280,82735,1,0
356,256,82822,1,8
336,240,82909,1,0
312,232,82996,1,8
288,224,83084,1,0
272,208,83171,6,0,B|248:176,3,40,8|0|8|0
260,156,83520,2,0,B|244:120,3,40,8|0|8|0
252,96,83869,6,0,B|264:36|324:16|376:48,2,160,4|8|0
196,216,84741,2,0,B|184:276|124:296|72:264,1,160
71,263,85264,1,2
80,164,85438,2,0,B|156:144,1,80,0|8
187,71,85787,2,0,B|168:16|96:8|56:52,1,160,2|0
187,71,86310,1,8
228,180,86485,5,0
228,180,86572,1,0
228,180,86659,2,0,B|256:212|300:200,1,80,6|0
372,168,87008,1,8
435,119,87182,2,0,B|462:152|446:196,1,80,2|0
418,269,87531,1,0
359,323,87705,2,0,B|384:358|431:351,2,80,8|2|0
337,245,88229,2,0,B|292:92,2,160,0|2|0
337,245,89101,1,8
337,245,89275,1,0
240,252,89450,6,0,B|264:280|266:327,2,80,6|0|8
172,212,89973,2,0,B|128:192|104:128|148:76,1,160,2|0
147,76,90496,1,8
248,116,90671,2,0,B|292:156|364:140|376:76,1,160,2|0
374,80,91194,1,8
464,44,91369,1,0
464,44,91543,1,2
504,136,91717,1,0
504,136,91892,2,0,B|500:180|464:204,1,80,8|0
392,232,92241,5,6
312,248,92415,1,0
232,244,92589,1,8
156,220,92764,1,0
216,164,92938,1,0
232,244,93113,1,0
212,320,93287,1,8
144,364,93462,1,0
64,360,93636,6,0,B|28:340|16:296,1,80,2|0
40,208,93985,2,0,B|76:228|88:272,2,80,8|0|8
40,208,94421,1,0
40,208,94508,1,8
16,132,94682,1,8
12,108,94770,1,0
16,84,94857,1,8
28,64,94944,1,0
48,52,95031,6,0,B|64:40|84:36,3,40,4|0|0|0
172,48,95380,2,0,B|168:72|156:88,3,40,8|0|0|0
96,144,95729,2,0,B|112:160|132:168,3,40,2|0|0|0
188,236,96078,2,0,B|208:224|216:200,3,40,8|0|0|0
220,120,96427,6,0,B|240:116|260:124,3,40,2|0|0|0
340,88,96776,2,0,B|352:105|356:128,3,40,8|0|0|0
420,192,97124,2,0,B|408:208|384:212,3,40,2|0|0|0
300,204,97473,2,0,B|297:226|308:248,3,40,8|0|0|0
360,312,97822,6,0,B|345:325|324:328,3,40,2|0|0|0
240,356,98171,2,0,B|232:336|232:304,3,40,8|0|0|0
168,252,98520,2,0,B|188:236|208:232,3,40,2|0|0|0
292,216,98869,2,0,B|288:192|276:176,3,40,8|0|0|0
304,92,99217,6,0,B|284:80|260:84,3,40,2|0|0|0
192,32,99566,2,0,B|180:48|180:72,3,40,8|0|0|0
208,156,99915,2,0,B|189:164|168:164,3,40,2|0|0|0
88,120,100264,2,0,B|77:139|76:160,3,40,8|0|0|0
68,180,100613,6,0,B|48:240|48:240|76:276|76:276|60:324,1,160,2|8
144,348,101136,1,0
168,352,101223,1,0
192,348,101310,1,2
212,336,101398,1,0
228,316,101485,1,0
236,292,101572,1,0
236,268,101659,1,8
228,244,101746,1,0
212,224,101834,1,0
196,204,101921,1,0
188,180,102008,5,2
188,156,102095,1,0
196,132,102182,1,0
212,116,102270,1,0
232,104,102357,1,8
256,100,102444,1,0
280,104,102531,1,0
300,112,102619,1,0
316,128,102706,6,0,B|348:152,3,40,2|0|0|0
340,176,103055,2,0,B|368:204,3,40,8|0|0|0
384,220,103403,1,2
396,240,103491,1,0
396,264,103578,1,0
392,288,103665,1,0
380,308,103752,6,0,B|340:333|297:319,1,80,8|0
284,303,104014,1,0
261,291,104101,1,2
238,288,104188,1,0
213,292,104276,1,0
189,284,104363,1,0
174,265,104450,2,0,B|157:229,3,40,8|0|0|0
181,221,104799,6,0,B|177:181,3,40,10|0|8|0
201,185,105148,2,0,B|209:145,3,40,8|0|8|0
229,157,105496,2,0,B|249:121,3,40,8|0|8|0
269,137,105845,2,0,B|297:109,3,40,8|0|8|0
321,109,106194,6,0,B|341:86|341:86|355:74|355:74|374:42,1,80,6|0
485,24,106543,2,0,B|467:50|467:50|455:60|455:60|439:88,1,80,8|0
448,168,106892,2,0,B|483:214|460:284|393:287,2,160,2|8|6
384,212,107764,2,0,B|228:180,1,160,0|0
180,92,108287,2,0,B|260:108,2,80,0|0|8
100,76,108810,6,0,B|36:78|8:148|48:196,1,160,2|0
45,192,109334,1,8
144,176,109508,1,0
194,269,109682,1,8
218,269,109770,1,0
240,264,109857,1,8
260,253,109944,1,0
279,236,110031,1,8
295,218,110119,1,0
314,201,110206,1,8
335,190,110293,1,0
360,187,110380,6,0,B|400:172|436:196,1,80
484,296,110729,1,8
484,296,110903,1,0
392,268,111078,1,8
368,264,111165,1,0
344,268,111252,1,8
324,280,111339,1,0
304,292,111427,1,8
280,300,111514,1,0
256,300,111601,1,8
232,296,111688,1,0
212,288,111776,6,0,B|176:260|136:276|100:252,1,119.999996423721,12|0
48,196,112299,2,0,B|24:140,2,59.9999982118607,2|8|0
116,160,112822,1,0
116,160,112996,2,0,B|124:112|168:92|208:104,1,119.999996423721,2|0
188,177,113520,2,0,B|224:224,2,59.9999982118607,0|2|8
344,68,114217,5,0
344,68,114392,1,0
344,68,114566,2,0,B|320:112|336:156|376:168,1,119.999996423721,2|0
456,160,115089,2,0,B|416:272,1,119.999996423721,2|0
415,273,115613,1,8
236,228,115962,5,4
236,228,116136,1,0
124,148,116310,1,8
124,148,116485,1,0
68,280,116659,2,0,B|44:268|44:268|36:236|36:236|16:220,2,80,0|0|8
148,324,117182,1,0
184,232,117357,5,8
204,216,117444,1,0
224,208,117531,1,8
248,208,117619,1,0
272,216,117706,1,8
292,228,117793,1,0
318,234,117880,1,8
341,228,117967,1,0
364,224,118055,6,0,B|396:200,3,40,8|0|8|0
336,136,118403,2,0,B|352:100,3,40,8|0|8|0
248,120,118752,6,0,B|204:136|172:104,2,80,6|0|8
224,36,119276,2,0,B|176:-4|108:16|96:72,1,160,2|0
68,160,119799,1,8
72,248,119973,1,0
108,328,120148,5,2
20,320,120322,1,0
72,248,120496,1,8
156,220,120671,2,0,B|204:180|272:200|292:248,1,160
212,288,121194,2,0,B|224:332|272:336,1,80,8|0
368,296,121543,5,2
368,296,121717,1,0
476,224,121892,1,8
476,224,122066,1,0
364,180,122241,2,0,B|304:168|276:112|304:56,1,160,2|8
372,100,122764,2,0,B|308:156|220:136,1,160,2|0
120,80,123287,1,8
120,80,123462,1,0
68,192,123636,2,0,B|52:252|52:252|72:300|132:300,1,160,2|8
220,304,124159,1,0
304,280,124334,5,4
360,212,124508,1,0
304,280,124682,1,8
304,280,124857,1,0
272,196,125031,2,0,B|258:136|202:109|146:138,1,160,2|8
192,208,125555,1,0
192,208,125729,6,0,B|260:60,1,160,2|8
348,72,126252,2,0,B|360:132|416:160|474:130,1,160,2|0
470,131,126776,1,8
428,64,126950,1,0
428,64,127124,6,0,B|360:208,1,160,2|8
260,236,127648,2,0,B|296:160,1,80,0|2
308,72,127996,5,0
308,72,128084,1,0
308,72,128171,1,8
216,24,128345,1,0
164,124,128520,1,2
72,72,128694,2,0,B|20:88|20:88|-8:136|28:188,1,160,2|0
128,268,129217,5,10
152,272,129305,1,0
172,284,129392,1,8
188,300,129479,1,0
204,320,129566,1,8
224,336,129653,1,0
248,344,129741,1,8
272,344,129828,1,0
296,340,129915,6,0,B|340:340|360:300,1,80,4|0
392,140,130264,2,0,B|348:140|328:180,1,80,8|0
448,288,130613,2,0,B|446:243|406:224,1,80,2|0
240,192,130962,6,0,B|241:236|281:255,2,80,8|0|2
212,108,131485,1,0
132,68,131659,1,8
44,80,131834,2,0,B|16:136|48:196|104:200,1,160,2|0
104,200,132357,1,8
192,180,132531,6,0,B|232:160|268:180,2,80,2|0|0
140,296,133055,2,0,B|100:320|60:292,1,80,8|0
24,204,133403,2,0,B|88:192|112:140|96:80,1,160,2|8
16,120,133927,2,0,B|52:160|112:168|164:144,1,160,2|0
240,100,134450,2,0,B|268:68|312:72,1,80,8|0
468,80,134799,2,0,B|456:121|415:136,1,80,2|2
328,144,135148,5,8
248,180,135322,1,0
192,248,135496,1,4
160,328,135671,1,0
248,316,135845,1,8
192,248,136020,1,0
108,220,136194,1,2
20,212,136369,5,0
56,292,136543,1,8
108,220,136717,1,0
92,132,136892,2,0,B|112:72|172:56|224:84,1,160,2|8
312,176,137415,2,0,B|362:202|422:186|442:126,1,160,2|0
392,64,137938,2,0,B|312:48,1,80,8|0
224,40,138287,6,0,B|169:54|145:122|183:168,1,160,2|8
296,232,138810,2,0,B|334:277|310:345|256:360,1,160,2|0
256,360,139334,1,8
235,283,139508,2,0,B|387:331,1,160,2|0
476,276,140031,2,0,B|400:252,1,80,8|0
349,144,140380,5,8
328,136,140467,1,0
303,136,140555,1,8
280,144,140642,1,0
263,159,140729,1,8
245,174,140816,1,0
222,183,140903,1,8
198,187,140991,1,0
176,180,141078,6,0,B|160:172|140:172|140:172|128:148|128:148|108:152|88:140,1,99.9999985098839,4|0
28,64,141427,1,8
28,64,141601,2,0,B|68:20|152:8|208:72,1,199.999997019768,2|0
268,148,142124,1,8
360,184,142299,1,0
460,164,142473,6,0,B|484:128|484:128|480:100|480:100|496:72,2,99.9999985098839,2|0|8
428,260,142996,2,0,B|400:332|308:340|259:282,1,199.999997019768,2|0
216,200,143520,1,8
132,144,143694,1,0
32,160,143869,6,0,B|20:220|64:252,1,99.9999985098839,2|0
200,344,144217,2,0,B|212:284|168:252,1,99.9999985098839,8|0
20,324,144566,2,0,B|68:352|116:316,1,99.9999985098839,2|0
212,180,144915,6,0,B|164:152|116:188,2,99.9999985098839,8|0|2
212,180,145438,1,0
296,240,145613,1,8
296,240,145787,1,2
356,128,145962,2,0,B|352:52|272:20|204:56,1,199.999997019768,2|8
206,54,146485,1,0
124,112,146659,6,0,B|108:164|144:208,1,99.9999985098839,4|0
304,176,147008,2,0,B|266:136|210:145,1,99.9999985098839,8|0
156,296,147357,2,0,B|209:283|229:230,2,99.9999985098839,2|0|8
64,260,147880,1,0
140,196,148055,6,0,B|184:132|168:56|96:28,1,199.999997019768,2|8
64,124,148578,2,0,B|132:108|132:108|196:136|196:136|252:112,1,199.999997019768,2|0
336,60,149101,1,8
436,72,149276,1,0
368,144,149450,6,0,B|320:200|340:284|408:312,1,199.999997019768,2|8
444,216,149973,2,0,B|488:192|488:132,1,99.9999985098839,0|2
488,132,150322,1,2
368,144,150496,2,0,B|382:95|339:53,1,99.9999985098839,8|0
339,53,150845,1,2
264,136,151020,2,0,B|240:92|180:92,1,99.9999985098839,2|8
180,91,151369,1,0
57,171,151543,5,8
86,176,151630,1,0
107,196,151717,1,8
118,223,151805,1,0
112,252,151892,1,8
107,282,151979,1,0
114,314,152066,1,8
135,333,152153,1,0
165,341,152241,6,0,B|220:340|249:294,1,99.9999985098839,4|0
320,152,152589,2,0,B|264:152|235:198,1,99.9999985098839,8|0
332,328,152938,2,0,B|348:272|312:236,1,99.9999985098839,2|0
148,164,153287,2,0,B|132:220|168:256,2,99.9999985098839,8|0|2
148,164,153810,1,0
192,56,153985,1,8
192,56,154159,2,0,B|228:112|316:120|368:68,1,199.999997019768,2|0
484,60,154682,2,0,B|468:112|424:136,1,99.9999985098839,8|0
332,172,155031,6,0,B|258:177|213:251|241:319,1,199.999997019768,2|8
240,317,155555,1,0
336,276,155729,2,0,B|272:244|272:244|236:192|236:192|172:172,1,199.999997019768,2|8
116,80,156252,2,0,B|152:92|152:92|180:88|180:88|212:104,1,99.9999985098839,0|2
300,148,156601,1,2
400,160,156776,1,8
492,124,156950,1,0
416,60,157124,1,2
400,160,157299,1,2
428,256,157473,6,0,B|440:312|396:344,1,99.9999985098839,8|0
372,184,157822,2,0,B|414:145|464:167,1,99.9999985098839,4|0
336,272,158171,2,0,B|281:254|275:200,1,99.9999985098839,8|0
228,112,158520,1,2
136,72,158694,1,0
36,80,158869,1,8
92,164,159043,1,0
136,72,159217,6,0,B|168:4|260:0|308:48,1,199.999997019768,2|8
464,168,159741,2,0,B|432:236|340:240|293:193,1,199.999997019768,2|0
382,129,160264,2,0,B|408:108|408:108|412:84|412:84|444:56,1,99.9999985098839,8|0
293,193,160613,6,0,B|252:256|160:256|120:192,1,199.999997019768,2|8
208,144,161136,2,0,B|220:208|220:208|188:268|188:268|208:332,1,199.999997019768,2|0
207,331,161659,1,8
312,264,161834,1,0
400,336,162008,5,10
424,316,162095,1,0
436,288,162182,1,8
436,260,162270,1,0
428,232,162357,1,8
416,204,162444,1,0
412,176,162531,1,8
424,148,162619,1,0
448,128,162706,6,0,B|488:96,3,49.999999254942,10|0|8|0
456,92,163055,2,0,B|472:44,3,49.999999254942,10|0|8|0
471,44,163403,1,4
