osu file format v9

[General]
AudioFilename: 101.mp3
AudioLeadIn: 0
PreviewTime: 41650
Countdown: 0
SampleSet: Normal
StackLeniency: 0.7
Mode: 0
LetterboxInBreaks: 0
EpilepsyWarning: 1

[Editor]
Bookmarks: 75364,83475,84304
DistanceSpacing: 1.1
BeatDivisor: 4
GridSize: 4

[Metadata]
Title:Kinema Lolita
Artist:Rokugen Alice
Creator:Kite
Version:Hard
Source:
Tags:Harajuku Roriwitakinema comiket 79 c79 original Kurai wmfchris

[Difficulty]
HPDrainRate:5
CircleSize:4
OverallDifficulty:5
ApproachRate:7
SliderMultiplier:1.5
SliderTickRate:2

[Events]
//Background and Video events
0,0,"moon1.jpg"
//Break Periods
2,74649,81573
//Storyboard Layer 0 (Background)
//Storyboard Layer 1 (Fail)
//Storyboard Layer 2 (Pass)
//Storyboard Layer 3 (Foreground)
//Storyboard Sound Samples
//Background Colour Transformations
3,100,163,162,255

[TimingPoints]
5372,348.837209302326,4,1,1,80,1,0
6776,348.837209302326,4,1,1,80,1,0
17938,-133.333333333333,4,2,0,100,0,0
22996,-114.942528735632,4,1,1,80,0,0
32066,-114.942528735632,4,2,0,100,0,0
32589,-114.942528735632,4,1,1,80,0,0
34682,-133.333333333333,4,2,0,100,0,0
38869,-100,4,1,1,80,0,0
40962,-80,4,1,1,80,0,0
42008,348.837209302326,4,1,1,80,1,1
64333,-133.333333333333,4,1,1,80,0,1
72705,-133.333333333333,4,2,1,5,0,0
82473,-114.942528735632,4,1,1,80,0,0
95031,-100,4,1,1,80,0,1
107589,-114.942528735632,4,1,1,80,0,0
111775,-133.333333333333,4,2,1,80,0,0
115961,-133.333333333333,4,1,1,80,0,0
118054,-133.333333333333,4,2,2,80,0,0
118228,-133.333333333333,4,2,1,80,0,0
118403,-133.333333333333,4,2,2,80,0,0
118752,-100,4,1,1,80,0,1
140990,-100,4,1,1,80,0,0
141077,-88.4955752212389,4,1,1,80,0,1
163403,-100,4,1,1,80,0,0

[Colours]
Combo1 : 136,0,0
Combo2 : 171,30,225
Combo3 : 196,0,5
Combo4 : 114,20,150

[HitObjects]
410,329,5372,2,0,B|434:293|438:259,2,75,2|0|8
314,346,5895,1,0
298,259,6069,2,0,B|290:176|232:124,1,150,2|12
80,333,6776,6,0,B|114:291|118:237|83:187,1,150,4|8
44,122,7299,1,0
120,91,7473,2,0,B|259:40,1,150,2|8
448,158,8171,6,0,B|456:197|443:237,1,75
401,303,8520,2,0,B|379:337|339:345,1,75,8|0
258,344,8869,2,0,B|200:343|162:298|170:235,1,150,2|8
287,37,9566,6,0,B|334:64|341:127|301:166,1,150,0|8
146,224,10264,1,2
5,137,10613,1,8
166,105,10962,6,0,B|226:92|262:92|313:122,1,150,0|8
448,211,11659,1,2
479,373,12008,1,8
329,303,12357,6,0,B|260:270,1,75,4|0
205,331,12706,2,0,B|129:335,1,75,8|0
150,254,13055,2,0,B|172:207|169:157|129:112,1,150,2|8
79,49,13578,1,0
191,35,13752,6,0,B|251:28|251:28|344:49,1,150,0|8
419,68,14276,1,0
393,146,14450,2,0,B|386:191|410:217,1,75,2|0
474,164,14799,6,0,B|496:206|495:247|467:284|426:293,1,150,8|0
273,315,15496,1,8
133,226,15845,1,2
176,66,16194,1,8
339,41,16543,6,0,B|400:84|395:179,1,150,2|8
344,330,17241,1,2
180,349,17589,1,8
47,243,17938,6,0,B|22:192|44:129,1,112.500004291535,4|0
69,77,18462,1,2
163,156,18810,2,0,B|212:187|274:164,1,112.500004291535,0|2
325,135,19334,2,0,B|377:109|439:137,1,112.500004291535,2|0
490,159,19857,1,2
433,268,20206,2,0,B|415:299|411:326,1,56.2500021457673,0|2
305,256,20729,6,0,B|251:234|191:257,1,112.500004291535,2|0
139,282,21252,1,2
175,163,21601,1,0
288,113,21950,1,2
288,113,22124,1,2
298,236,22473,2,0,B|322:294,1,56.2500021457673,0|0
383,344,22822,2,0,B|430:309|446:248|413:192,1,168.750006437302,2|0
349,237,23520,6,0,B|314:269|263:264|225:242,1,130.5000010952,6|8
158,203,24043,1,2
279,125,24392,2,0,B|317:92|316:58|313:29|294:7,1,130.5000010952,2|2
239,60,24915,2,0,B|194:80|194:80|113:67,1,130.5000010952,2|8
39,48,25438,1,0
51,126,25613,2,0,B|62:191,2,65.2500005475998,2|0|8
211,197,26310,6,0,B|257:209|280:242|277:298,1,130.5000010952,2|8
259,372,26834,1,2
400,246,27182,2,0,B|435:221|446:170|424:123,1,130.5000010952,2|2
388,54,27706,2,0,B|359:31|321:31,1,65.2500005475998,2|0
250,28,28055,2,0,B|211:28|188:45,1,65.2500005475998,8|0
129,97,28403,2,0,B|109:123|116:160,1,65.2500005475998,2|2
128,238,28752,2,0,B|139:277|170:294,1,65.2500005475998,8|0
238,325,29101,6,0,B|283:340|328:330|360:296,1,130.5000010952,4|0
396,226,29624,1,0
312,224,29799,2,0,B|249:110,1,130.5000010952,4|4
458,37,30496,5,2
458,37,30671,2,0,B|495:73|490:125|461:160,1,130.5000010952,2|0
406,97,31194,2,0,B|379:122|386:161,1,65.2500005475998,2|0
423,231,31543,1,2
423,231,31717,2,0,B|338:330,1,130.5000010952,6|0
263,356,32241,1,0
186,342,32415,1,0
125,292,32589,6,8,B|85:237,1,65.2500005475998
158,207,32938,2,8,B|171:139,1,65.2500005475998
242,173,33287,2,0,B|356:97,1,130.5000010952,4|0
413,53,33810,1,0
424,130,33985,2,0,B|440:211|477:191|503:242|491:296|461:323|431:333|399:318,1,261.000002190399,2|4
291,260,35031,5,2
291,260,35206,2,0,B|234:234|178:256,1,112.500004291535,0|2
64,293,35903,2,0,B|15:257|24:186,2,112.500004291535,0|2|0
118,322,36776,1,2
174,212,37124,6,0,B|183:181|173:150,1,56.2500021457673
156,97,37473,2,0,B|202:60|264:79,1,112.500004291535,4|0
320,100,37996,1,2
377,209,38345,1,2
256,192,38694,12,6,40962
443,197,42008,6,0,B|454:142|454:142|428:104|446:49,1,150,4|8
445,51,42531,1,0
288,103,42880,2,0,B|254:121|213:108,1,75,0|8
138,77,43228,1,0
138,77,43403,2,0,B|77:98|77:98|27:171,1,150,0|8
33,251,43926,1,2
174,335,44275,2,0,B|221:358|279:353|316:310,1,150,0|2
305,231,44798,6,0,B|325:197|358:177,1,75,0|0
385,255,45147,2,0,B|401:296|437:308,1,75,8|0
464,229,45496,2,0,B|486:190|495:137|467:79,1,150,2|8
424,15,46019,1,0
380,85,46194,2,0,B|356:117|318:124,1,75,2|0
237,141,46542,2,0,B|200:155|177:184,1,75,8|0
152,263,46891,2,0,B|176:333|176:333|247:368,1,150,2|8
326,362,47414,1,0
396,319,47589,6,0,B|447:262,1,75,4|0
447,160,47938,2,0,B|316:233,2,150,8|2|8
487,88,48810,1,0
420,39,48984,2,0,B|374:14|323:15|279:52,1,150,0|8
224,112,49508,1,2
172,268,49856,2,0,B|161:311|122:327,1,75,0|8
44,335,50205,5,2
44,335,50380,2,0,B|24:187,1,150,4|8
105,201,50903,2,0,B|151:223|207:221|251:184,1,150,0|2
308,132,51426,1,2
472,141,51775,1,2
384,280,52124,1,8
308,132,52473,2,0,B|259:77,1,75,2|0
209,142,52821,2,0,B|135:122,1,75,8|0
140,205,53170,6,0,B|166:259|152:315|101:340,2,150,4|8|2
107,128,54042,1,0
118,46,54217,2,0,B|147:19|188:19,1,75,8|0
214,96,54566,2,0,B|245:137|288:151|349:131,1,150,2|8
422,93,55089,1,2
469,250,55438,1,0
268,351,55787,5,2
268,351,55961,2,0,B|300:306|298:254|267:207,1,150,4|8
209,152,56484,1,0
269,210,56659,2,0,B|325:225|370:213|399:162,1,150,2|8
433,87,57182,1,0
361,27,57356,6,0,B|324:13|287:24,1,75,2|0
320,99,57705,2,0,B|254:149|172:123,1,150,8|2
34,220,58403,2,0,B|61:292,1,75,8|0
145,350,58752,6,0,B|158:200,1,150,4|8
157,200,59275,1,0
232,235,59449,2,0,B|269:269|321:277|372:243,1,150,2|8
370,244,59973,1,0
426,183,60147,6,0,B|506:54,1,150,2|8
505,55,60670,1,2
346,101,61019,2,0,B|279:134,1,75,2|8
206,174,61368,1,0
242,247,61542,6,0,B|254:301|235:350|172:366,1,150,4|0
94,370,62066,1,0
121,207,62414,2,0,B|125:164|102:134,1,75,0|8
58,66,62763,1,2
222,80,63112,2,0,B|309:84|357:20,2,150,2|2|2
457,331,64333,6,0,B|428:366|395:368|343:350,2,112.500004291535,4|8|0
472,207,65380,1,8
472,207,65554,1,0
472,207,65728,2,0,B|477:93,1,112.500004291535,0|8
368,34,66426,2,0,B|345:85,2,56.2500021457673,0|0|8
199,82,67124,6,0,B|184:119|197:150|220:169|246:170,1,112.500004291535,0|8
359,206,67821,2,0,B|374:243|361:274|338:293|312:294,1,112.500004291535,0|8
194,262,68519,2,0,B|174:262|146:286|138:312|153:349,2,112.500004291535,0|8|0
309,211,69566,1,8
309,87,69914,6,0,B|196:43,2,112.500004291535,4|8|0
399,171,70961,1,8
399,171,71135,1,0
399,171,71310,2,0,B|419:217|406:303|352:331|287:329,1,225.000008583069,0|0
256,192,72705,12,0,74449
364,354,82473,5,4
454,243,82821,1,8
461,99,83170,2,8,B|455:64|433:34,2,65.2500005475998,8|8|8
337,172,83868,6,0,B|303:204|242:197|207:176,1,130.5000010952,4|8
139,152,84391,1,8
180,289,84740,2,0,B|162:362|80:383|22:342,1,195.750001642799,2|8
23,343,85438,1,8
70,207,85787,2,0,B|129:89,1,130.5000010952,2|8
128,90,86310,1,8
282,167,86659,6,0,B|326:167|361:128|353:75,1,130.5000010952,4|8
353,77,87182,1,8
418,205,87531,2,0,B|459:270|438:346|376:371,1,195.750001642799,2|8
376,370,88228,1,8
241,320,88577,2,0,B|213:280|219:234|246:197,1,130.5000010952,2|8
245,198,89101,1,8
343,55,89449,6,0,B|380:60|414:50,1,65.2500005475998,4|0
407,51,89798,1,8
398,129,89973,2,0,B|376:196|408:259,1,130.5000010952,2|0
438,327,90496,1,8
406,255,90670,2,0,B|333:233|276:259,1,130.5000010952,2|0
200,289,91194,2,0,B|171:306|137:301,1,65.2500005475998,8|0
153,227,91542,2,0,B|176:199|181:167,1,65.2500005475998,2|0
103,165,91891,2,0,B|72:146|64:111,1,65.2500005475998,8|0
140,95,92240,6,0,B|179:62|179:62|257:44,2,130.5000010952,4|8|0
102,165,93112,1,8
201,355,93635,6,0,B|181:289|229:232,1,130.5000010952,2|8
284,174,94159,1,8
457,134,94508,1,8
457,134,94682,1,8
409,334,95031,6,0,B|436:306|444:268,1,75,6|0
372,226,95380,2,0,B|361:186|374:147,1,75,8|0
411,79,95728,2,8,B|388:34|340:13|281:29,1,150,2|8
206,60,96252,1,0
237,136,96426,6,0,B|260:207,1,75,2|0
167,284,96775,2,0,B|177:210,1,75,8|0
90,253,97124,2,0,B|2:372,1,150,2|8
66,155,97821,6,0,B|77:120|65:77,1,75,6|0
151,116,98170,2,0,B|189:132|226:120,1,75,8|0
296,84,98519,2,0,B|368:50|442:87,1,150,2|8
506,135,99042,1,0
495,217,99217,6,0,B|490:256|458:282,1,75,2|0
391,327,99566,2,0,B|349:344|318:324,1,75,8|0
244,290,99914,2,0,B|206:252|207:194|247:152,1,150,2|8
375,53,100612,6,0,B|403:104|403:104|390:196,1,150,4|8
366,354,101310,1,2
286,374,101484,1,0
299,292,101659,6,0,B|307:229|307:229|265:148,1,150,8|2
267,152,102182,1,0
219,85,102356,2,0,B|192:57|149:54,1,75,8|0
69,59,102705,2,0,B|25:75|15:112,1,75,2|0
60,178,103054,6,0,B|194:257,1,150,8|2
261,293,103577,1,0
334,330,103752,2,0,B|389:307|406:255|389:189,1,150,8|2
375,124,104275,1,0
304,81,104449,2,0,B|234:110,1,75,8|0
256,192,104798,12,2,107240
384,335,107589,5,4
384,335,107763,2,0,B|412:299|412:249|389:208,1,130.5000010952,0|2
326,252,108287,2,0,B|283:306|206:282,1,130.5000010952,2|0
134,257,108810,1,4
61,133,109159,5,0
61,133,109333,2,0,B|99:78,1,65.2500005475998,2|0
154,136,109682,2,0,B|211:107,1,65.2500005475998,2|0
243,176,110031,2,0,B|373:185,1,130.5000010952,2|4
453,190,110554,5,0
496,119,110728,2,0,B|507:85|497:47,1,65.2500005475998,2|0
428,87,111077,2,0,B|394:104|339:107|302:78,1,130.5000010952
193,22,111775,6,0,B|139:39|112:97,1,112.500004291535,4|0
71,213,112473,1,8
280,344,113170,6,0,B|251:291|277:234,1,112.500004291535
338,128,113868,1,8
91,154,114566,6,0,B|151:151|194:196,1,112.500004291535
143,308,115263,1,8
251,367,115612,1,8
374,338,115961,6,0,B|393:293|389:254|364:207,1,112.500004291535,8|8
327,156,116484,2,0,B|296:139,2,28.1250010728836,0|0|8
388,105,116833,2,0,B|378:76,2,28.1250010728836,0|0|8
465,105,117182,2,0,B|473:71,2,28.1250010728836,0|0|8
451,183,117531,5,0
451,183,117705,2,0,B|428:242,1,56.2500021457673,8|0
355,239,118054,2,0,B|271:314,1,112.500004291535,2|8
117,209,118752,6,0,B|65:202|35:220,2,75,4|0|8
199,219,119275,2,0,B|249:240|299:237|344:202,1,150
398,144,119798,2,0,B|417:105|413:69,1,75,8|0
334,95,120147,2,0,B|277:111|226:93|199:45,1,150,2|8
202,50,120670,1,2
233,212,121019,2,0,B|224:270|176:298|119:287,1,150,0|2
41,273,121542,6,0,B|4:202,1,75,4|0
97,116,121891,2,0,B|87:191,1,75,8|0
174,148,122240,2,0,B|271:33,1,150,2|8
312,104,122763,2,0,B|346:144|346:144|443:164,1,150,0|2
441,163,123287,1,8
486,321,123635,1,2
325,284,123984,6,0,B|284:282|254:301,1,75,8|0
184,346,124333,2,0,B|125:356|76:334|55:286,2,150,4|8|2
263,200,125380,1,8
255,118,125554,1,2
294,45,125728,2,0,B|337:14|393:14|439:39,1,150,2|8
509,76,126252,1,2
386,187,126601,2,0,B|361:225|385:288,1,75,0|8
256,192,127124,12,2,129566
368,223,129914,6,0,B|373:163|414:122|470:127,2,150,4|8|2
356,305,130786,1,0
304,370,130961,2,0,B|264:378|230:357,1,75,8|0
248,278,131310,2,0,B|242:226|212:192|150:178,1,150,2|8
68,173,131833,1,2
109,14,132182,1,0
333,31,132531,5,2
333,31,132705,2,0,B|282:53|257:98|259:154,1,150,4|8
281,232,133228,1,0
259,151,133403,2,0,B|224:108|173:96|122:125,1,150,2|8
56,173,133926,1,2
86,261,134100,2,0,B|110:292|147:301,1,75
159,221,134449,2,0,B|241:212|291:275,1,150,8|2
466,264,135147,2,0,B|479:188,1,75,8|0
438,96,135496,6,0,B|349:217,1,150,4|8
296,153,136019,1,0
268,72,136193,2,0,B|222:47|171:52|130:98,1,150,2|8
131,96,136717,1,0
168,170,136891,2,0,B|200:212|190:270|142:307,1,150,2|8
147,303,137414,1,2
288,220,137763,2,0,B|318:200|363:194,1,75,0|8
256,192,138287,12,2,140554
385,339,141077,6,0,B|438:259|381:179,2,169.500000517273,4|8|2
305,368,141949,1,0
228,331,142124,2,0,B|208:250,1,84.7500002586365,8|0
131,286,142473,2,0,B|41:143,1,169.500000517273,2|8
125,137,142996,2,0,B|201:145|201:145|276:70,1,169.500000517273,2|0
437,26,143694,5,2
437,26,143868,2,0,B|394:64|398:142|452:171,2,169.500000517273,4|8|2
260,88,144914,1,8
260,88,145089,2,0,B|176:132|88:76,1,169.500000517273,2|0
29,32,145612,1,10
99,206,145961,2,0,B|131:269|114:324|58:354,1,169.500000517273,2|8
240,292,146659,6,0,B|283:256|360:264|395:308,1,169.500000517273,4|8
449,370,147182,1,0
393,306,147356,2,0,B|450:142,1,169.500000517273,2|8
474,64,147880,1,0
392,85,148054,2,0,B|343:100|343:100|279:86|254:25,1,169.500000517273,2|8
205,97,148577,6,0,B|180:156|117:172|54:143,2,169.500000517273,2|0|2
118,75,149449,2,0,B|132:163|132:163|191:219,1,169.500000517273,4|8
265,177,149973,2,0,B|322:145|387:167|402:232,1,169.500000517273,2|0
410,312,150496,1,8
243,345,150845,2,0,B|166:353|166:353|81:298,2,169.500000517273,2|8|2
325,323,151717,1,0
378,257,151891,2,0,B|406:220|412:179,1,84.7500002586365,8|0
355,116,152240,6,0,B|381:60|458:51|503:92,2,169.500000517273,4|8|2
308,186,153112,1,0
259,256,153287,2,0,B|216:277|177:271,1,84.7500002586365,10|0
103,228,153635,2,0,B|35:69,1,169.500000517273,2|8
121,77,154159,2,0,B|183:90|183:90|282:49,1,169.500000517273,2|0
201,198,154856,5,2
201,198,155031,2,0,B|211:257|266:286|331:270,1,169.500000517273,2|8
415,254,155554,1,0
360,189,155728,2,0,B|341:126|389:68|454:77,1,169.500000517273,2|8
440,161,156252,2,0,B|292:73,1,169.500000517273,2|2
222,28,156775,1,8
71,105,157124,1,2
72,274,157473,6,0,B|126:346,1,84.7500002586365,8|0
182,281,157821,2,0,B|221:235|295:234|338:279,1,169.500000517273,4|8
396,332,158345,1,0
421,251,158519,2,0,B|468:88,1,169.500000517273,2|8
467,88,159042,1,0
384,104,159217,6,0,B|324:116|324:116|225:58,1,169.500000517273,2|8
150,31,159740,2,0,B|96:62|95:139|144:176,1,169.500000517273,2|0
217,215,160263,1,8
301,222,160438,1,0
384,206,160612,6,0,B|437:241|436:313|392:360,1,169.500000517273,6|8
327,305,161135,2,0,B|273:278|211:286|173:331,1,169.500000517273,2|0
102,380,161659,1,8
85,297,161833,2,0,B|49:133,1,169.500000517273,2|0
205,196,162531,1,0
205,196,162705,2,0,B|255:221|316:214|355:159,2,169.500000517273,2|0|4
