osu file format v14

[General]
AudioFilename: Produce.mp3
AudioLeadIn: 0
PreviewTime: 46504
Countdown: 0
SampleSet: Normal
StackLeniency: 0.7
Mode: 0
LetterboxInBreaks: 1
WidescreenStoryboard: 1

[Editor]
DistanceSpacing: 1
BeatDivisor: 4
GridSize: 4
TimelineZoom: 1.7

[Metadata]
Title:Kyousou setsugetsuka
TitleUnicode:狂奏雪月花
Artist:Rohi feat.Kagamine Rin
ArtistUnicode:ろひ feat.鏡音リン
Creator:ChenYa0Ayase
Version:Hard
Source:天響の和樂2
Tags:天響の和樂2 YAMAHA
BeatmapID:678999
BeatmapSetID:301477

[Difficulty]
HPDrainRate:6
CircleSize:4
OverallDifficulty:6
ApproachRate:7.5
SliderMultiplier:1.5
SliderTickRate:1

[Events]
//Background and Video events
0,0,"Produce.jpg",0,0
//Break Periods
//Storyboard Layer 0 (Background)
//Storyboard Layer 1 (Fail)
//Storyboard Layer 2 (Pass)
//Storyboard Layer 3 (Foreground)
//Storyboard Sound Samples

[TimingPoints]
5477,324.324324324324,4,1,0,72,1,0
14558,-66.6666666666667,4,3,0,68,0,0
15531,-200,4,2,0,38,0,0
24936,-200,4,1,0,38,0,0
25909,-100,4,1,0,58,0,0
36287,-100,4,2,0,68,0,0
46666,-66.6666666666667,4,1,0,72,0,0

[Colours]
Combo1 : 0,3,147
Combo2 : 159,244,240
Combo3 : 17,160,238

[HitObjects]
180,255,5476,6,0,P|147:191|190:128,2,150
44,190,6449,1,0,0:0:0:0:
61,336,6774,2,0,B|114:277|114:277|183:254,1,150
316,317,7422,2,0,B|383:294|383:294|436:235,1,150
371,100,8071,6,0,B|307:66|307:66|230:110,2,150
436,235,9044,1,0,0:0:0:0:
371,100,9368,2,0,P|319:158|236:188,1,150
168,61,10017,2,0,P|99:90|50:146,1,150
51,296,10666,6,0,L|216:296,2,150
50,146,11639,1,0,0:0:0:0:
165,50,11963,1,0,0:0:0:0:
274,151,12287,1,0,0:0:0:0:
388,53,12612,1,0,0:0:0:0:
274,151,12936,1,0,0:0:0:0:
160,232,13260,22,0,B|208:306|208:306|279:335,1,150
368,140,13909,2,0,B|344:197|344:197|270:245,1,150
256,192,14558,12,0,15531,0:0:0:0:
141,195,15855,22,0,B|163:144|163:144|205:184|240:160|280:193|280:193|305:144,1,225
351,103,17152,2,0,B|400:119|400:119|390:168|390:168|420:222,1,150
466,263,18125,1,0,0:0:0:0:
413,315,18449,2,0,B|377:281|343:317|343:317|307:281|274:318|274:318|236:281|207:315|207:315|177:283|138:316|138:316,1,300
97,254,20071,2,0,P|65:217|72:179,1,75
65,118,20720,6,0,L|102:86,1,37.5
128,79,21044,2,0,P|139:175|234:144,1,225
211,72,22341,2,0,B|252:40|252:40|288:37,1,75
343,68,22990,1,0,0:0:0:0:
274,38,23314,1,0,0:0:0:0:
343,68,23639,2,0,P|435:35|449:132,1,225
395,186,24936,2,0,L|374:210,10,18.75
320,199,25909,6,0,P|279:209|248:256,1,75
186,256,26233,1,0,0:0:0:0:
186,256,26558,1,0,0:0:0:0:
80,150,26882,1,0,0:0:0:0:
80,299,27206,1,0,0:0:0:0:
207,219,27531,1,0,0:0:0:0:
207,219,27855,1,0,0:0:0:0:
312,113,28179,1,0,0:0:0:0:
312,263,28504,1,0,0:0:0:0:
417,157,28828,22,0,B|390:215|463:237|443:302,2,150
326,37,29801,1,0,0:0:0:0:
213,136,30125,2,0,P|176:227|131:232,2,150
76,72,31098,2,0,P|106:78|124:118,1,75
67,164,31422,2,0,B|45:249|122:296,2,150
213,136,32395,1,0,0:0:0:0:
336,50,32720,1,0,0:0:0:0:
429,167,33044,1,0,0:0:0:0:
354,37,33368,1,0,0:0:0:0:
208,156,33693,1,0,0:0:0:0:
256,192,34017,12,0,35963,0:0:0:0:
211,138,36287,6,0,P|186:163|137:163,1,75
276,83,36612,1,0,0:0:0:0:
385,185,36936,2,0,P|360:160|311:160,1,75
450,240,37261,1,0,0:0:0:0:
308,289,37585,22,0,B|281:334|281:334|235:334,1,75
158,282,37909,1,0,0:0:0:0:
60,226,38152,1,0,0:0:0:0:
60,188,38233,2,0,B|87:143|87:143|109:143,1,75
222,70,38558,1,0,0:0:0:0:
