osu file format v10

[General]
AudioFilename: Kodoku Egoism.mp3
AudioLeadIn: 1500
PreviewTime: 52637
Countdown: 0
SampleSet: Soft
StackLeniency: 0.5
Mode: 0
LetterboxInBreaks: 0

[Editor]
DistanceSpacing: 1.2
BeatDivisor: 2
GridSize: 8

[Metadata]
Title:Kodoku Egoism
TitleUnicode:孤独≒エゴイズム
Artist:Rohi
ArtistUnicode:ろひ
Creator:NatsumeRin
Version:Normal
Source:Vocaloid
Tags:Kagamine Rin alacat hs714 Amamiya Yuko Nold_1702 Nold Regou
BeatmapID:179353
BeatmapSetID:58737

[Difficulty]
HPDrainRate:3
CircleSize:3
OverallDifficulty:4
ApproachRate:5
SliderMultiplier:1.28
SliderTickRate:1

[Events]
//Background and Video events
0,0,"BG.jpg"
Video,40,"Kodoku Egoism.avi"
//Break Periods
2,73918,83216
//Storyboard Layer 0 (Background)
//Storyboard Layer 1 (Fail)
//Storyboard Layer 2 (Pass)
//Storyboard Layer 3 (Foreground)
//Storyboard Sound Samples
//Background Colour Transformations
3,100,163,162,255

[TimingPoints]
669,324.499729583559,4,2,1,60,1,0
669,-133.333333333333,4,2,1,60,0,0
9754,352.941176470588,4,1,1,80,1,0
10459,342.857142857143,4,1,1,80,1,0
10687,333.333333333333,4,1,1,80,1,0
10909,324.324324324324,4,1,1,80,1,0
11125,324.324324324324,4,1,1,80,1,0
15989,-100,4,2,1,90,0,0
16314,-100,4,1,1,80,0,0
21827,324.324324324324,4,2,1,70,1,0
21827,-133.333333333333,4,2,1,70,0,0
22475,-133.333333333333,4,2,1,60,0,0
32205,-100,4,1,1,60,0,0
39989,-100,4,1,1,65,0,0
40313,-100,4,1,1,70,0,0
40637,-100,4,1,1,65,0,0
40962,-100,4,1,1,60,0,0
41286,-100,4,2,1,60,0,0
42583,-125,4,2,2,60,0,0
50367,-125,4,2,2,70,0,0
51664,-100,4,2,1,50,0,0
52637,-100,4,2,1,80,0,0
52962,-100,4,1,1,80,0,1
58151,-100,4,2,1,100,0,0
58475,-100,4,1,1,80,0,1
63016,-100,4,1,1,60,0,1
63340,-100,4,1,1,80,0,1
68529,-100,4,2,1,100,0,0
68854,-100,4,1,1,80,0,1
73394,-100,4,2,1,60,0,1
73718,-100,4,2,1,80,0,0
84416,324.324324324324,4,2,1,60,1,0
84416,-125,4,2,1,60,0,0
94794,-100,4,1,1,60,0,0
102578,-100,4,1,1,65,0,0
102902,-100,4,1,1,70,0,0
103226,-100,4,1,1,65,0,0
103551,-100,4,1,1,60,0,0
103875,-100,4,2,1,60,0,0
105172,-125,4,2,2,60,0,0
112956,-125,4,2,2,70,0,0
114253,-100,4,2,2,50,0,0
115551,-125,4,2,2,90,0,0
118145,-125,4,2,1,90,0,0
118307,-125,4,2,2,50,0,0
120091,-125,4,2,2,30,0,0
120740,-125,4,2,2,90,0,0
123334,-125,4,2,1,90,0,0
123497,-125,4,2,2,50,0,0
125280,-125,4,2,2,30,0,0
125929,-125,4,2,1,90,0,0
129497,-125,4,2,1,60,0,0
129821,-125,4,2,1,90,0,0
130794,-125,4,2,1,60,0,0
131118,-125,4,2,1,90,0,0
133875,-125,4,2,1,50,0,0
135659,-125,4,1,1,60,0,0
135983,-125,4,1,1,65,0,0
136307,-100,4,1,1,80,0,0
138578,-100,4,1,1,70,0,0
138902,-100,4,1,1,90,0,0
146037,-100,4,1,1,80,0,0
146361,-100,4,2,1,60,0,0
146686,-125,4,2,1,70,0,0
150578,-100,4,1,1,70,0,0
151875,-100,4,2,1,100,0,0
152199,-100,4,1,1,80,0,1
156740,-100,4,1,1,60,0,1
157064,-100,4,1,1,80,0,1
162253,-100,4,2,1,100,0,0
162578,-100,4,1,1,80,0,1
167118,-100,4,1,1,40,0,1
167443,-100,4,1,1,80,0,0

[Colours]
Combo1 : 192,192,192
Combo2 : 80,0,140
Combo3 : 128,128,0
Combo4 : 155,0,0
Combo5 : 255,0,255
Combo6 : 0,128,255

[HitObjects]
200,288,669,1,0,0:0:0
288,120,1317,2,0,B|344:128|360:184,2,96.0000036621095,2|0|0,0:0|0:0|0:0,0:0:0
200,88,2291,2,0,B|104:128,1,96.0000036621095,2|0,0:0|0:0,0:0:0
104,312,3264,5,0,0:0:0
296,280,3913,2,0,B|352:296|392:256,1,96.0000036621095,2|0,0:0|0:0,0:0:0
448,184,4562,1,0,0:0:0
320,40,5211,2,0,B|264:24|224:64,1,96.0000036621095,2|0,0:0|0:0,0:0:0
184,144,5860,5,0,0:0:0
216,232,6185,2,0,B|160:248|120:216,1,96.0000036621095,2|2,0:0|0:0,0:0:0
88,128,6834,1,0,0:0:0
152,56,7158,2,0,B|192:40|240:56|264:96|264:96|328:120,1,192.000007324219,0|2,0:0|0:0,0:0:0
416,144,8132,1,0,0:0:0
456,232,8456,53,0,0:0:0
304,344,9105,2,0,B|200:304,1,96.0000036621095,2|0,0:0|0:0,0:0:0
120,272,9754,38,0,B|88:312|24:304,2,85.3333333333333
152,192,10459,5,0,0:0:0
184,112,10687,1,0,0:0:0
216,32,10909,1,0,0:0:0
272,104,11125,38,0,B|288:136|360:144|392:112,1,128,4|8,0:0|0:0,0:0:0
504,224,11773,1,0,0:0:0
424,360,12097,2,0,B|352:344,1,64,8|0,0:0|0:0,0:0:0
288,312,12422,2,0,B|240:360|168:336,1,128,0|8,0:0|0:0,0:0:0
88,208,13070,2,0,B|136:160|208:184,1,128,0|8,0:0|0:0,0:0:0
344,256,13719,6,0,B|280:232|280:152,1,128,0|8,0:0|0:0,0:0:0
216,104,14206,1,0,0:0:0
136,96,14368,2,0,B|64:104|24:152,1,128,0|8,0:0|0:0,0:0:0
112,280,15016,1,0,0:0:0
264,248,15341,1,8,0:0:0
296,96,15665,1,0,0:0:0
296,96,15989,5,4,0:0:0
440,48,16314,38,0,B|464:88|456:144|424:168,1,128,0|8,0:0|0:0,0:0:0
360,304,16962,2,0,B|336:344|264:352|224:320,1,128,0|8,0:0|0:0,0:0:0
176,288,17449,1,0,0:0:0
144,216,17611,2,0,B|96:232|80:296|112:336,2,128,0|8|0,0:0|0:0|0:0,0:0:0
264,120,18584,1,8,0:0:0
128,56,18908,6,0,B|48:56|16:112,2,128,0|8|0,0:0|0:0|0:0,0:0:0
264,120,19881,2,0,B|336:160,1,64,8|0,0:0|0:0,0:0:0
392,184,20206,22,0,B|448:200|488:152,2,85.3333333333333
328,232,20854,6,0,B|336:280|304:312,2,85.3333333333333
184,104,21827,53,4,0:0:0
120,328,22475,1,2,0:0:0
344,280,23124,2,0,B|440:296,1,96.0000036621095,2|0,0:0|0:0,0:0:0
488,192,23772,2,0,B|392:176,1,96.0000036621095,2|0,0:0|0:0,0:0:0
344,72,24421,53,2,0:0:0
264,288,25070,1,2,0:0:0
112,112,25718,2,0,B|56:120|32:176,1,96.0000036621095,2|0,0:0|0:0,0:0:0
136,224,26367,2,0,B|192:216|216:160,1,96.0000036621095,2|0,0:0|0:0,0:0:0
232,56,27016,5,2,0:0:0
456,120,27664,1,2,0:0:0
288,280,28313,2,0,B|248:320|192:312,1,96.0000036621095,2|0,0:0|0:0,0:0:0
88,296,28962,2,0,B|32:288|8:240,1,96.0000036621095,2|0,0:0|0:0,0:0:0
32,136,29610,5,2,0:0:0
240,32,30259,1,2,0:0:0
384,208,30908,1,2,0:0:0
384,208,31232,1,0,0:0:0
384,208,31556,1,2,0:0:0
96,96,32205,54,0,B|152:112|200:40|200:40|264:64|264:64|280:136,1,256,6|2,0:0|0:0,0:0:0
480,128,33502,2,0,B|504:256,1,128,2|0,0:0|0:0,0:0:0
376,344,34151,2,0,B|304:360|256:304,1,128,2|0,0:0|0:0,0:0:0
176,176,34799,6,0,B|120:200|120:200|64:168|64:168|24:104|40:40,1,256,2|2,0:0|0:0,0:0:0
352,32,36097,2,0,B|376:96|336:160,1,128
272,296,36745,1,2,0:0:0
408,368,37070,1,0,0:0:0
480,232,37394,6,0,B|504:176|504:176|488:112|488:112|448:120|384:96|376:40,1,256,6|2,0:0|0:0,0:0:0
168,32,38691,2,0,B|112:72|112:152,1,128,2|0,0:0|0:0,0:0:0
152,288,39340,1,2,0:0:0
288,352,39664,1,0,0:0:0
448,344,39989,54,0,B|496:224,1,128
368,304,40637,2,0,B|392:152,1,128
280,288,41286,54,0,B|208:280|152:320,2,128,2|0|2,0:0|0:0|0:0,0:0:0
376,64,42583,37,2,0:0:0
128,64,43232,1,2,0:0:0
344,184,43881,1,0,0:0:0
96,184,44529,22,0,P|96:240|120:288,1,102.4,2|0,0:0|0:0,0:0:0
192,376,45178,69,2,0:0:0
224,136,45826,1,2,0:0:0
336,352,46475,1,0,0:0:0
376,112,47124,22,0,P|428:120|472:168,1,102.4,2|0,0:0|0:0,0:0:0
448,272,47772,21,2,0:0:0
256,120,48421,1,2,0:0:0
64,272,49070,1,0,0:0:0
304,336,49718,38,0,P|256:352|208:336,1,102.4,2|0,0:0|0:0,0:0:0
176,216,50367,54,0,P|208:96,1,102.4,2|0,0:0|0:0,0:0:0
304,192,51016,2,0,P|384:128,1,102.4,2|0,0:0|0:0,0:0:0
384,280,51664,6,0,P|224:272|240:88,1,384
304,192,52962,1,0,0:0:0
304,192,53286,54,0,P|181:227,2,128,8|0|8,0:0|0:0|0:0,0:0:0
344,352,54259,2,0,P|384:360|440:328|440:280,1,128,0|8,0:0|0:0,0:0:0
456,128,54908,2,0,P|432:64|368:32,1,128,0|8,0:0|0:0,0:0:0
240,88,55556,6,0,P|189:120|112:112,1,128,0|8,0:0|0:0,0:0:0
56,160,56043,1,0,0:0:0
24,232,56205,1,0,0:0:0
128,344,56529,1,8,0:0:0
280,304,56854,22,0,P|312:216,2,85.3333333333333
376,280,57502,6,0,P|448:216,2,85.3333333333333
472,312,58151,6,0,P|496:240|472:184,1,128,2|12,0:0|0:0,0:0:0
408,56,58799,21,0,0:0:0
264,112,59124,2,0,P|200:112|132:76,1,128,8|0,0:0|0:0,0:0:0
240,208,59772,2,0,P|172:221|100:203,1,128,8|0,0:0|0:0,0:0:0
232,312,60421,2,0,P|169:339|96:336,1,128,8|0,0:0|0:0,0:0:0
328,272,61070,6,0,P|376:144,1,128,8|0,0:0|0:0,0:0:0
272,40,61718,2,0,P|208:36|152:72,1,128,8|0,0:0|0:0,0:0:0
56,184,62367,1,8,0:0:0
120,232,62529,1,0,0:0:0
200,224,62691,2,0,P|344:224,1,128,0|4,0:0|0:0,0:0:0
496,144,63340,53,0,0:0:0
368,64,63664,1,8,0:0:0
440,208,63989,1,0,0:0:0
288,200,64313,2,0,P|284:245|309:278,1,64,8|0,0:0|0:0,0:0:0
336,328,64637,5,0,0:0:0
184,360,64962,1,8,0:0:0
48,280,65286,1,0,0:0:0
32,128,65610,1,8,0:0:0
152,32,65935,6,0,P|187:87|180:164,1,128,0|8,0:0|0:0,0:0:0
208,224,66421,1,0,0:0:0
288,224,66583,2,0,P|352:205|416:232,1,128,0|8,0:0|0:0,0:0:0
480,192,67070,1,0,0:0:0
416,144,67232,6,0,P|384:40,2,85.3333333333333
320,112,67881,6,0,P|248:48,2,85.3333333333333
216,136,68529,6,0,P|152:140|96:193,1,128,2|12,0:0|0:0,0:0:0
56,328,69178,37,0,0:0:0
192,256,69502,2,0,P|216:384,1,128,8|0,0:0|0:0,0:0:0
272,240,70151,2,0,P|344:352,1,128,8|0,0:0|0:0,0:0:0
336,192,70799,2,0,P|456:264,1,128,8|0,0:0|0:0,0:0:0
368,120,71448,54,0,P|301:118|258:173,1,128,8|0,0:0|0:0,0:0:0
120,216,72097,2,0,P|102:152|124:86,1,128,8|0,0:0|0:0,0:0:0
248,16,72745,1,8,0:0:0
281,85,72908,1,0,0:0:0
262,159,73070,2,0,P|256:176|256:176|272:200|272:200|256:224|256:224|272:248|272:248|256:272|256:272|272:304|272:304|256:328|256:328|272:352|272:352|272:384,1,256,0|4,0:0|0:0,0:0:0
336,80,84416,5,4,0:0:0
112,176,85064,1,2,0:0:0
312,320,85713,2,0,P|368:320|408:288,1,102.4,2|0,0:0|0:0,0:0:0
480,200,86361,2,0,P|496:152|480:96,1,102.4,2|0,0:0|0:0,0:0:0
392,24,87010,5,2,0:0:0
280,240,87659,1,2,0:0:0
312,48,88307,2,0,P|264:32|208:40,1,102.4,2|0,0:0|0:0,0:0:0
96,72,88956,2,0,P|48:104|24:160,1,102.4,2|0,0:0|0:0,0:0:0
56,264,89605,53,2,0:0:0
296,312,90253,1,2,0:0:0
224,80,90902,2,0,P|272:64|336:72,1,102.4,2|0,0:0|0:0,0:0:0
440,112,91551,2,0,P|480:136|504:192,1,102.4,2|0,0:0|0:0,0:0:0
464,296,92199,5,2,0:0:0
224,344,92848,1,2,0:0:0
96,136,93497,1,2,0:0:0
96,136,93821,1,0,0:0:0
96,136,94145,1,2,0:0:0
392,40,94794,6,0,P|384:104|384:104|408:160|376:216|376:216|296:240,1,256,6|2,0:0|0:0,0:0:0
104,112,96091,2,0,P|56:144|48:224,1,128,2|0,0:0|0:0,0:0:0
144,328,96740,1,2,0:0:0
296,312,97064,1,0,0:0:0
368,176,97388,54,0,P|328:144|288:152|288:152|272:72|272:72|320:64|352:16,1,256,2|2,0:0|0:0,0:0:0
488,240,98686,2,0,P|432:272|368:264,1,128,2|0,0:0|0:0,0:0:0
280,144,99334,1,2,0:0:0
136,96,99659,1,0,0:0:0
64,232,99983,6,0,P|40:256|40:296|40:296|88:328|152:296|152:296|224:312,1,256,2|2,0:0|0:0,0:0:0
440,352,101280,2,0,P|400:304|400:240,1,128,2|0,0:0|0:0,0:0:0
472,104,101929,1,2,0:0:0
352,8,102253,1,0,0:0:0
216,80,102578,6,0,P|192:232,1,128
136,104,103226,2,0,P|80:224,1,128
56,80,103875,22,0,P|96:32|168:32,2,128,2|0|2,0:0|0:0|0:0,0:0:0
152,304,105172,21,2,0:0:0
352,160,105821,1,2,0:0:0
216,360,106470,1,0,0:0:0
272,120,107118,38,0,P|215:112|164:132,1,102.4,2|0,0:0|0:0,0:0:0
112,232,107767,53,2,0:0:0
240,24,108415,1,2,0:0:0
192,264,109064,1,0,0:0:0
152,24,109713,38,0,P|168:78|215:107,1,102.4,2|0,0:0|0:0,0:0:0
320,64,110361,53,2,0:0:0
488,240,111010,1,2,0:0:0
248,296,111659,1,0,0:0:0
320,64,112307,6,0,P|280:96|224:96,1,102.4,2|0,0:0|0:0,0:0:0
120,40,112956,38,0,P|96:152,1,102.4,2|0,0:0|0:0,0:0:0
72,264,113605,2,0,P|96:376,1,102.4,2|0,0:0|0:0,0:0:0
256,192,114253,12,2,115551,0:0:0
144,144,116199,2,0,P|128:192|152:248,1,102.4,2|0,0:0|0:0,0:0:0
248,312,116848,2,0,P|296:312|344:272,1,102.4,2|2,0:0|0:0,0:0:0
376,160,117497,2,0,P|355:108|300:78,2,102.4,0|2|4,0:0|0:0|0:0,0:0:0
256,192,118307,12,0,120091,0:0:0
384,88,120740,6,0,P|447:99|479:136,1,102.4,2|0,0:0|0:0,0:0:0
496,248,121388,2,0,P|477:295|429:327,1,102.4,2|0,0:0|0:0,0:0:0
392,208,122037,2,0,P|280:229,1,102.4,2|2,0:0|0:0,0:0:0
168,248,122686,1,0,0:0:0
112,136,123010,2,0,P|96:88|112:32,1,102.4,2|4,0:0|0:0,0:0:0
256,192,123497,12,0,125280,0:0:0
104,184,125929,54,0,P|152:176|200:136,1,102.4,2|0,0:0|0:0,0:0:0
312,104,126578,2,0,P|368:96|416:120,1,102.4,2|0,0:0|0:0,0:0:0
488,208,127226,1,2,0:0:0
432,320,127551,1,2,0:0:0
312,288,127875,2,0,P|208:336,1,102.4,0|2,0:0|0:0,0:0:0
144,232,128524,6,0,P|104:272|56:280|56:280|8:224|16:136|80:80,1,307.2,4|0,0:0|0:0,0:0:0
184,64,129821,2,0,P|224:24|272:16|272:16|320:72|312:160|248:216,1,307.2,2|0,0:0|0:0,0:0:0
320,312,131118,5,2,0:0:0
440,296,131443,1,0,0:0:0
464,176,131767,2,0,P|472:128|448:72,1,102.4,2|0,0:0|0:0,0:0:0
344,24,132415,2,0,P|336:72|360:128,1,102.4,2|2,0:0|0:0,0:0:0
264,208,133064,1,0,0:0:0
144,176,133388,1,2,0:0:0
24,208,133713,1,4,0:0:0
256,192,133875,12,0,135659,0:0:0
296,128,135983,5,8,0:0:0
216,264,136307,37,0,0:0:0
120,296,136956,5,0,0:0:0
24,328,137605,5,0,0:0:0
216,128,138578,21,8,0:0:0
296,264,138902,21,0,0:0:0
392,296,139551,5,0,0:0:0
488,328,140199,54,0,P|472:232,2,85.3333333333333
392,296,140848,2,0,P|376:192,2,85.3333333333333
296,264,141497,37,0,0:0:0
208,176,142145,53,0,0:0:0
336,144,142794,5,0,0:0:0
240,48,143443,22,0,P|112:80,1,128,0|0,0:0|0:0,0:0:0
48,192,144091,37,0,0:0:0
88,344,144740,5,0,0:0:0
128,192,145388,6,0,P|232:192,2,96
48,192,146037,1,0,0:0:0
280,128,146686,21,2,0:0:0
400,344,147334,1,0,0:0:0
488,112,147983,2,0,P|444:84|384:88,1,102.4,2|0,0:0|0:0,0:0:0
280,128,148632,1,0,0:0:0
280,128,149280,6,0,P|312:208|216:232,1,204.8,2|2,0:0|0:0,0:0:0
152,136,150253,1,0,0:0:0
144,264,150578,54,0,P|136:360,2,85.3333333333333
72,224,151226,6,0,P|16:320,2,85.3333333333333
40,144,151875,6,0,P|56:72|112:32,1,128,2|12,0:0|0:0,0:0:0
224,120,152524,5,0,0:0:0
264,272,152848,2,0,P|304:128,1,128,8|0,0:0|0:0,0:0:0
392,272,153497,2,0,P|376:128,1,128,8|0,0:0|0:0,0:0:0
504,232,154145,2,0,P|448:96,1,128,8|0,0:0|0:0,0:0:0
328,32,154794,6,0,P|256:32|200:72,1,128,8|0,0:0|0:0,0:0:0
152,200,155443,2,0,P|192:336,1,128,8|0,0:0|0:0,0:0:0
344,336,156091,1,8,0:0:0
424,320,156253,1,0,0:0:0
464,248,156415,2,0,P|480:184|456:120,1,128,0|4,0:0|0:0,0:0:0
328,40,157064,5,0,0:0:0
168,64,157388,1,8,0:0:0
88,208,157713,1,0,0:0:0
136,360,158037,2,0,P|176:344|192:312,1,64,8|0,0:0|0:0,0:0:0
224,256,158361,53,0,0:0:0
128,136,158686,1,8,0:0:0
248,40,159010,1,0,0:0:0
344,160,159334,1,8,0:0:0
296,304,159659,6,0,P|360:315|416:291,1,128,0|8,0:0|0:0,0:0:0
476,241,160145,1,0,0:0:0
504,168,160307,2,0,P|492:96|440:48,1,128,0|8,0:0|0:0,0:0:0
383,31,160794,1,0,0:0:0
304,40,160956,22,0,P|192:56,2,85.3333333333333
272,136,161605,6,0,P|160:152,2,85.3333333333333
240,232,162253,6,0,P|176:248|120:216,1,128,2|12,0:0|0:0,0:0:0
136,64,162902,37,0,0:0:0
288,96,163226,2,0,P|320:224,1,128,8|0,0:0|0:0,0:0:0
368,72,163875,2,0,P|400:200,1,128,8|0,0:0|0:0,0:0:0
448,48,164524,2,0,P|480:176,1,128,8|0,0:0|0:0,0:0:0
464,328,165172,54,0,P|400:344|336:320,1,128,8|0,0:0|0:0,0:0:0
224,232,165821,2,0,P|192:168|200:96,1,128,8|0,0:0|0:0,0:0:0
72,16,166470,1,8,0:0:0
39,85,166633,1,0,0:0:0
58,159,166795,2,0,P|64:176|64:176|48:200|48:200|64:224|64:224|48:248|48:248|64:272|64:272|48:304|48:304|64:328|64:328|48:352|48:352|48:384,1,256,0|4,0:0|0:0,0:0:0
