osu file format v12

[General]
AudioFilename: Kanata ni mau wa sakura no ritsu be.mp3
AudioLeadIn: 0
PreviewTime: 62770
Countdown: 0
SampleSet: Normal
StackLeniency: 0.7
Mode: 1
LetterboxInBreaks: 0
WidescreenStoryboard: 0

[Editor]
DistanceSpacing: 1.4
BeatDivisor: 3
GridSize: 4

[Metadata]
Title:Kanata ni Mau wa Sakura no Shirabe
TitleUnicode:彼方に舞うは桜の律べ
Artist:Rohi
ArtistUnicode:ろひ
Creator:mintong89
Version:Taiko Sakura
Source:
Tags:Vocaloid Kagamine Rin Flower ぽかぽん ナツメ神楽
BeatmapID:290315
BeatmapSetID:111635

[Difficulty]
HPDrainRate:6
CircleSize:5
OverallDifficulty:5
ApproachRate:5
SliderMultiplier:1.4
SliderTickRate:1

[Events]
//Background and Video events
0,0,"BG.jpg",0,100
//Break Periods
//Storyboard Layer 0 (Background)
//Storyboard Layer 1 (Fail)
//Storyboard Layer 2 (Pass)
//Storyboard Layer 3 (Foreground)
//Storyboard Sound Samples
//Background Colour Transformations
3,100,163,162,255

[TimingPoints]
14478,375,6,1,0,85,1,0
14478,-80,6,1,0,85,0,0
14665,342.857142857143,6,1,0,85,1,8
14665,-87.719298245614,6,1,0,85,0,0
14836,300,6,1,0,85,1,8
15436,300,6,1,0,85,1,0
16336,300,6,1,0,85,1,0
28936,300,4,1,0,85,1,0
48136,300,6,1,0,85,1,0
48211,-133.333333333333,6,1,0,85,0,0
62536,-100,6,1,0,85,0,0
63136,300,4,1,0,85,1,1
69136,-95.2380952380952,4,1,0,85,0,1
69736,-90.9090909090909,4,1,0,85,0,1
70336,-86.9565217391304,4,1,0,85,0,1
70936,-83.3333333333333,4,1,0,85,0,1
71536,-80,4,1,0,85,0,1
72436,-100,4,1,0,85,0,1
78736,-95.2380952380952,4,1,0,85,0,1
79336,-90.9090909090909,4,1,0,85,0,1
79936,-86.9565217391304,4,1,0,85,0,1
80536,-83.3333333333333,4,1,0,85,0,1
81136,-80,4,1,0,85,0,1
82036,-100,4,1,0,85,0,1
82336,-100,4,1,0,85,0,0
111136,-133.333333333333,4,1,0,85,0,0
119536,-90.9090909090909,4,1,0,85,0,0
120736,-90.9090909090909,4,1,0,85,0,1
126736,-86.9565217391304,4,1,0,85,0,1
127336,-83.3333333333333,4,1,0,85,0,1
127936,-80,4,1,0,85,0,1
128536,-76.9230769230769,4,1,0,85,0,1
129136,-74.0740740740741,4,1,0,85,0,1
130036,-90.9090909090909,4,1,0,85,0,1
136336,-86.9565217391304,4,1,0,85,0,1
136936,-83.3333333333333,4,1,0,85,0,1
137536,-80,4,1,0,85,0,1
138136,-76.9230769230769,4,1,0,85,0,1
138736,-74.0740740740741,4,1,0,85,0,1
139636,-90.9090909090909,4,1,0,85,0,1
139936,-90.9090909090909,4,1,0,85,0,0

[HitObjects]
264,120,14478,1,0,0:0:0:0:
264,120,14571,1,0,0:0:0:0:
264,120,14665,1,0,0:0:0:0:
264,184,14836,1,8,0:0:0:0:
264,184,14986,1,8,0:0:0:0:
160,240,15136,1,0,0:0:0:0:
164,208,15286,1,8,0:0:0:0:
244,244,15436,1,0,0:0:0:0:
244,244,15511,1,0,0:0:0:0:
244,244,15586,1,8,0:0:0:0:
244,244,15661,1,8,0:0:0:0:
244,244,15736,1,0,0:0:0:0:
244,244,15886,1,0,0:0:0:0:
244,244,16036,1,8,0:0:0:0:
324,128,16336,1,0,0:0:0:0:
324,128,16411,1,0,0:0:0:0:
324,128,16486,1,0,0:0:0:0:
344,220,16636,1,8,0:0:0:0:
188,168,16786,1,8,0:0:0:0:
132,192,16936,1,0,0:0:0:0:
140,144,17086,1,8,0:0:0:0:
180,96,17236,1,0,0:0:0:0:
212,88,17311,1,0,0:0:0:0:
264,64,17386,1,8,0:0:0:0:
368,80,17461,1,8,0:0:0:0:
440,120,17536,1,0,0:0:0:0:
448,188,17686,1,0,0:0:0:0:
448,244,17836,1,8,0:0:0:0:
416,300,17986,1,8,0:0:0:0:
196,272,18136,1,0,0:0:0:0:
176,304,18211,1,0,0:0:0:0:
176,304,18286,1,8,0:0:0:0:
232,308,18436,1,0,0:0:0:0:
264,272,18586,1,8,0:0:0:0:
268,240,18736,1,0,0:0:0:0:
344,200,18886,1,8,0:0:0:0:
376,252,19036,1,8,0:0:0:0:
376,252,19111,1,8,0:0:0:0:
368,288,19186,1,0,0:0:0:0:
344,328,19261,1,0,0:0:0:0:
344,328,19336,1,8,0:0:0:0:
304,344,19486,1,0,0:0:0:0:
276,332,19636,1,8,0:0:0:0:
108,128,19936,1,0,0:0:0:0:
108,128,20011,1,0,0:0:0:0:
108,128,20086,1,8,0:0:0:0:
144,224,20236,1,0,0:0:0:0:
180,168,20386,1,8,0:0:0:0:
260,168,20536,1,0,0:0:0:0:
416,188,20686,1,8,0:0:0:0:
296,160,20836,1,0,0:0:0:0:
296,160,20986,1,0,0:0:0:0:
296,160,21061,1,0,0:0:0:0:
296,160,21136,1,0,0:0:0:0:
296,160,21286,1,8,0:0:0:0:
292,236,21436,1,8,0:0:0:0:
292,236,21586,1,8,0:0:0:0:
320,252,21736,1,0,0:0:0:0:
340,296,21811,1,0,0:0:0:0:
320,316,21886,1,8,0:0:0:0:
260,332,22036,1,0,0:0:0:0:
212,328,22186,1,8,0:0:0:0:
168,264,22336,1,0,0:0:0:0:
376,304,22411,1,0,0:0:0:0:
176,224,22486,1,8,0:0:0:0:
200,176,22561,1,8,0:0:0:0:
212,136,22636,1,0,0:0:0:0:
224,72,22786,1,0,0:0:0:0:
264,68,22936,1,8,0:0:0:0:
312,96,23086,1,0,0:0:0:0:
312,96,23161,1,0,0:0:0:0:
312,96,23236,1,8,0:0:0:0:
384,160,23386,1,8,0:0:0:0:
324,232,23461,1,8,0:0:0:0:
384,160,23536,1,0,0:0:0:0:
96,182,23611,1,8,0:0:0:0:
360,248,23686,1,0,0:0:0:0:
440,244,23836,1,8,0:0:0:0:
440,308,23986,1,0,0:0:0:0:
440,308,24061,1,0,0:0:0:0:
432,336,24136,1,8,0:0:0:0:
368,336,24286,1,8,0:0:0:0:
248,336,24436,1,0,0:0:0:0:
232,280,24586,1,0,0:0:0:0:
252,228,24661,1,0,0:0:0:0:
256,188,24736,1,8,0:0:0:0:
260,152,24886,1,0,0:0:0:0:
288,112,25036,1,8,0:0:0:0:
144,216,25186,1,8,0:0:0:0:
440,184,25336,1,0,0:0:0:0:
480,72,25486,1,0,0:0:0:0:
496,112,25561,1,0,0:0:0:0:
500,160,25636,1,8,0:0:0:0:
476,208,25786,1,0,0:0:0:0:
468,264,25936,1,8,0:0:0:0:
256,188,26086,1,0,0:0:0:0:
256,188,26161,1,0,0:0:0:0:
224,152,26236,1,8,0:0:0:0:
296,84,26386,1,8,0:0:0:0:
296,84,26461,1,8,0:0:0:0:
296,84,26536,1,0,0:0:0:0:
340,296,26686,1,0,0:0:0:0:
360,320,26836,1,8,0:0:0:0:
196,268,26986,1,8,0:0:0:0:
224,152,27061,1,8,0:0:0:0:
368,120,27136,1,0,0:0:0:0:
368,120,27211,1,0,0:0:0:0:
368,120,27286,1,0,0:0:0:0:
400,192,27436,1,8,0:0:0:0:
416,240,27586,1,8,0:0:0:0:
428,292,27736,1,0,0:0:0:0:
416,340,27886,1,8,0:0:0:0:
324,344,28036,1,0,0:0:0:0:
324,344,28111,1,0,0:0:0:0:
324,344,28186,1,8,0:0:0:0:
272,344,28336,1,0,0:0:0:0:
272,344,28486,1,8,0:0:0:0:
272,344,28636,1,8,0:0:0:0:
272,344,28786,1,8,0:0:0:0:
160,216,28936,1,4,0:0:0:0:
160,216,29086,1,0,0:0:0:0:
160,216,29236,1,8,0:0:0:0:
160,216,29386,1,8,0:0:0:0:
228,148,29686,1,8,0:0:0:0:
296,164,29836,1,0,0:0:0:0:
352,160,29986,1,8,0:0:0:0:
424,168,30136,1,0,0:0:0:0:
448,200,30286,1,0,0:0:0:0:
452,232,30436,1,8,0:0:0:0:
440,272,30586,1,8,0:0:0:0:
408,304,30736,1,0,0:0:0:0:
408,304,30811,1,0,0:0:0:0:
408,304,30886,1,0,0:0:0:0:
312,312,31036,1,8,0:0:0:0:
288,336,31186,1,8,0:0:0:0:
216,332,31336,1,0,0:0:0:0:
160,244,31411,1,0,0:0:0:0:
160,244,31486,1,8,0:0:0:0:
176,192,31636,1,8,0:0:0:0:
200,160,31786,1,8,0:0:0:0:
320,208,31936,1,0,0:0:0:0:
336,152,32086,1,0,0:0:0:0:
424,172,32236,1,8,0:0:0:0:
352,264,32536,1,0,0:0:0:0:
344,296,32611,1,0,0:0:0:0:
324,324,32686,1,8,0:0:0:0:
280,328,32836,1,8,0:0:0:0:
196,280,32986,1,8,0:0:0:0:
272,172,33136,1,0,0:0:0:0:
296,120,33286,1,8,0:0:0:0:
364,80,33436,1,8,0:0:0:0:
364,80,33511,1,8,0:0:0:0:
364,80,33586,1,8,0:0:0:0:
364,80,33661,1,8,0:0:0:0:
364,80,33736,1,0,0:0:0:0:
432,176,33886,1,0,0:0:0:0:
432,176,34036,1,8,0:0:0:0:
432,204,34186,1,0,0:0:0:0:
384,316,34486,1,0,0:0:0:0:
384,316,34636,1,8,0:0:0:0:
384,316,34786,1,8,0:0:0:0:
308,264,34936,1,0,0:0:0:0:
256,272,35086,1,8,0:0:0:0:
196,288,35236,1,0,0:0:0:0:
156,296,35386,1,8,0:0:0:0:
188,164,35536,1,0,0:0:0:0:
188,164,35611,1,0,0:0:0:0:
188,164,35686,1,0,0:0:0:0:
256,128,35836,1,8,0:0:0:0:
312,116,35986,1,0,0:0:0:0:
312,116,36136,1,0,0:0:0:0:
360,132,36211,1,0,0:0:0:0:
396,176,36286,1,8,0:0:0:0:
464,124,36436,1,8,0:0:0:0:
468,200,36586,1,8,0:0:0:0:
392,308,36736,1,0,0:0:0:0:
368,340,36886,1,8,0:0:0:0:
344,360,37036,1,0,0:0:0:0:
208,200,37336,1,0,0:0:0:0:
208,232,37411,1,0,0:0:0:0:
192,264,37486,1,8,0:0:0:0:
120,288,37636,1,8,0:0:0:0:
112,232,37786,1,8,0:0:0:0:
104,160,37936,1,0,0:0:0:0:
148,72,38086,1,8,0:0:0:0:
240,132,38236,1,8,0:0:0:0:
240,132,38311,1,8,0:0:0:0:
240,132,38386,1,0,0:0:0:0:
160,216,38536,1,0,0:0:0:0:
160,216,38686,1,0,0:0:0:0:
160,216,38836,1,8,0:0:0:0:
160,216,38986,1,8,0:0:0:0:
228,148,39286,1,8,0:0:0:0:
296,164,39436,1,0,0:0:0:0:
352,160,39586,1,8,0:0:0:0:
424,168,39736,1,0,0:0:0:0:
448,200,39886,1,0,0:0:0:0:
452,232,40036,1,8,0:0:0:0:
440,272,40186,1,8,0:0:0:0:
408,304,40336,1,0,0:0:0:0:
408,304,40411,1,0,0:0:0:0:
408,304,40486,1,0,0:0:0:0:
312,312,40636,1,8,0:0:0:0:
288,336,40786,1,8,0:0:0:0:
216,332,40936,1,0,0:0:0:0:
160,244,41011,1,0,0:0:0:0:
160,244,41086,1,8,0:0:0:0:
176,192,41236,1,8,0:0:0:0:
200,160,41386,1,8,0:0:0:0:
320,208,41536,1,0,0:0:0:0:
336,152,41686,1,8,0:0:0:0:
424,172,41836,1,0,0:0:0:0:
352,264,42136,1,0,0:0:0:0:
344,296,42211,1,0,0:0:0:0:
324,324,42286,1,8,0:0:0:0:
280,328,42436,1,8,0:0:0:0:
196,280,42586,1,8,0:0:0:0:
272,172,42736,1,0,0:0:0:0:
296,120,42886,1,8,0:0:0:0:
364,80,43036,1,8,0:0:0:0:
364,80,43111,1,8,0:0:0:0:
364,80,43186,1,8,0:0:0:0:
364,80,43261,1,8,0:0:0:0:
364,80,43336,1,0,0:0:0:0:
432,176,43486,1,0,0:0:0:0:
432,176,43636,1,8,0:0:0:0:
432,204,43786,1,0,0:0:0:0:
384,316,44086,1,0,0:0:0:0:
384,316,44236,1,8,0:0:0:0:
384,316,44386,1,8,0:0:0:0:
308,264,44536,1,0,0:0:0:0:
256,272,44686,1,8,0:0:0:0:
196,288,44836,1,0,0:0:0:0:
156,296,44986,1,8,0:0:0:0:
188,164,45136,1,0,0:0:0:0:
188,164,45211,1,0,0:0:0:0:
188,164,45286,1,0,0:0:0:0:
256,128,45436,1,8,0:0:0:0:
312,116,45586,1,0,0:0:0:0:
312,116,45736,1,0,0:0:0:0:
360,132,45811,1,0,0:0:0:0:
396,176,45886,1,8,0:0:0:0:
464,124,46036,1,8,0:0:0:0:
468,200,46186,1,8,0:0:0:0:
392,308,46336,1,0,0:0:0:0:
368,340,46486,1,8,0:0:0:0:
344,360,46636,1,0,0:0:0:0:
208,200,46936,1,0,0:0:0:0:
208,232,47011,1,0,0:0:0:0:
192,264,47086,1,8,0:0:0:0:
120,288,47236,1,8,0:0:0:0:
112,232,47386,1,8,0:0:0:0:
104,160,47536,1,0,0:0:0:0:
148,72,47686,1,0,0:0:0:0:
208,200,47761,1,0,0:0:0:0:
240,132,47836,1,8,0:0:0:0:
240,132,47911,1,8,0:0:0:0:
240,132,47986,1,0,0:0:0:0:
296,208,48136,1,4,0:0:0:0:
380,312,48436,1,0,0:0:0:0:
380,312,48586,1,8,0:0:0:0:
392,244,48736,1,0,0:0:0:0:
392,244,49036,1,0,0:0:0:0:
368,112,49336,1,8,0:0:0:0:
400,168,49486,1,0,0:0:0:0:
428,196,49636,1,0,0:0:0:0:
456,260,49786,1,8,0:0:0:0:
448,308,49936,1,0,0:0:0:0:
320,288,50236,1,0,0:0:0:0:
196,208,50386,1,8,0:0:0:0:
204,276,50536,1,8,0:0:0:0:
276,352,50836,1,8,0:0:0:0:
332,336,50986,1,8,0:0:0:0:
332,336,51061,1,8,0:0:0:0:
332,336,51136,1,0,0:0:0:0:
332,336,51286,1,8,0:0:0:0:
332,336,51436,1,8,0:0:0:0:
332,336,51586,1,0,0:0:0:0:
376,304,51736,1,0,0:0:0:0:
416,280,52036,1,0,0:0:0:0:
416,280,52186,1,8,0:0:0:0:
416,280,52336,1,0,0:0:0:0:
336,232,52636,1,0,0:0:0:0:
336,232,52786,1,0,0:0:0:0:
336,232,52861,1,0,0:0:0:0:
336,232,52936,1,8,0:0:0:0:
204,248,53086,1,0,0:0:0:0:
204,248,53236,1,8,0:0:0:0:
204,248,53386,1,0,0:0:0:0:
204,248,53536,1,0,0:0:0:0:
200,160,53836,1,0,0:0:0:0:
200,160,53986,1,8,0:0:0:0:
200,160,54136,1,8,0:0:0:0:
304,56,54436,1,0,0:0:0:0:
304,56,54586,1,0,0:0:0:0:
304,56,54661,1,0,0:0:0:0:
304,56,54736,1,8,0:0:0:0:
304,56,54886,1,8,0:0:0:0:
252,88,55036,1,8,0:0:0:0:
304,156,55186,1,0,0:0:0:0:
320,200,55336,1,4,0:0:0:0:
376,280,55636,1,0,0:0:0:0:
376,280,55786,1,8,0:0:0:0:
376,280,55936,1,0,0:0:0:0:
376,280,56236,1,0,0:0:0:0:
300,280,56536,1,0,0:0:0:0:
300,280,56686,1,0,0:0:0:0:
300,280,56836,1,8,0:0:0:0:
300,280,56986,1,8,0:0:0:0:
300,280,57136,1,0,0:0:0:0:
244,320,57436,1,0,0:0:0:0:
244,320,57586,1,8,0:0:0:0:
224,152,57736,1,8,0:0:0:0:
272,132,58036,1,8,0:0:0:0:
272,132,58186,1,8,0:0:0:0:
272,132,58261,1,8,0:0:0:0:
272,132,58336,1,0,0:0:0:0:
272,132,58486,1,8,0:0:0:0:
272,132,58636,1,8,0:0:0:0:
340,200,58936,1,0,0:0:0:0:
392,128,59236,1,0,0:0:0:0:
416,228,59386,1,8,0:0:0:0:
388,284,59536,1,8,0:0:0:0:
344,320,59836,1,0,0:0:0:0:
344,320,59986,1,8,0:0:0:0:
344,320,60061,1,8,0:0:0:0:
344,320,60136,1,0,0:0:0:0:
344,320,60286,1,0,0:0:0:0:
212,192,60436,1,8,0:0:0:0:
212,192,60586,1,0,0:0:0:0:
208,248,60736,1,0,0:0:0:0:
208,248,60811,1,0,0:0:0:0:
208,248,60886,1,0,0:0:0:0:
208,248,61036,1,8,0:0:0:0:
208,248,61186,1,0,0:0:0:0:
272,268,61336,1,8,0:0:0:0:
240,204,61486,1,0,0:0:0:0:
320,272,61636,1,0,0:0:0:0:
320,272,61711,1,0,0:0:0:0:
320,272,61786,1,0,0:0:0:0:
320,272,61936,1,8,0:0:0:0:
320,272,62086,1,0,0:0:0:0:
312,332,62236,1,8,0:0:0:0:
160,84,62536,1,8,0:0:0:0:
160,84,62611,1,8,0:0:0:0:
160,84,62686,1,8,0:0:0:0:
160,84,62836,1,8,0:0:0:0:
160,84,62911,1,8,0:0:0:0:
160,84,62986,1,8,0:0:0:0:
160,84,63061,1,8,0:0:0:0:
160,84,63136,1,0,0:0:0:0:
272,124,63286,1,0,0:0:0:0:
272,124,63361,1,0,0:0:0:0:
272,124,63436,1,8,0:0:0:0:
316,160,63586,1,8,0:0:0:0:
340,208,63736,1,0,0:0:0:0:
344,248,63886,1,0,0:0:0:0:
344,248,63961,1,0,0:0:0:0:
308,296,64036,1,8,0:0:0:0:
224,312,64186,1,8,0:0:0:0:
224,312,64261,1,8,0:0:0:0:
224,312,64336,1,0,0:0:0:0:
208,232,64486,1,8,0:0:0:0:
208,184,64636,1,0,0:0:0:0:
140,192,64786,1,8,0:0:0:0:
140,192,64861,1,8,0:0:0:0:
140,192,64936,1,0,0:0:0:0:
180,112,65086,1,0,0:0:0:0:
180,112,65161,1,0,0:0:0:0:
180,112,65236,1,8,0:0:0:0:
264,112,65386,1,8,0:0:0:0:
284,152,65461,1,8,0:0:0:0:
320,232,65536,1,0,0:0:0:0:
280,352,65686,1,8,0:0:0:0:
364,288,65761,1,0,0:0:0:0:
364,288,65836,1,8,0:0:0:0:
364,288,65986,1,8,0:0:0:0:
376,356,66136,1,0,0:0:0:0:
376,356,66211,1,0,0:0:0:0:
408,316,66286,1,0,0:0:0:0:
408,180,66436,1,8,0:0:0:0:
420,244,66586,1,0,0:0:0:0:
488,224,66736,1,6,0:0:0:0:
488,224,66961,1,6,0:0:0:0:
272,192,67186,1,4,0:0:0:0:
272,192,67336,1,6,0:0:0:0:
72,204,67486,1,0,0:0:0:0:
72,204,67561,1,0,0:0:0:0:
72,204,67636,1,8,0:0:0:0:
72,204,67711,1,8,0:0:0:0:
72,204,67786,1,8,0:0:0:0:
72,204,67861,1,8,0:0:0:0:
132,268,67936,1,0,0:0:0:0:
112,152,68086,1,8,0:0:0:0:
288,148,68236,1,0,0:0:0:0:
288,148,68311,1,0,0:0:0:0:
192,36,68386,1,8,0:0:0:0:
260,128,68536,1,0,0:0:0:0:
260,128,68686,1,8,0:0:0:0:
260,128,68836,1,0,0:0:0:0:
260,128,68911,1,0,0:0:0:0:
260,128,68986,1,8,0:0:0:0:
260,128,69136,1,0,0:0:0:0:
260,128,69286,1,8,0:0:0:0:
260,128,69436,1,0,0:0:0:0:
260,128,69511,1,0,0:0:0:0:
260,128,69586,1,8,0:0:0:0:
132,268,69736,1,0,0:0:0:0:
112,152,69886,1,8,0:0:0:0:
288,148,70036,1,0,0:0:0:0:
288,148,70111,1,0,0:0:0:0:
192,36,70186,1,8,0:0:0:0:
260,128,70336,1,0,0:0:0:0:
260,128,70486,1,8,0:0:0:0:
184,192,70636,1,0,0:0:0:0:
312,220,70711,1,0,0:0:0:0:
184,192,70786,1,8,0:0:0:0:
184,192,70936,1,0,0:0:0:0:
376,188,71086,1,8,0:0:0:0:
376,188,71161,1,8,0:0:0:0:
308,276,71236,1,0,0:0:0:0:
308,276,71386,1,8,0:0:0:0:
392,288,71536,1,0,0:0:0:0:
392,288,71686,1,8,0:0:0:0:
392,288,71761,1,8,0:0:0:0:
392,288,71836,1,0,0:0:0:0:
392,288,71986,1,8,0:0:0:0:
392,288,72061,1,8,0:0:0:0:
392,288,72136,1,0,0:0:0:0:
356,336,72436,1,0,0:0:0:0:
356,336,72511,1,0,0:0:0:0:
356,336,72586,1,8,0:0:0:0:
356,336,72661,1,8,0:0:0:0:
356,336,72736,1,0,0:0:0:0:
272,160,72886,1,0,0:0:0:0:
272,160,72961,1,0,0:0:0:0:
272,160,73036,1,8,0:0:0:0:
272,160,73186,1,8,0:0:0:0:
288,192,73336,1,0,0:0:0:0:
312,228,73486,1,8,0:0:0:0:
312,228,73561,1,8,0:0:0:0:
312,228,73636,1,0,0:0:0:0:
312,228,73786,1,8,0:0:0:0:
276,328,73936,1,0,0:0:0:0:
276,328,74086,1,8,0:0:0:0:
276,328,74161,1,8,0:0:0:0:
276,328,74236,1,0,0:0:0:0:
276,328,74386,1,8,0:0:0:0:
276,328,74536,1,0,0:0:0:0:
276,328,74611,1,8,0:0:0:0:
276,328,74686,1,8,0:0:0:0:
372,328,74836,1,0,0:0:0:0:
336,264,74986,1,8,0:0:0:0:
432,272,75136,1,0,0:0:0:0:
432,272,75286,1,0,0:0:0:0:
432,272,75361,1,0,0:0:0:0:
432,272,75436,1,8,0:0:0:0:
316,244,75586,1,8,0:0:0:0:
284,256,75736,1,0,0:0:0:0:
228,228,75886,1,8,0:0:0:0:
228,228,75961,1,8,0:0:0:0:
228,228,76036,1,0,0:0:0:0:
228,228,76186,1,8,0:0:0:0:
308,128,76336,1,6,0:0:0:0:
308,128,76561,1,6,0:0:0:0:
308,128,76786,1,4,0:0:0:0:
308,128,76936,1,6,0:0:0:0:
372,296,77086,1,0,0:0:0:0:
372,296,77161,1,0,0:0:0:0:
372,296,77236,1,8,0:0:0:0:
372,296,77311,1,8,0:0:0:0:
372,296,77386,1,8,0:0:0:0:
372,296,77461,1,8,0:0:0:0:
344,368,77536,1,0,0:0:0:0:
344,368,77686,1,0,0:0:0:0:
344,368,77761,1,0,0:0:0:0:
344,368,77836,1,8,0:0:0:0:
344,368,77986,1,8,0:0:0:0:
344,368,78136,1,0,0:0:0:0:
344,368,78286,1,0,0:0:0:0:
344,368,78361,1,0,0:0:0:0:
344,368,78436,1,8,0:0:0:0:
344,368,78586,1,8,0:0:0:0:
344,368,78736,1,0,0:0:0:0:
344,368,78886,1,0,0:0:0:0:
344,368,78961,1,0,0:0:0:0:
344,368,79036,1,8,0:0:0:0:
344,368,79186,1,8,0:0:0:0:
344,368,79336,1,0,0:0:0:0:
344,368,79486,1,0,0:0:0:0:
344,368,79561,1,0,0:0:0:0:
344,368,79636,1,8,0:0:0:0:
344,368,79786,1,8,0:0:0:0:
248,264,79936,1,0,0:0:0:0:
248,264,80086,1,8,0:0:0:0:
248,264,80161,1,8,0:0:0:0:
248,264,80236,1,0,0:0:0:0:
248,264,80386,1,8,0:0:0:0:
248,264,80536,1,0,0:0:0:0:
304,196,80686,1,0,0:0:0:0:
304,196,80761,1,0,0:0:0:0:
304,196,80836,1,8,0:0:0:0:
352,284,80986,1,8,0:0:0:0:
432,192,81136,1,0,0:0:0:0:
444,252,81286,1,8,0:0:0:0:
444,252,81361,1,8,0:0:0:0:
444,252,81436,1,0,0:0:0:0:
444,252,81586,1,8,0:0:0:0:
444,252,81661,1,8,0:0:0:0:
444,252,81736,1,0,0:0:0:0:
244,232,82036,1,0,0:0:0:0:
244,232,82111,1,8,0:0:0:0:
244,232,82186,1,0,0:0:0:0:
244,232,82261,1,8,0:0:0:0:
244,232,82336,1,0,0:0:0:0:
144,240,82486,1,0,0:0:0:0:
144,240,82561,1,0,0:0:0:0:
144,240,82636,1,8,0:0:0:0:
316,328,82786,1,8,0:0:0:0:
308,208,82936,1,0,0:0:0:0:
356,160,83086,1,8,0:0:0:0:
328,128,83161,1,8,0:0:0:0:
384,200,83236,1,0,0:0:0:0:
408,268,83386,1,8,0:0:0:0:
380,336,83536,1,0,0:0:0:0:
432,296,83686,1,0,0:0:0:0:
196,56,83836,1,8,0:0:0:0:
288,56,83986,1,8,0:0:0:0:
288,56,84061,1,8,0:0:0:0:
288,56,84136,1,0,0:0:0:0:
272,116,84286,1,0,0:0:0:0:
352,100,84436,1,8,0:0:0:0:
384,112,84586,1,8,0:0:0:0:
424,176,84736,1,0,0:0:0:0:
404,236,84886,1,0,0:0:0:0:
368,296,85036,1,8,0:0:0:0:
328,312,85186,1,8,0:0:0:0:
264,328,85336,1,0,0:0:0:0:
136,204,85486,1,8,0:0:0:0:
136,204,85561,1,8,0:0:0:0:
136,204,85636,1,0,0:0:0:0:
192,236,85786,1,8,0:0:0:0:
248,168,85936,1,4,0:0:0:0:
248,168,86136,1,4,0:0:0:0:
248,168,86336,1,6,0:0:0:0:
248,168,86536,1,4,0:0:0:0:
248,168,86736,1,6,0:0:0:0:
248,168,86936,1,6,0:0:0:0:
268,120,87136,1,0,0:0:0:0:
384,76,87211,1,0,0:0:0:0:
384,76,87286,1,0,0:0:0:0:
388,212,87436,1,6,0:0:0:0:
332,232,87586,1,8,0:0:0:0:
356,304,87736,1,0,0:0:0:0:
272,332,87886,1,8,0:0:0:0:
272,332,87961,1,8,0:0:0:0:
272,332,88036,1,0,0:0:0:0:
256,264,88186,1,8,0:0:0:0:
184,256,88336,1,0,0:0:0:0:
172,148,88486,1,0,0:0:0:0:
172,148,88561,1,0,0:0:0:0:
172,148,88636,1,8,0:0:0:0:
204,120,88786,1,8,0:0:0:0:
272,164,88936,1,0,0:0:0:0:
272,164,89086,1,8,0:0:0:0:
272,164,89236,1,0,0:0:0:0:
272,164,89311,1,0,0:0:0:0:
272,164,89386,1,8,0:0:0:0:
272,164,89461,1,8,0:0:0:0:
272,164,89536,1,0,0:0:0:0:
336,212,89686,1,8,0:0:0:0:
336,212,89761,1,8,0:0:0:0:
336,212,89836,1,0,0:0:0:0:
336,212,89986,1,8,0:0:0:0:
336,212,90136,1,0,0:0:0:0:
336,212,90211,1,0,0:0:0:0:
336,212,90286,1,8,0:0:0:0:
336,212,90436,1,0,0:0:0:0:
336,212,90586,1,8,0:0:0:0:
340,292,90736,1,0,0:0:0:0:
340,292,90886,1,8,0:0:0:0:
340,292,90961,1,8,0:0:0:0:
340,292,91036,1,0,0:0:0:0:
340,292,91186,1,8,0:0:0:0:
404,272,91336,1,0,0:0:0:0:
404,272,91411,1,0,0:0:0:0:
404,272,91486,1,0,0:0:0:0:
404,272,91561,1,0,0:0:0:0:
404,272,91636,1,8,0:0:0:0:
404,272,91711,1,8,0:0:0:0:
404,272,91786,1,8,0:0:0:0:
404,272,91861,1,8,0:0:0:0:
404,272,91936,1,0,0:0:0:0:
208,288,92236,1,8,0:0:0:0:
332,148,92536,1,0,0:0:0:0:
192,92,92686,1,0,0:0:0:0:
240,176,92836,1,8,0:0:0:0:
356,264,93136,1,0,0:0:0:0:
388,196,93436,1,8,0:0:0:0:
408,288,93586,1,0,0:0:0:0:
328,344,93886,1,0,0:0:0:0:
328,344,94036,1,8,0:0:0:0:
328,344,94336,1,0,0:0:0:0:
440,236,94636,1,8,0:0:0:0:
152,244,94936,1,0,0:0:0:0:
216,284,95086,1,0,0:0:0:0:
188,192,95236,1,8,0:0:0:0:
384,204,95386,1,0,0:0:0:0:
368,228,95536,1,4,0:0:0:0:
204,124,95836,1,6,0:0:0:0:
200,288,96136,1,4,0:0:0:0:
484,240,96436,1,6,0:0:0:0:
288,236,96736,1,4,0:0:0:0:
92,248,97036,1,8,0:0:0:0:
184,280,97186,1,0,0:0:0:0:
376,240,97486,1,0,0:0:0:0:
296,296,97636,1,8,0:0:0:0:
300,352,97936,1,0,0:0:0:0:
264,228,98136,1,8,0:0:0:0:
264,96,98336,1,8,0:0:0:0:
396,108,98536,1,0,0:0:0:0:
424,236,98736,1,8,0:0:0:0:
296,256,98936,1,8,0:0:0:0:
164,260,99136,1,0,0:0:0:0:
228,76,99436,1,8,0:0:0:0:
268,164,99586,1,0,0:0:0:0:
92,248,99886,1,0,0:0:0:0:
188,240,100036,1,8,0:0:0:0:
376,300,100336,1,4,0:0:0:0:
276,132,100636,1,6,0:0:0:0:
428,256,100936,1,4,0:0:0:0:
240,204,101236,1,6,0:0:0:0:
320,384,101536,1,4,0:0:0:0:
72,228,101986,1,0,0:0:0:0:
160,188,102136,1,8,0:0:0:0:
284,36,102436,1,0,0:0:0:0:
332,120,102586,1,0,0:0:0:0:
348,216,102736,1,0,0:0:0:0:
252,224,102886,1,8,0:0:0:0:
172,284,103036,1,0,0:0:0:0:
360,336,103336,1,8,0:0:0:0:
168,292,103636,1,0,0:0:0:0:
264,288,103786,1,0,0:0:0:0:
168,276,103936,1,0,0:0:0:0:
364,284,104236,1,0,0:0:0:0:
184,208,104536,1,8,0:0:0:0:
372,156,104836,1,0,0:0:0:0:
280,184,104986,1,8,0:0:0:0:
360,240,105136,1,0,0:0:0:0:
264,260,105286,1,8,0:0:0:0:
208,340,105436,1,0,0:0:0:0:
388,236,105736,1,8,0:0:0:0:
296,68,106036,1,0,0:0:0:0:
340,116,106136,1,8,0:0:0:0:
344,180,106236,1,8,0:0:0:0:
280,168,106336,1,4,0:0:0:0:
340,268,108736,1,4,0:0:0:0:
268,208,111136,1,8,0:0:0:0:
384,236,112336,1,8,0:0:0:0:
280,264,113536,1,8,0:0:0:0:
276,224,114736,1,8,0:0:0:0:
304,220,115336,1,8,0:0:0:0:
256,240,115936,1,8,0:0:0:0:
284,240,117136,1,8,0:0:0:0:
348,248,118336,1,8,0:0:0:0:
152,208,119536,1,0,0:0:0:0:
152,208,119611,1,8,0:0:0:0:
152,208,119686,1,8,0:0:0:0:
152,208,119761,1,8,0:0:0:0:
152,208,119836,1,0,0:0:0:0:
152,208,119911,1,8,0:0:0:0:
152,208,119986,1,8,0:0:0:0:
152,208,120061,1,8,0:0:0:0:
180,232,120136,1,0,0:0:0:0:
260,240,120286,1,0,0:0:0:0:
260,240,120361,1,0,0:0:0:0:
256,212,120436,1,8,0:0:0:0:
284,188,120511,1,8,0:0:0:0:
320,180,120586,1,8,0:0:0:0:
356,176,120661,1,8,0:0:0:0:
380,228,120736,1,0,0:0:0:0:
340,340,120886,1,0,0:0:0:0:
284,328,120961,1,0,0:0:0:0:
224,332,121036,1,8,0:0:0:0:
108,332,121186,1,8,0:0:0:0:
12,264,121336,1,0,0:0:0:0:
64,240,121411,1,8,0:0:0:0:
72,124,121561,1,8,0:0:0:0:
120,88,121636,1,0,0:0:0:0:
236,88,121786,1,8,0:0:0:0:
348,48,121936,1,0,0:0:0:0:
356,164,122086,1,0,0:0:0:0:
356,224,122161,1,0,0:0:0:0:
328,276,122236,1,8,0:0:0:0:
212,256,122386,1,8,0:0:0:0:
300,180,122536,1,0,0:0:0:0:
340,68,122686,1,8,0:0:0:0:
384,104,122761,1,8,0:0:0:0:
416,152,122836,1,0,0:0:0:0:
460,260,122986,1,8,0:0:0:0:
364,328,123136,1,0,0:0:0:0:
248,304,123286,1,0,0:0:0:0:
192,292,123361,1,0,0:0:0:0:
136,280,123436,1,8,0:0:0:0:
148,164,123586,1,8,0:0:0:0:
212,64,123736,1,0,0:0:0:0:
320,112,123886,1,0,0:0:0:0:
376,128,123961,1,0,0:0:0:0:
416,172,124036,1,8,0:0:0:0:
436,288,124186,1,8,0:0:0:0:
320,296,124336,1,4,0:0:0:0:
144,324,124561,1,6,0:0:0:0:
72,328,124786,1,6,0:0:0:0:
112,216,124936,1,4,0:0:0:0:
96,100,125086,1,0,0:0:0:0:
148,128,125161,1,0,0:0:0:0:
204,148,125236,1,8,0:0:0:0:
260,168,125311,1,8,0:0:0:0:
316,188,125386,1,8,0:0:0:0:
368,212,125461,1,8,0:0:0:0:
380,268,125536,1,0,0:0:0:0:
292,348,125686,1,8,0:0:0:0:
336,240,125836,1,0,0:0:0:0:
316,296,125911,1,0,0:0:0:0:
364,264,125986,1,8,0:0:0:0:
432,168,126136,1,0,0:0:0:0:
336,104,126286,1,8,0:0:0:0:
264,200,126436,1,0,0:0:0:0:
212,232,126511,1,0,0:0:0:0:
152,240,126586,1,8,0:0:0:0:
40,204,126736,1,0,0:0:0:0:
96,100,126886,1,8,0:0:0:0:
212,88,127036,1,0,0:0:0:0:
272,84,127111,1,0,0:0:0:0:
332,88,127186,1,8,0:0:0:0:
252,340,127336,1,0,0:0:0:0:
136,324,127486,1,8,0:0:0:0:
224,244,127636,1,0,0:0:0:0:
188,200,127711,1,0,0:0:0:0:
172,144,127786,1,8,0:0:0:0:
284,240,127936,1,0,0:0:0:0:
428,268,128086,1,8,0:0:0:0:
288,316,128236,1,0,0:0:0:0:
220,288,128311,1,0,0:0:0:0:
148,304,128386,1,8,0:0:0:0:
292,244,128536,1,0,0:0:0:0:
140,212,128686,1,8,0:0:0:0:
216,200,128761,1,8,0:0:0:0:
152,152,128836,1,0,0:0:0:0:
304,120,128986,1,8,0:0:0:0:
460,180,129136,1,0,0:0:0:0:
320,268,129286,1,8,0:0:0:0:
236,256,129361,1,8,0:0:0:0:
152,248,129436,1,0,0:0:0:0:
72,104,129586,1,8,0:0:0:0:
156,116,129661,1,8,0:0:0:0:
240,128,129736,1,0,0:0:0:0:
396,304,130036,1,8,0:0:0:0:
340,284,130111,1,8,0:0:0:0:
280,284,130186,1,8,0:0:0:0:
220,284,130261,1,8,0:0:0:0:
160,292,130336,1,0,0:0:0:0:
172,176,130486,1,0,0:0:0:0:
208,128,130561,1,0,0:0:0:0:
264,116,130636,1,8,0:0:0:0:
380,100,130786,1,8,0:0:0:0:
368,216,130936,1,0,0:0:0:0:
428,216,131011,1,0,0:0:0:0:
452,268,131086,1,8,0:0:0:0:
408,376,131236,1,8,0:0:0:0:
292,356,131386,1,8,0:0:0:0:
176,332,131536,1,0,0:0:0:0:
60,328,131686,1,8,0:0:0:0:
72,272,131761,1,8,0:0:0:0:
80,212,131836,1,0,0:0:0:0:
136,108,131986,1,8,0:0:0:0:
204,204,132136,1,0,0:0:0:0:
268,156,132286,1,8,0:0:0:0:
348,152,132361,1,8,0:0:0:0:
424,164,132436,1,0,0:0:0:0:
308,160,132586,1,8,0:0:0:0:
280,276,132736,1,0,0:0:0:0:
276,216,132811,1,0,0:0:0:0:
220,204,132886,1,0,0:0:0:0:
104,180,133036,1,8,0:0:0:0:
28,92,133186,1,8,0:0:0:0:
112,176,133336,1,0,0:0:0:0:
172,176,133486,1,0,0:0:0:0:
228,156,133561,1,0,0:0:0:0:
252,40,133636,1,8,0:0:0:0:
352,100,133786,1,8,0:0:0:0:
428,192,133936,1,6,0:0:0:0:
280,288,134161,1,4,0:0:0:0:
164,276,134386,1,6,0:0:0:0:
96,268,134536,1,6,0:0:0:0:
204,316,134686,1,8,0:0:0:0:
260,328,134761,1,0,0:0:0:0:
316,312,134836,1,8,0:0:0:0:
360,272,134911,1,8,0:0:0:0:
388,220,134986,1,8,0:0:0:0:
332,204,135061,1,8,0:0:0:0:
272,200,135136,1,0,0:0:0:0:
156,192,135286,1,8,0:0:0:0:
100,172,135361,1,8,0:0:0:0:
44,156,135436,1,0,0:0:0:0:
108,60,135586,1,8,0:0:0:0:
224,60,135736,1,0,0:0:0:0:
340,72,135886,1,8,0:0:0:0:
376,116,135961,1,8,0:0:0:0:
424,148,136036,1,0,0:0:0:0:
468,256,136186,1,8,0:0:0:0:
368,320,136336,1,0,0:0:0:0:
252,308,136486,1,8,0:0:0:0:
192,300,136561,1,8,0:0:0:0:
132,296,136636,1,0,0:0:0:0:
32,236,136786,1,8,0:0:0:0:
140,188,136936,1,0,0:0:0:0:
256,200,137086,1,8,0:0:0:0:
316,200,137161,1,8,0:0:0:0:
364,168,137236,1,0,0:0:0:0:
420,96,137386,1,8,0:0:0:0:
304,96,137536,1,0,0:0:0:0:
196,140,137686,1,8,0:0:0:0:
136,140,137761,1,8,0:0:0:0:
80,128,137836,1,0,0:0:0:0:
116,240,137986,1,8,0:0:0:0:
228,276,138136,1,0,0:0:0:0:
276,244,138211,1,0,0:0:0:0:
312,196,138286,1,0,0:0:0:0:
276,84,138436,1,8,0:0:0:0:
384,40,138586,1,8,0:0:0:0:
384,156,138736,1,0,0:0:0:0:
420,268,138886,1,8,0:0:0:0:
364,288,138961,1,8,0:0:0:0:
304,296,139036,1,0,0:0:0:0:
188,296,139186,1,8,0:0:0:0:
128,304,139261,1,8,0:0:0:0:
112,248,139336,1,0,0:0:0:0:
156,16,139636,1,0,0:0:0:0:
156,56,139711,1,8,0:0:0:0:
180,128,139786,1,0,0:0:0:0:
212,152,139861,1,8,0:0:0:0:
376,200,139936,1,0,0:0:0:0:
424,92,140086,1,0,0:0:0:0:
488,192,140236,1,8,0:0:0:0:
376,228,140386,1,8,0:0:0:0:
264,268,140536,1,0,0:0:0:0:
148,268,140686,1,8,0:0:0:0:
88,272,140761,1,8,0:0:0:0:
44,232,140836,1,0,0:0:0:0:
88,124,140986,1,8,0:0:0:0:
200,160,141136,1,0,0:0:0:0:
308,112,141286,1,0,0:0:0:0:
420,152,141436,1,8,0:0:0:0:
360,160,141511,1,8,0:0:0:0:
344,216,141586,1,8,0:0:0:0:
444,276,141736,1,0,0:0:0:0:
332,240,141886,1,8,0:0:0:0:
324,356,142036,1,8,0:0:0:0:
316,296,142111,1,8,0:0:0:0:
312,236,142186,1,8,0:0:0:0:
220,160,142336,1,0,0:0:0:0:
104,160,142486,1,8,0:0:0:0:
148,268,142636,1,0,0:0:0:0:
168,212,142711,1,0,0:0:0:0:
212,172,142786,1,8,0:0:0:0:
248,48,142936,1,0,0:0:0:0:
344,80,143086,1,8,0:0:0:0:
400,96,143161,1,8,0:0:0:0:
384,152,143236,1,0,0:0:0:0:
372,268,143386,1,8,0:0:0:0:
284,292,143536,1,4,0:0:0:0:
208,132,143736,1,6,0:0:0:0:
156,300,143936,1,6,0:0:0:0:
300,244,144136,1,0,0:0:0:0:
368,204,144236,1,8,0:0:0:0:
440,176,144336,1,0,0:0:0:0:
392,240,144436,1,8,0:0:0:0:
372,268,144536,1,0,0:0:0:0:
296,288,144636,1,8,0:0:0:0:
240,232,144736,1,0,0:0:0:0:
124,204,144886,1,8,0:0:0:0:
72,176,144961,1,8,0:0:0:0:
84,120,145036,1,0,0:0:0:0:
196,88,145186,1,8,0:0:0:0:
308,124,145336,1,0,0:0:0:0:
272,76,145411,1,0,0:0:0:0:
328,92,145486,1,8,0:0:0:0:
428,156,145636,1,0,0:0:0:0:
388,264,145786,1,8,0:0:0:0:
288,328,145936,1,0,0:0:0:0:
176,292,146086,1,0,0:0:0:0:
120,280,146161,1,0,0:0:0:0:
172,256,146236,1,8,0:0:0:0:
76,192,146386,1,8,0:0:0:0:
192,176,146536,1,0,0:0:0:0:
248,196,146611,1,0,0:0:0:0:
308,204,146686,1,0,0:0:0:0:
396,284,146836,1,8,0:0:0:0:
280,308,146986,1,8,0:0:0:0:
248,196,147136,1,0,0:0:0:0:
304,92,147286,1,8,0:0:0:0:
360,108,147361,1,8,0:0:0:0:
408,140,147436,1,0,0:0:0:0:
296,172,147586,1,8,0:0:0:0:
252,280,147736,1,0,0:0:0:0:
136,288,147886,1,8,0:0:0:0:
80,272,147961,1,8,0:0:0:0:
88,212,148036,1,0,0:0:0:0:
120,100,148186,1,8,0:0:0:0:
212,24,148336,1,0,0:0:0:0:
276,124,148486,1,8,0:0:0:0:
224,152,148561,1,8,0:0:0:0:
176,188,148636,1,0,0:0:0:0:
276,252,148786,1,8,0:0:0:0:
332,264,148861,1,8,0:0:0:0:
360,212,148936,1,0,0:0:0:0:
156,16,149236,1,0,0:0:0:0:
168,72,149311,1,8,0:0:0:0:
180,128,149386,1,0,0:0:0:0:
212,152,149461,1,8,0:0:0:0:
376,200,149536,1,0,0:0:0:0:
424,92,149686,1,0,0:0:0:0:
488,192,149836,1,8,0:0:0:0:
376,228,149986,1,8,0:0:0:0:
264,268,150136,1,0,0:0:0:0:
148,268,150286,1,8,0:0:0:0:
88,272,150361,1,8,0:0:0:0:
44,232,150436,1,0,0:0:0:0:
88,124,150586,1,8,0:0:0:0:
200,160,150736,1,0,0:0:0:0:
308,112,150886,1,0,0:0:0:0:
420,152,151036,1,8,0:0:0:0:
360,160,151111,1,8,0:0:0:0:
344,216,151186,1,0,0:0:0:0:
444,276,151336,1,0,0:0:0:0:
332,240,151486,1,8,0:0:0:0:
324,356,151636,1,8,0:0:0:0:
316,296,151711,1,8,0:0:0:0:
312,236,151786,1,8,0:0:0:0:
220,160,151936,1,0,0:0:0:0:
104,160,152086,1,8,0:0:0:0:
148,268,152236,1,0,0:0:0:0:
168,212,152311,1,0,0:0:0:0:
212,172,152386,1,8,0:0:0:0:
228,56,152536,1,0,0:0:0:0:
344,80,152686,1,8,0:0:0:0:
400,96,152761,1,8,0:0:0:0:
384,152,152836,1,0,0:0:0:0:
372,268,152986,1,8,0:0:0:0:
284,292,153136,1,4,0:0:0:0:
208,132,153336,1,6,0:0:0:0:
156,300,153536,1,6,0:0:0:0:
300,244,153736,1,0,0:0:0:0:
368,204,153836,1,8,0:0:0:0:
440,176,153936,1,0,0:0:0:0:
392,240,154036,1,8,0:0:0:0:
372,268,154136,1,0,0:0:0:0:
296,288,154236,1,8,0:0:0:0:
240,232,154336,1,0,0:0:0:0:
124,204,154486,1,8,0:0:0:0:
72,176,154561,1,8,0:0:0:0:
84,120,154636,1,0,0:0:0:0:
196,88,154786,1,8,0:0:0:0:
308,124,154936,1,0,0:0:0:0:
272,76,155011,1,0,0:0:0:0:
328,92,155086,1,8,0:0:0:0:
428,156,155236,1,0,0:0:0:0:
388,264,155386,1,8,0:0:0:0:
288,328,155536,1,0,0:0:0:0:
176,292,155686,1,0,0:0:0:0:
120,280,155761,1,0,0:0:0:0:
172,256,155836,1,8,0:0:0:0:
76,192,155986,1,8,0:0:0:0:
192,176,156136,1,0,0:0:0:0:
248,196,156211,1,0,0:0:0:0:
308,204,156286,1,0,0:0:0:0:
396,284,156436,1,8,0:0:0:0:
280,308,156586,1,8,0:0:0:0:
248,196,156736,1,0,0:0:0:0:
304,92,156886,1,8,0:0:0:0:
360,108,156961,1,8,0:0:0:0:
408,140,157036,1,0,0:0:0:0:
296,172,157186,1,8,0:0:0:0:
252,280,157336,1,0,0:0:0:0:
136,288,157486,1,8,0:0:0:0:
80,272,157561,1,8,0:0:0:0:
88,212,157636,1,0,0:0:0:0:
120,100,157786,1,8,0:0:0:0:
212,24,157936,1,0,0:0:0:0:
276,124,158086,1,8,0:0:0:0:
224,152,158161,1,8,0:0:0:0:
176,188,158236,1,0,0:0:0:0:
276,252,158386,1,8,0:0:0:0:
332,264,158461,1,8,0:0:0:0:
360,212,158536,1,0,0:0:0:0:
