osu file format v12

[General]
AudioFilename: Kanata ni mau wa sakura no ritsu be.mp3
AudioLeadIn: 0
PreviewTime: 62770
Countdown: 0
SampleSet: Normal
StackLeniency: 0.7
Mode: 1
LetterboxInBreaks: 0
WidescreenStoryboard: 1

[Editor]
DistanceSpacing: 1.4
BeatDivisor: 4
GridSize: 4

[Metadata]
Title:Kanata ni Mau wa Sakura no Shirabe
TitleUnicode:彼方に舞うは桜の律べ
Artist:Rohi
ArtistUnicode:ろひ
Creator:mintong89
Version:Taiko Muzukashii
Source:
Tags:Vocaloid Kagamine Rin Flower ぽかぽん ナツメ神楽
BeatmapID:290551
BeatmapSetID:111635

[Difficulty]
HPDrainRate:5
CircleSize:5
OverallDifficulty:5
ApproachRate:5
SliderMultiplier:1.4
SliderTickRate:1

[Events]
//Background and Video events
0,0,"BG.jpg",0,100
//Break Periods
//Storyboard Layer 0 (Background)
//Storyboard Layer 1 (Fail)
//Storyboard Layer 2 (Pass)
//Storyboard Layer 3 (Foreground)
//Storyboard Sound Samples
//Background Colour Transformations
3,100,163,162,255

[TimingPoints]
14478,375,6,1,0,85,1,0
14478,-80,6,1,0,85,0,0
14665,342.857142857143,6,1,0,85,1,8
14836,300,6,1,0,85,1,8
15436,300,6,1,0,85,1,0
16336,300,6,1,0,85,1,0
28936,300,4,1,0,85,1,0
48136,300,6,1,0,85,1,0
48211,-133.333333333333,6,1,0,85,0,0
62536,-100,6,1,0,85,0,0
63136,300,4,1,0,85,1,1
82336,-100,4,1,0,85,0,0
111136,-133.333333333333,4,1,0,85,0,0
119536,-100,4,1,0,85,0,0
120736,-100,4,1,0,85,0,1
139936,-100,4,1,0,85,0,0

[HitObjects]
304,232,14478,5,4,0:0:0:0:
120,92,14836,1,8,0:0:0:0:
128,188,14986,1,8,0:0:0:0:
192,300,15136,1,0,0:0:0:0:
384,340,15436,1,0,0:0:0:0:
300,288,15586,1,8,0:0:0:0:
216,236,15736,1,0,0:0:0:0:
272,156,15886,1,8,0:0:0:0:
332,80,16036,1,0,0:0:0:0:
204,228,16336,1,0,0:0:0:0:
204,252,16636,1,0,0:0:0:0:
300,228,16786,1,8,0:0:0:0:
396,200,16936,1,0,0:0:0:0:
248,328,17236,1,8,0:0:0:0:
152,304,17386,1,8,0:0:0:0:
60,336,17536,1,0,0:0:0:0:
112,252,17686,1,8,0:0:0:0:
104,156,17836,1,0,0:0:0:0:
304,232,18136,1,4,0:0:0:0:
120,92,18436,1,8,0:0:0:0:
128,188,18586,1,8,0:0:0:0:
192,300,18736,1,0,0:0:0:0:
384,340,19036,1,0,0:0:0:0:
300,288,19186,1,8,0:0:0:0:
216,236,19336,1,0,0:0:0:0:
272,156,19486,1,8,0:0:0:0:
332,80,19636,1,0,0:0:0:0:
204,228,19936,1,0,0:0:0:0:
204,252,20236,1,0,0:0:0:0:
300,228,20386,1,8,0:0:0:0:
396,200,20536,1,0,0:0:0:0:
248,328,20836,1,8,0:0:0:0:
152,304,20986,1,8,0:0:0:0:
60,336,21136,1,0,0:0:0:0:
112,252,21286,1,8,0:0:0:0:
104,156,21436,1,8,0:0:0:0:
104,156,21586,1,8,0:0:0:0:
304,232,21736,1,4,0:0:0:0:
120,92,22036,1,8,0:0:0:0:
128,188,22186,1,8,0:0:0:0:
192,300,22336,1,0,0:0:0:0:
384,340,22636,1,0,0:0:0:0:
300,288,22786,1,8,0:0:0:0:
216,236,22936,1,0,0:0:0:0:
272,156,23086,1,8,0:0:0:0:
332,80,23236,1,0,0:0:0:0:
204,228,23536,1,0,0:0:0:0:
204,252,23836,1,0,0:0:0:0:
300,228,23986,1,8,0:0:0:0:
396,200,24136,1,0,0:0:0:0:
248,328,24436,1,8,0:0:0:0:
152,304,24586,1,8,0:0:0:0:
60,336,24736,1,0,0:0:0:0:
112,252,24886,1,8,0:0:0:0:
104,156,25036,1,0,0:0:0:0:
304,232,25336,1,4,0:0:0:0:
120,92,25636,1,8,0:0:0:0:
128,188,25786,1,8,0:0:0:0:
192,300,25936,1,0,0:0:0:0:
384,340,26236,1,0,0:0:0:0:
300,288,26386,1,8,0:0:0:0:
216,236,26536,1,0,0:0:0:0:
272,156,26686,1,8,0:0:0:0:
332,80,26836,1,0,0:0:0:0:
204,228,27136,1,0,0:0:0:0:
204,252,27436,1,0,0:0:0:0:
300,228,27586,1,8,0:0:0:0:
396,200,27736,1,0,0:0:0:0:
248,328,28036,1,8,0:0:0:0:
152,304,28186,1,8,0:0:0:0:
60,336,28336,1,0,0:0:0:0:
112,252,28486,1,8,0:0:0:0:
104,156,28636,1,8,0:0:0:0:
104,156,28786,1,8,0:0:0:0:
120,60,28936,1,4,0:0:0:0:
312,100,29236,1,8,0:0:0:0:
216,120,29386,1,0,0:0:0:0:
140,300,29686,1,0,0:0:0:0:
224,248,29836,1,8,0:0:0:0:
308,196,29986,1,0,0:0:0:0:
404,192,30136,1,0,0:0:0:0:
348,380,30436,1,8,0:0:0:0:
224,228,30736,1,0,0:0:0:0:
284,304,30886,1,0,0:0:0:0:
360,244,31036,1,8,0:0:0:0:
392,152,31186,1,8,0:0:0:0:
308,104,31336,1,0,0:0:0:0:
116,72,31636,1,8,0:0:0:0:
276,188,31936,1,0,0:0:0:0:
180,208,32086,1,0,0:0:0:0:
100,268,32236,1,8,0:0:0:0:
68,76,32536,1,0,0:0:0:0:
180,236,32836,1,8,0:0:0:0:
296,80,33136,1,0,0:0:0:0:
244,164,33286,1,8,0:0:0:0:
340,184,33436,1,8,0:0:0:0:
120,60,33736,1,0,0:0:0:0:
312,100,34036,1,8,0:0:0:0:
216,120,34186,1,0,0:0:0:0:
140,300,34486,1,0,0:0:0:0:
224,248,34636,1,8,0:0:0:0:
308,196,34786,1,0,0:0:0:0:
404,192,34936,1,0,0:0:0:0:
348,380,35236,1,8,0:0:0:0:
224,228,35536,1,0,0:0:0:0:
284,304,35686,1,0,0:0:0:0:
360,244,35836,1,8,0:0:0:0:
392,152,35986,1,8,0:0:0:0:
308,104,36136,1,0,0:0:0:0:
116,72,36436,1,8,0:0:0:0:
276,188,36736,1,0,0:0:0:0:
180,208,36886,1,0,0:0:0:0:
100,268,37036,1,8,0:0:0:0:
68,76,37336,1,0,0:0:0:0:
180,236,37636,1,8,0:0:0:0:
296,80,37936,1,0,0:0:0:0:
244,164,38086,1,8,0:0:0:0:
340,184,38236,1,8,0:0:0:0:
400,260,38386,1,8,0:0:0:0:
124,64,38536,1,0,0:0:0:0:
316,104,38836,1,8,0:0:0:0:
220,124,38986,1,0,0:0:0:0:
144,304,39286,1,0,0:0:0:0:
228,252,39436,1,8,0:0:0:0:
312,200,39586,1,0,0:0:0:0:
408,196,39736,1,0,0:0:0:0:
352,384,40036,1,8,0:0:0:0:
228,232,40336,1,0,0:0:0:0:
288,308,40486,1,0,0:0:0:0:
364,248,40636,1,8,0:0:0:0:
396,156,40786,1,8,0:0:0:0:
312,108,40936,1,0,0:0:0:0:
120,76,41236,1,8,0:0:0:0:
280,192,41536,1,0,0:0:0:0:
184,212,41686,1,0,0:0:0:0:
104,272,41836,1,8,0:0:0:0:
72,80,42136,1,0,0:0:0:0:
184,240,42436,1,8,0:0:0:0:
300,84,42736,1,0,0:0:0:0:
248,168,42886,1,0,0:0:0:0:
344,188,43036,1,0,0:0:0:0:
124,64,43336,1,0,0:0:0:0:
316,104,43636,1,8,0:0:0:0:
220,124,43786,1,0,0:0:0:0:
144,304,44086,1,0,0:0:0:0:
228,252,44236,1,8,0:0:0:0:
312,200,44386,1,0,0:0:0:0:
408,196,44536,1,0,0:0:0:0:
352,384,44836,1,8,0:0:0:0:
228,232,45136,1,0,0:0:0:0:
288,308,45286,1,0,0:0:0:0:
364,248,45436,1,8,0:0:0:0:
396,156,45586,1,8,0:0:0:0:
312,108,45736,1,0,0:0:0:0:
120,76,46036,1,8,0:0:0:0:
280,192,46336,1,0,0:0:0:0:
184,212,46486,1,0,0:0:0:0:
104,272,46636,1,8,0:0:0:0:
72,80,46936,1,0,0:0:0:0:
184,240,47236,1,8,0:0:0:0:
300,84,47536,1,0,0:0:0:0:
248,168,47686,1,8,0:0:0:0:
344,188,47836,1,8,0:0:0:0:
344,248,48136,1,4,0:0:0:0:
304,292,48436,1,0,0:0:0:0:
304,292,48586,1,8,0:0:0:0:
304,292,48736,1,0,0:0:0:0:
228,320,49036,1,0,0:0:0:0:
200,272,49336,1,8,0:0:0:0:
304,180,49636,1,0,0:0:0:0:
352,208,49786,1,8,0:0:0:0:
372,244,49936,1,0,0:0:0:0:
404,312,50236,1,0,0:0:0:0:
436,200,50536,1,8,0:0:0:0:
400,128,50836,1,0,0:0:0:0:
272,212,51136,1,8,0:0:0:0:
272,212,51286,1,8,0:0:0:0:
272,212,51436,1,8,0:0:0:0:
156,184,51736,1,0,0:0:0:0:
224,152,52036,1,0,0:0:0:0:
308,128,52336,1,8,0:0:0:0:
376,200,52636,1,0,0:0:0:0:
360,256,52936,1,0,0:0:0:0:
324,308,53086,1,8,0:0:0:0:
276,332,53236,1,0,0:0:0:0:
240,276,53536,1,0,0:0:0:0:
460,300,53836,1,0,0:0:0:0:
328,216,53986,1,8,0:0:0:0:
436,204,54136,1,8,0:0:0:0:
296,212,54436,1,0,0:0:0:0:
272,144,54736,1,8,0:0:0:0:
272,144,54886,1,8,0:0:0:0:
272,144,55036,1,8,0:0:0:0:
344,248,55336,1,4,0:0:0:0:
304,292,55636,1,0,0:0:0:0:
304,292,55786,1,8,0:0:0:0:
304,292,55936,1,0,0:0:0:0:
228,320,56236,1,0,0:0:0:0:
200,272,56536,1,8,0:0:0:0:
304,180,56836,1,0,0:0:0:0:
352,208,56986,1,8,0:0:0:0:
372,244,57136,1,0,0:0:0:0:
404,312,57436,1,0,0:0:0:0:
436,200,57736,1,8,0:0:0:0:
400,128,58036,1,0,0:0:0:0:
272,212,58336,1,8,0:0:0:0:
272,212,58486,1,8,0:0:0:0:
272,212,58636,1,8,0:0:0:0:
156,184,58936,1,0,0:0:0:0:
224,152,59236,1,0,0:0:0:0:
308,128,59536,1,8,0:0:0:0:
376,200,59836,1,0,0:0:0:0:
360,256,60136,1,0,0:0:0:0:
324,308,60286,1,8,0:0:0:0:
276,332,60436,1,0,0:0:0:0:
240,276,60736,1,0,0:0:0:0:
460,300,61036,1,0,0:0:0:0:
328,216,61186,1,8,0:0:0:0:
436,204,61336,1,8,0:0:0:0:
296,212,61636,1,0,0:0:0:0:
272,144,61936,1,8,0:0:0:0:
272,144,62086,1,8,0:0:0:0:
272,144,62236,1,8,0:0:0:0:
392,192,62536,1,8,0:0:0:0:
392,192,62836,1,8,0:0:0:0:
160,196,63136,1,4,0:0:0:0:
200,280,63436,1,8,0:0:0:0:
296,292,63736,1,0,0:0:0:0:
296,292,63886,1,0,0:0:0:0:
296,292,64036,1,8,0:0:0:0:
296,292,64186,1,8,0:0:0:0:
296,292,64336,1,0,0:0:0:0:
328,256,64636,1,8,0:0:0:0:
320,180,64936,1,0,0:0:0:0:
320,180,65086,1,0,0:0:0:0:
320,180,65236,1,8,0:0:0:0:
220,232,65536,1,0,0:0:0:0:
224,172,65836,1,8,0:0:0:0:
300,68,66136,1,0,0:0:0:0:
300,68,66286,1,0,0:0:0:0:
300,68,66436,1,8,0:0:0:0:
300,68,66586,1,8,0:0:0:0:
140,128,66736,1,4,0:0:0:0:
140,128,66961,1,6,0:0:0:0:
140,128,67186,1,6,0:0:0:0:
140,128,67336,1,4,0:0:0:0:
232,304,67936,1,0,0:0:0:0:
212,212,68236,1,8,0:0:0:0:
228,120,68536,1,0,0:0:0:0:
228,120,68686,1,0,0:0:0:0:
272,168,68836,1,8,0:0:0:0:
352,300,69136,1,0,0:0:0:0:
348,252,69436,1,8,0:0:0:0:
360,200,69736,1,0,0:0:0:0:
360,200,69886,1,0,0:0:0:0:
360,200,70036,1,8,0:0:0:0:
352,300,70336,1,0,0:0:0:0:
348,252,70636,1,8,0:0:0:0:
360,200,70936,1,0,0:0:0:0:
360,200,71086,1,0,0:0:0:0:
360,200,71236,1,8,0:0:0:0:
200,232,71536,1,0,0:0:0:0:
200,232,71836,1,8,0:0:0:0:
200,232,71986,1,8,0:0:0:0:
200,232,72061,1,8,0:0:0:0:
200,232,72136,1,8,0:0:0:0:
160,196,72736,1,4,0:0:0:0:
200,280,73036,1,8,0:0:0:0:
296,292,73336,1,0,0:0:0:0:
296,292,73486,1,0,0:0:0:0:
296,292,73636,1,8,0:0:0:0:
296,292,73786,1,8,0:0:0:0:
296,292,73936,1,0,0:0:0:0:
328,256,74236,1,8,0:0:0:0:
320,180,74536,1,0,0:0:0:0:
320,180,74686,1,0,0:0:0:0:
320,180,74836,1,8,0:0:0:0:
220,232,75136,1,0,0:0:0:0:
224,172,75436,1,8,0:0:0:0:
300,68,75736,1,0,0:0:0:0:
300,68,75886,1,0,0:0:0:0:
300,68,76036,1,8,0:0:0:0:
300,68,76186,1,8,0:0:0:0:
140,128,76336,1,4,0:0:0:0:
140,128,76561,1,6,0:0:0:0:
140,128,76786,1,6,0:0:0:0:
140,128,76936,1,4,0:0:0:0:
248,240,77536,1,0,0:0:0:0:
292,188,77836,1,8,0:0:0:0:
364,184,78136,1,8,0:0:0:0:
364,184,78286,1,8,0:0:0:0:
364,184,78436,1,0,0:0:0:0:
248,240,78736,1,0,0:0:0:0:
292,188,79036,1,8,0:0:0:0:
364,184,79336,1,8,0:0:0:0:
364,184,79486,1,8,0:0:0:0:
364,184,79636,1,0,0:0:0:0:
248,240,79936,1,0,0:0:0:0:
292,188,80236,1,8,0:0:0:0:
364,184,80536,1,8,0:0:0:0:
364,184,80686,1,8,0:0:0:0:
364,184,80836,1,0,0:0:0:0:
408,280,81136,1,0,0:0:0:0:
200,232,81436,1,0,0:0:0:0:
200,232,81586,1,8,0:0:0:0:
200,232,81661,1,8,0:0:0:0:
200,232,81736,1,8,0:0:0:0:
348,164,82336,1,4,0:0:0:0:
276,172,82636,1,8,0:0:0:0:
176,176,82936,1,0,0:0:0:0:
180,128,83086,1,0,0:0:0:0:
232,112,83236,1,8,0:0:0:0:
288,104,83386,1,8,0:0:0:0:
388,92,83536,1,0,0:0:0:0:
476,152,83836,1,8,0:0:0:0:
444,236,84136,1,0,0:0:0:0:
444,236,84286,1,0,0:0:0:0:
396,296,84436,1,8,0:0:0:0:
236,320,84736,1,0,0:0:0:0:
200,248,85036,1,8,0:0:0:0:
264,172,85336,1,0,0:0:0:0:
264,172,85486,1,8,0:0:0:0:
264,172,85636,1,0,0:0:0:0:
264,172,85786,1,8,0:0:0:0:
208,168,85936,1,4,0:0:0:0:
208,168,86136,1,4,0:0:0:0:
208,168,86336,1,4,0:0:0:0:
328,160,86536,1,6,0:0:0:0:
328,160,86736,1,6,0:0:0:0:
328,160,86936,1,6,0:0:0:0:
304,272,87436,1,6,0:0:0:0:
176,176,87736,1,0,0:0:0:0:
180,128,87886,1,0,0:0:0:0:
232,112,88036,1,8,0:0:0:0:
288,104,88186,1,8,0:0:0:0:
388,92,88336,1,0,0:0:0:0:
476,152,88636,1,8,0:0:0:0:
444,236,88936,1,0,0:0:0:0:
444,236,89086,1,0,0:0:0:0:
396,296,89236,1,8,0:0:0:0:
236,320,89536,1,0,0:0:0:0:
200,248,89836,1,8,0:0:0:0:
264,172,90136,1,0,0:0:0:0:
264,172,90286,1,8,0:0:0:0:
264,172,90436,1,0,0:0:0:0:
264,172,90586,1,8,0:0:0:0:
360,168,90736,1,0,0:0:0:0:
388,260,90886,1,8,0:0:0:0:
348,288,90961,1,8,0:0:0:0:
300,300,91036,1,8,0:0:0:0:
204,316,91186,1,8,0:0:0:0:
108,312,91336,1,0,0:0:0:0:
428,104,91936,1,4,0:0:0:0:
256,192,92236,1,8,0:0:0:0:
296,372,92536,1,0,0:0:0:0:
84,216,92686,1,0,0:0:0:0:
164,160,92836,1,8,0:0:0:0:
344,200,93136,1,0,0:0:0:0:
216,272,93436,1,8,0:0:0:0:
256,192,93586,1,0,0:0:0:0:
428,280,93886,1,0,0:0:0:0:
308,288,94036,1,8,0:0:0:0:
212,120,94336,1,0,0:0:0:0:
264,312,94636,1,8,0:0:0:0:
348,112,94936,1,0,0:0:0:0:
304,220,95086,1,0,0:0:0:0:
200,188,95236,1,8,0:0:0:0:
96,348,95536,1,4,0:0:0:0:
204,208,95836,1,6,0:0:0:0:
336,168,96136,1,4,0:0:0:0:
308,372,96436,1,6,0:0:0:0:
252,196,96736,1,4,0:0:0:0:
80,296,97036,1,8,0:0:0:0:
176,208,97186,1,0,0:0:0:0:
388,236,97486,1,0,0:0:0:0:
284,232,97636,1,8,0:0:0:0:
104,180,97936,1,0,0:0:0:0:
304,156,98236,1,8,0:0:0:0:
244,236,98386,1,0,0:0:0:0:
456,268,98686,1,0,0:0:0:0:
380,268,98836,1,8,0:0:0:0:
296,268,98986,1,0,0:0:0:0:
208,268,99136,1,0,0:0:0:0:
388,272,99436,1,8,0:0:0:0:
196,256,99736,1,0,0:0:0:0:
288,264,99886,1,0,0:0:0:0:
200,256,100036,1,8,0:0:0:0:
340,124,100336,1,4,0:0:0:0:
212,240,100636,1,8,0:0:0:0:
196,44,100936,1,0,0:0:0:0:
204,140,101086,1,0,0:0:0:0:
280,192,101236,1,8,0:0:0:0:
312,252,101386,1,0,0:0:0:0:
312,252,101536,1,4,0:0:0:0:
188,200,102136,1,8,0:0:0:0:
248,248,102736,1,0,0:0:0:0:
340,216,102886,1,8,0:0:0:0:
84,304,103186,1,0,0:0:0:0:
184,284,103336,1,8,0:0:0:0:
320,160,103636,1,8,0:0:0:0:
488,208,103936,1,0,0:0:0:0:
120,220,104536,1,8,0:0:0:0:
156,240,105136,1,0,0:0:0:0:
192,148,105286,1,8,0:0:0:0:
364,56,105586,1,0,0:0:0:0:
292,124,105736,1,8,0:0:0:0:
276,204,106336,1,0,0:0:0:0:
280,220,108736,1,4,0:0:0:0:
228,176,111136,1,8,0:0:0:0:
464,324,111736,1,8,0:0:0:0:
220,172,112336,1,8,0:0:0:0:
332,240,112636,1,8,0:0:0:0:
248,188,112936,1,8,0:0:0:0:
232,264,113536,1,8,0:0:0:0:
492,160,114136,1,8,0:0:0:0:
252,288,114736,1,8,0:0:0:0:
304,136,115036,1,8,0:0:0:0:
256,280,115336,1,8,0:0:0:0:
288,176,115936,1,8,0:0:0:0:
288,176,116536,1,8,0:0:0:0:
288,176,117136,1,8,0:0:0:0:
288,176,117736,1,8,0:0:0:0:
304,184,118336,1,8,0:0:0:0:
304,184,118936,1,8,0:0:0:0:
272,256,119536,1,4,0:0:0:0:
272,256,119836,1,4,0:0:0:0:
272,256,120136,1,4,0:0:0:0:
160,196,120736,1,4,0:0:0:0:
200,280,121036,1,8,0:0:0:0:
296,292,121336,1,0,0:0:0:0:
296,292,121486,1,0,0:0:0:0:
296,292,121636,1,8,0:0:0:0:
296,292,121786,1,8,0:0:0:0:
296,292,121936,1,0,0:0:0:0:
328,256,122236,1,8,0:0:0:0:
320,180,122536,1,0,0:0:0:0:
320,180,122686,1,0,0:0:0:0:
320,180,122836,1,8,0:0:0:0:
220,232,123136,1,0,0:0:0:0:
224,172,123436,1,8,0:0:0:0:
300,68,123736,1,0,0:0:0:0:
300,68,123886,1,0,0:0:0:0:
300,68,124036,1,8,0:0:0:0:
300,68,124186,1,8,0:0:0:0:
140,128,124336,1,4,0:0:0:0:
140,128,124561,1,6,0:0:0:0:
140,128,124786,1,6,0:0:0:0:
140,128,124936,1,4,0:0:0:0:
232,304,125536,1,0,0:0:0:0:
212,212,125836,1,8,0:0:0:0:
228,120,126136,1,0,0:0:0:0:
228,120,126286,1,0,0:0:0:0:
272,168,126436,1,8,0:0:0:0:
352,300,126736,1,0,0:0:0:0:
348,252,127036,1,8,0:0:0:0:
360,200,127336,1,0,0:0:0:0:
360,200,127486,1,0,0:0:0:0:
360,200,127636,1,8,0:0:0:0:
352,300,127936,1,0,0:0:0:0:
348,252,128236,1,8,0:0:0:0:
360,200,128536,1,0,0:0:0:0:
360,200,128686,1,0,0:0:0:0:
360,200,128836,1,8,0:0:0:0:
200,232,129136,1,0,0:0:0:0:
200,232,129436,1,8,0:0:0:0:
200,232,129586,1,8,0:0:0:0:
200,232,129661,1,8,0:0:0:0:
200,232,129736,1,8,0:0:0:0:
160,196,130336,1,4,0:0:0:0:
200,280,130636,1,8,0:0:0:0:
296,292,130936,1,0,0:0:0:0:
296,292,131086,1,0,0:0:0:0:
296,292,131236,1,8,0:0:0:0:
296,292,131386,1,8,0:0:0:0:
296,292,131536,1,0,0:0:0:0:
328,256,131836,1,8,0:0:0:0:
320,180,132136,1,0,0:0:0:0:
320,180,132286,1,0,0:0:0:0:
320,180,132436,1,8,0:0:0:0:
220,232,132736,1,0,0:0:0:0:
224,172,133036,1,8,0:0:0:0:
300,68,133336,1,0,0:0:0:0:
300,68,133486,1,0,0:0:0:0:
300,68,133636,1,8,0:0:0:0:
300,68,133786,1,8,0:0:0:0:
140,128,133936,1,4,0:0:0:0:
140,128,134161,1,6,0:0:0:0:
140,128,134386,1,6,0:0:0:0:
140,128,134536,1,4,0:0:0:0:
248,240,135136,1,0,0:0:0:0:
292,188,135436,1,8,0:0:0:0:
364,184,135736,1,8,0:0:0:0:
364,184,135886,1,8,0:0:0:0:
364,184,136036,1,0,0:0:0:0:
248,240,136336,1,0,0:0:0:0:
292,188,136636,1,8,0:0:0:0:
364,184,136936,1,8,0:0:0:0:
364,184,137086,1,8,0:0:0:0:
364,184,137236,1,0,0:0:0:0:
248,240,137536,1,0,0:0:0:0:
292,188,137836,1,8,0:0:0:0:
364,184,138136,1,8,0:0:0:0:
364,184,138286,1,8,0:0:0:0:
364,184,138436,1,0,0:0:0:0:
408,280,138736,1,0,0:0:0:0:
200,232,139036,1,0,0:0:0:0:
200,232,139186,1,8,0:0:0:0:
200,232,139261,1,8,0:0:0:0:
200,232,139336,1,8,0:0:0:0:
348,164,139936,1,4,0:0:0:0:
276,172,140236,1,8,0:0:0:0:
176,176,140536,1,0,0:0:0:0:
180,128,140686,1,0,0:0:0:0:
232,112,140836,1,8,0:0:0:0:
288,104,140986,1,8,0:0:0:0:
388,92,141136,1,0,0:0:0:0:
476,152,141436,1,8,0:0:0:0:
444,236,141736,1,0,0:0:0:0:
444,236,141886,1,0,0:0:0:0:
396,296,142036,1,8,0:0:0:0:
236,320,142336,1,0,0:0:0:0:
200,248,142636,1,8,0:0:0:0:
264,172,142936,1,0,0:0:0:0:
264,172,143086,1,8,0:0:0:0:
264,172,143236,1,0,0:0:0:0:
264,172,143386,1,8,0:0:0:0:
208,168,143536,1,4,0:0:0:0:
208,168,143736,1,4,0:0:0:0:
208,168,143936,1,4,0:0:0:0:
328,160,144136,1,6,0:0:0:0:
328,160,144336,1,6,0:0:0:0:
328,160,144536,1,6,0:0:0:0:
304,272,145036,1,6,0:0:0:0:
176,176,145336,1,0,0:0:0:0:
180,128,145486,1,0,0:0:0:0:
232,112,145636,1,8,0:0:0:0:
288,104,145786,1,8,0:0:0:0:
388,92,145936,1,0,0:0:0:0:
476,152,146236,1,8,0:0:0:0:
444,236,146536,1,0,0:0:0:0:
444,236,146686,1,0,0:0:0:0:
396,296,146836,1,8,0:0:0:0:
236,320,147136,1,0,0:0:0:0:
200,248,147436,1,8,0:0:0:0:
264,172,147736,1,0,0:0:0:0:
264,172,147886,1,8,0:0:0:0:
264,172,148036,1,0,0:0:0:0:
264,172,148186,1,8,0:0:0:0:
360,168,148336,1,0,0:0:0:0:
388,260,148486,1,8,0:0:0:0:
348,288,148561,1,8,0:0:0:0:
300,300,148636,1,8,0:0:0:0:
204,316,148786,1,8,0:0:0:0:
108,312,148936,1,0,0:0:0:0:
348,164,149536,1,4,0:0:0:0:
276,172,149836,1,8,0:0:0:0:
176,176,150136,1,0,0:0:0:0:
180,128,150286,1,0,0:0:0:0:
232,112,150436,1,8,0:0:0:0:
288,104,150586,1,8,0:0:0:0:
388,92,150736,1,0,0:0:0:0:
476,152,151036,1,8,0:0:0:0:
444,236,151336,1,0,0:0:0:0:
444,236,151486,1,0,0:0:0:0:
396,296,151636,1,8,0:0:0:0:
236,320,151936,1,0,0:0:0:0:
200,248,152236,1,8,0:0:0:0:
264,172,152536,1,0,0:0:0:0:
264,172,152686,1,8,0:0:0:0:
264,172,152836,1,0,0:0:0:0:
264,172,152986,1,8,0:0:0:0:
208,168,153136,1,4,0:0:0:0:
208,168,153336,1,4,0:0:0:0:
208,168,153536,1,4,0:0:0:0:
328,160,153736,1,6,0:0:0:0:
328,160,153936,1,6,0:0:0:0:
328,160,154136,1,6,0:0:0:0:
304,272,154636,1,6,0:0:0:0:
176,176,154936,1,0,0:0:0:0:
180,128,155086,1,0,0:0:0:0:
232,112,155236,1,8,0:0:0:0:
288,104,155386,1,8,0:0:0:0:
388,92,155536,1,0,0:0:0:0:
476,152,155836,1,8,0:0:0:0:
444,236,156136,1,0,0:0:0:0:
444,236,156286,1,0,0:0:0:0:
396,296,156436,1,8,0:0:0:0:
236,320,156736,1,0,0:0:0:0:
200,248,157036,1,8,0:0:0:0:
264,172,157336,1,0,0:0:0:0:
264,172,157486,1,8,0:0:0:0:
264,172,157636,1,0,0:0:0:0:
264,172,157786,1,8,0:0:0:0:
360,168,157936,1,0,0:0:0:0:
388,260,158086,1,8,0:0:0:0:
348,288,158161,1,8,0:0:0:0:
300,300,158236,1,8,0:0:0:0:
204,316,158386,1,8,0:0:0:0:
108,312,158536,1,4,0:0:0:0:
